osu file format v9

[General]
AudioFilename: Senya - Koakuma Apple(EUROBEAT Remix).mp3
AudioLeadIn: 0
PreviewTime: 63519
Countdown: 0
SampleSet: Normal
StackLeniency: 0.7
Mode: 0
LetterboxInBreaks: 1

[Editor]
DistanceSpacing: 1.1
BeatDivisor: 4
GridSize: 4

[Metadata]
Title:Koakuma Apple (EUROBEAT Remix)
Artist:senya
Creator:Chocopikel
Version:Lunatic
Source:Touhou
Tags:Bad apple gensokyo Lotus Land Story yuuhei satellite

[Difficulty]
HPDrainRate:8
CircleSize:4
OverallDifficulty:7
ApproachRate:8
SliderMultiplier:1.7
SliderTickRate:1

[Events]
//Background and Video events
0,0,"BG.jpg"
//Break Periods
2,124972,136252
2,198348,209628
//Storyboard Layer 0 (Background)
//Storyboard Layer 1 (Fail)
//Storyboard Layer 2 (Pass)
//Storyboard Layer 3 (Foreground)
//Storyboard Sound Samples
//Background Colour Transformations
3,100,163,162,255

[TimingPoints]
2480,382.165605095541,4,1,1,50,1,0
63626,-100,4,1,1,70,0,0
88085,-100,4,1,1,70,0,1
112543,-100,4,2,1,100,0,0
112639,-100,4,2,1,80,0,0
114072,-100,4,2,1,100,0,0
114167,-100,4,2,1,80,0,0
114836,-100,4,2,1,100,0,0
114932,-100,4,2,1,80,0,0
115601,-100,4,2,1,100,0,0
115696,-100,4,2,1,80,0,0
117129,-100,4,2,1,100,0,0
117225,-100,4,2,1,80,0,0
118658,-100,4,2,1,100,0,0
118753,-100,4,2,1,80,0,0
120187,-100,4,2,1,100,0,0
120282,-100,4,2,1,80,0,0
120951,-100,4,2,1,100,0,0
121046,-100,4,2,1,80,0,0
121715,-100,4,2,1,100,0,0
121811,-100,4,2,1,80,0,0
123244,-100,4,2,1,10,0,0
124772,-100,4,1,1,70,0,1
124820,-100,4,1,1,70,0,0
137002,-100,4,1,1,50,0,0
149231,-100,4,1,1,70,0,0
173690,-100,4,1,1,70,0,1
198148,-100,4,1,1,70,0,0
210378,-100,4,1,1,100,0,1
210425,-200,4,2,1,80,0,0
222798,-100,4,1,1,70,0,0
245537,-100,4,2,1,10,0,0
247065,-100,4,1,1,70,0,1
247113,-100,4,1,1,70,0,0

[Colours]
Combo1 : 128,0,255
Combo2 : 0,128,255
Combo3 : 255,128,255

[HitObjects]
248,144,39167,6,0,B|276:104|328:104,1,85,6|2
400,152,39550,2,0,B|428:188|412:232,1,85,2|2
396,68,39932,1,0
472,104,40123,1,2
328,188,40314,2,0,B|292:212|280:256,1,85,2|2
132,249,40696,6,0,B|161:284|204:292,1,85,0|2
276,340,41078,1,0
216,216,41269,1,2
48,264,41460,2,0,B|40:208|93:155|160:168,1,170,2|2
396,68,42225,5,2
432,172,42416,1,2
432,172,42511,1,0
432,172,42607,1,2
292,108,42798,1,2
344,224,42989,1,0
332,356,43180,1,2
208,308,43371,2,0,B|244:284|289:285,1,85,2|2
164,236,43753,5,0
176,92,43944,1,2
248,216,44136,1,0
120,160,44327,1,2
256,132,44518,2,2,B|303:100|380:142|385:199,2,170
296,208,45473,5,2
272,340,45664,1,2
228,264,45855,2,0,B|188:237|185:193,1,85,2|0
214,62,46237,2,0,B|253:88|256:132,1,85,2|2
296,208,46620,1,2
428,316,46811,5,0
372,168,47002,1,2
336,296,47193,1,0
448,224,47384,1,2
196,256,47575,2,0,B|138:235|66:291|73:339,1,170,2|2
256,312,48148,1,2
272,220,48339,6,0,B|247:182|279:95|336:82,1,170,2|2
420,88,48913,1,2
272,28,49104,1,0
204,80,49295,1,2
124,52,49486,1,0
64,112,49677,6,0,B|37:156|61:235|115:257,2,170,2|2|2
180,168,50632,2,0,B|234:190|258:268|231:313,1,170,2|2
204,80,51397,6,0,B|251:67|290:100,1,85,6|2
372,188,51779,2,0,B|324:200|285:167,1,85,2|2
404,112,52161,1,0
448,196,52352,1,2
392,272,52543,2,0,B|383:314|406:354,1,85,2|2
256,288,52925,6,0,B|218:261|175:265,1,85,0|2
196,348,53308,1,0
228,196,53499,1,2
180,104,53690,2,0,B|221:65|302:85|320:144,1,170,2|2
104,140,54454,5,2
92,224,54645,1,2
132,224,54741,1,0
164,200,54836,1,2
180,104,55027,1,2
356,136,55218,1,0
276,72,55409,1,2
336,236,55601,2,0,B|350:278|385:304,1,85,2|2
424,228,55983,5,0
436,360,56174,1,2
304,340,56365,1,0
236,264,56556,1,2
268,168,56747,2,2,B|278:112|362:87|406:124,2,170,2|2|2
336,236,57702,5,2
176,184,57894,1,2
193,334,58085,2,0,B|233:307|236:263,1,85,2|0
76,220,58467,2,0,B|102:259|146:262,1,85,2|2
176,184,58849,1,2
260,192,59040,5,0
356,276,59231,1,2
380,152,59422,1,0
260,192,59613,1,2
95,61,59804,2,0,B|74:119|130:191|178:184,1,170,2|2
228,116,60378,1,2
312,128,60569,6,0,B|352:152|404:144|443:104|447:62,1,170,2|2
356,48,61142,1,2
324,216,61333,1,0
488,168,61524,1,2
420,236,61715,1,0
324,216,61906,6,0,B|284:192|232:196|192:232|188:281,2,170,6|6|6
416,348,62862,2,0,B|362:370|290:332|277:281,1,170,6|6
264,104,63626,6,0,B|268:152|304:180,1,85,4|0
464,160,64008,2,0,B|420:156|380:184,1,85,8|0
204,308,64390,2,0,B|264:336|328:304|340:240,1,170,0|8
252,236,64964,1,0
168,224,65155,2,0,B|178:166|242:134|302:162,2,170,0|8|0
108,284,66110,1,0
60,176,66301,1,8
108,284,66492,1,0
108,284,66588,1,0
108,284,66683,6,0,B|140:312|188:308,1,85
168,224,67065,1,8
272,300,67257,1,0
340,192,67448,2,0,B|400:176|460:216|468:280,1,170,0|8
372,276,68021,1,0
400,108,68212,5,0
320,76,68403,1,0
236,88,68594,2,0,B|192:96|160:128,1,85,8|0
224,256,68976,2,0,B|268:248|300:216,1,85
232,172,69358,1,8
168,324,69550,1,0
168,324,69645,1,0
168,324,69741,5,0
20,256,69932,1,0
108,233,70123,2,0,B|112:281|84:313,1,85,8|0
44,172,70505,2,0,B|48:112|104:68|168:84,1,170,0|8
224,144,71078,1,0
276,212,71269,2,0,B|220:240|160:220|132:164,2,170,0|8|0
344,160,72225,1,0
292,92,72416,2,0,B|256:64|212:64,2,85,8|0|0
368,52,72989,5,0
344,160,73180,1,8
360,268,73371,1,0
468,244,73562,2,0,B|464:184|400:140|328:164,1,170,0|8
276,212,74136,1,0
200,172,74327,5,0
104,107,74518,1,0
53,210,74709,1,8
148,274,74900,1,0
72,284,75091,5,0
35,136,75282,1,0
184,100,75473,1,8
220,248,75664,1,0
244,224,75760,1,0
276,212,75855,6,0,B|312:188|360:192,1,85,4|0
424,312,76237,2,0,B|388:336|340:332,1,85,8|0
192,192,76620,2,0,B|168:252|208:324|260:332,1,170,0|8
276,212,77193,1,0
276,212,77384,2,0,B|284:148|235:96|166:108,2,170,0|8|0
360,224,78339,1,0
260,296,78530,1,8
192,192,78722,1,0
112,216,78913,6,0,B|120:260|168:276,1,85
64,144,79295,1,8
32,224,79486,1,0
111,216,79677,2,0,B|156:184|164:100|116:60,1,170,0|8
232,68,80250,1,0
308,104,80441,6,0,B|284:140|236:148,1,85
256,304,80823,1,8
216,228,81015,1,0
296,228,81206,2,0,B|340:227|379:259,2,85,0|0|8
172,296,81779,1,0
29,219,81970,6,0,B|49:259|101:275,1,85
136,192,82352,2,0,B|116:152|64:136,2,85,8|0|0
136,192,83116,5,8
292,148,83308,1,0
312,256,83499,2,0,B|248:252|204:204|208:136,2,170,0|8|0
404,196,84454,1,0
464,288,84645,1,8
372,348,84836,1,0
312,256,85027,6,0,B|304:208|328:168,1,85
208,144,85409,2,0,B|236:104|281:93,1,85,8|0
444,229,85792,2,0,B|460:165|420:105|356:93,1,170,0|8
372,100,86365,1,0
376,104,86556,5,4
353,129,86938,1,4
329,153,87320,1,4
305,177,87702,1,4
281,201,88085,6,0,B|269:257|209:297|145:277,1,170,4|8
125,197,88658,1,0
57,249,88849,2,0,B|37:209|45:165,2,85,0|0|8
77,333,89422,1,0
125,197,89613,2,0,B|145:141|217:113|281:137,1,170,0|8
321,65,90187,2,0,B|369:109|349:193|293:221,1,170
221,229,90760,2,0,B|233:289|313:321|361:289,1,170,8|0
125,197,91524,5,8
157,121,91715,2,0,B|105:101|41:141|41:209,1,170
93,273,92288,2,0,B|145:293|209:253|209:185,1,170,8|0
209,186,93053,5,8
157,121,93244,2,0,B|201:89|281:113|293:177,1,170
349,365,93817,2,0,B|294:370|237:309|259:248,2,170,8|0|8
396,140,94964,6,0,B|356:112|352:60,2,85,0|0|8
404,296,95537,1,0
436,216,95728,2,0,B|380:200|312:252|320:312,1,170,0|8
236,296,96301,1,0
158,260,96492,2,0,B|112:229|37:248|12:300,2,170,0|8|0
100,328,97448,5,0
20,188,97639,1,8
136,172,97830,1,0
52,48,98021,2,0,B|48:92|68:132,1,85
140,88,98403,2,0,B|192:60|264:80|288:136,1,170,8|0
288,216,98976,5,0
404,244,99167,1,8
360,172,99358,1,0
252,311,99550,2,0,B|296:315|340:283,1,85
428,96,99932,2,0,B|468:144|452:228|396:248,1,170,8|4
264,161,100505,5,0
264,161,100601,1,0
264,161,100696,1,8
171,176,100887,1,0
140,88,101078,5,0
104,240,101269,1,0
170,176,101460,2,0,B|130:156|82:156,1,85,8|0
20,288,101843,2,0,B|52:328|132:340|184:320,1,170,0|8
214,118,102416,2,0,B|254:150|266:230|246:282,1,170
312,332,102989,1,8
341,138,103180,1,0
341,138,103276,1,0
341,138,103371,6,0,B|341:182|361:222,1,85
415,115,103753,1,8
359,51,103944,2,0,B|302:41|238:69|210:125,1,170
264,212,104518,1,8
259,319,104709,1,0
259,319,104804,1,0
259,319,104900,6,0,B|216:340|136:308|116:256,1,170,0|8
91,131,105473,2,0,B|46:154|22:226|46:282,1,170
159,183,106046,2,0,B|214:195|278:131|266:79,2,170,8|0|8
443,139,107193,5,0
408,292,107384,1,0
392,208,107575,2,0,B|440:212|476:236,1,85,8|0
316,248,107957,2,0,B|252:240|208:176|220:120,1,170,0|8
172,56,108530,1,0
124,128,108722,2,0,B|134:175|90:239|26:247,1,170,0|8
256,192,109486,12,4,112161
308,140,112543,6,0,B|268:112|220:112,1,85,2|0
120,96,112925,1,0
116,128,113021,1,0
120,160,113116,1,0
116,192,113212,2,0,B|116:288,2,85
220,228,113785,1,0
252,240,113881,1,0
308,140,114072,6,0,B|336:172|384:176,1,85,2|0
416,176,114358,2,0,B|456:200|468:248,1,85
468,276,114645,2,0,B|457:317|417:341,2,85,0|2|0
432,272,115123,1,0
400,268,115218,1,0
368,272,115314,1,0
336,280,115409,2,0,B|300:308|248:312,1,85,0|2
116,192,115792,5,0
60,96,115983,2,0,B|20:80,2,42.5
92,96,116269,2,0,B|132:80|176:80,1,85
208,80,116556,1,0
228,108,116651,2,0,B|228:152|252:188,1,85
264,220,116938,1,0
444,268,117129,5,2
456,236,117225,1,0
456,204,117320,1,0
456,168,117416,2,0,B|436:128|396:108,1,85
364,108,117702,2,0,B|324:88|304:48,2,85
364,144,118180,1,0
252,148,118371,1,0
228,172,118467,1,0
116,192,118658,5,2
28,260,118849,1,0
116,328,119040,1,0
148,324,119136,1,0
180,324,119231,1,0
212,328,119327,2,0,B|252:340|296:328,1,85
328,324,119613,1,0
360,328,119709,2,0,B|404:316|448:328,1,85
476,332,119995,1,0
456,144,120187,6,0,B|412:164|392:204,1,85,2|0
360,200,120473,2,0,B|316:212|272:200,1,85
244,200,120760,1,0
208,80,120951,2,0,B|160:88|128:116,1,85,2|0
112,140,121237,2,0,B|116:184|100:228,1,85
96,256,121524,1,0
336,308,121715,5,2
176,308,121906,1,0
256,168,122097,1,0
256,200,122193,1,0
256,232,122288,1,0
256,264,122384,2,0,B|232:296|284:328|244:360,2,85
256,92,122957,1,0
256,92,123053,1,0
256,192,123244,12,4,124772
96,304,137002,6,0,B|56:276|56:224,1,85,6|2
180,172,137384,2,0,B|220:200|220:252,1,85,2|2
140,240,137766,1,0
144,104,137957,1,2
272,152,138148,2,0,B|304:180|352:180,1,85,2|2
434,61,138530,6,0,B|446:105|426:149,1,85,0|2
420,228,138913,1,0
296,320,139104,1,2
232,264,139295,2,0,B|284:228|356:248|379:303,1,170,2|2
144,104,140059,6,0,B|136:148|100:176,1,85,2|2
68,184,140346,1,0
36,196,140441,2,0,B|12:236|20:284,1,85,2|2
116,332,140823,1,0
148,252,141015,1,2
312,240,141206,2,0,B|276:264|228:264,1,85,2|2
248,180,141588,5,0
292,324,141779,1,2
396,216,141970,1,0
340,128,142161,1,2
248,180,142352,2,2,B|204:216|120:192|108:132,2,170,2|2|2
192,116,143308,5,2
248,264,143499,1,2
248,180,143690,2,0,B|292:184|320:220,1,85,2|0
248,352,144072,2,0,B|204:348|176:312,1,85,2|2
132,240,144454,1,2
109,136,144645,5,0
28,208,144836,1,2
132,240,145027,1,0
208,164,145218,1,2
28,208,145409,2,0,B|7:268|63:340|124:332,1,170,2|2
236,284,145983,1,2
340,128,146174,6,0,B|392:156|400:248|367:278,1,170,2|2
300,332,146747,1,2
220,212,146938,1,0
212,352,147129,1,2
302,245,147320,1,0
160,280,147511,6,0,B|102:288|42:232|42:168,2,170,2|2|2
252,92,148467,2,0,B|194:84|134:140|134:204,1,170,2|2
472,172,149231,6,0,B|424:176|396:212,1,85,4|0
416,372,149613,2,0,B|420:328|392:288,1,85,8|0
268,112,149995,2,0,B|240:172|272:236|336:248,1,170,0|8
340,160,150569,1,0
352,76,150760,2,0,B|410:86|442:150|414:210,2,170,0|8|0
172,80,151715,1,0
100,152,151906,1,8
268,112,152097,1,0
172,80,152288,6,0,B|163:121|191:161,1,85
224,240,152671,1,8
332,172,152862,1,0
424,260,153053,2,0,B|423:321|369:368|312:360,1,170,0|8
336,280,153626,1,0
332,172,153817,5,0
248,160,154008,1,0
184,104,154199,2,0,B|191:61|223:30,1,85,8|0
370,97,154581,2,0,B|363:140|332:172,1,85,0|0
288,240,154964,1,8
416,192,155155,1,0
280,104,155346,5,0
212,252,155537,1,0
189,164,155728,2,0,B|237:160|269:188,1,85,8|0
128,228,156110,2,0,B|68:224|24:168|40:104,1,170,0|8
120,140,156683,1,0
220,228,156874,2,0,B|276:256|336:236|364:180,2,170,0|8|0
272,160,157830,1,0
292,76,158021,2,0,B|248:76|212:100,1,85,8|0
128,224,158403,5,0
192,324,158594,1,0
236,212,158785,1,8
308,304,158976,1,0
128,224,159167,2,0,B|78:190|71:113|128:62,1,170,0|8
176,148,159741,1,0
236,212,159932,5,0
348,304,160123,1,0
384,164,160314,1,8
236,212,160505,5,0
378,235,160696,1,0
340,96,160887,1,0
236,212,161078,5,8
268,60,161269,1,0
268,60,161365,1,0
268,60,161460,6,0,B|232:36|184:40,1,85,4|0
155,192,161843,2,0,B|191:216|239:212,1,85,8|0
387,72,162225,2,0,B|411:132|371:204|319:212,1,170,0|8
280,276,162798,1,0
280,276,162989,2,0,B|308:333|377:348|428:301,2,170,0|8|0
201,307,163944,1,0
251,195,164136,1,8
362,251,164327,1,0
388,72,164518,6,0,B|351:46|305:69,1,85
416,152,164900,1,8
472,88,165091,1,0
456,228,165282,2,0,B|424:273|340:281|300:233,1,170,0|8
256,168,165855,1,0
136,192,166046,6,0,B|180:200|208:236,1,85
328,352,166429,1,8
192,352,166620,1,0
276,284,166811,2,0,B|308:252|356:240,2,85,0|0|8
136,192,167384,1,0
136,192,167480,1,0
136,192,167575,6,0,B|96:172|80:120,1,85
203,105,167957,2,0,B|243:125|259:177,2,85,8|0|0
203,105,168722,5,8
296,240,168913,1,0
372,184,169104,2,0,B|323:141|258:144|213:195,2,170,0|8|0
448,240,170059,1,0
372,320,170250,1,8
372,184,170441,1,0
203,105,170632,6,0,B|157:122|134:162,1,85
53,69,171015,2,0,B|32:113|45:157,1,85,8|0
245,232,171397,2,0,B|197:277|125:273|83:223,1,170,0|8
96,236,171970,1,0
100,240,172161,5,4
93,275,172543,1,4
97,307,172925,1,4
117,335,173308,1,4
153,335,173690,6,0,B|211:353|271:313|283:257,1,170,4|8
345,199,174263,1,0
485,275,174454,2,0,B|445:255|401:263,2,85,0|0|8
429,339,175027,1,0
284,258,175218,2,0,B|262:209|192:178|138:203,1,170,0|8
89,135,175792,2,0,B|41:179|61:263|117:291,1,170
284,258,176365,2,0,B|332:214|312:130|256:102,1,170,8|0
476,268,177129,5,8
396,240,177320,2,0,B|376:292|416:356|484:356,1,170
476,184,177894,2,0,B|496:132|456:68|388:68,1,170,8|0
80,128,178658,5,8
164,144,178849,2,0,B|152:200|76:232|28:197,1,170
204,64,179422,2,0,B|259:59|316:120|294:181,1,170,8|0
396,240,179995,1,0
308,268,180187,1,8
376,152,180378,1,0
396,240,180569,6,0,B|420:280|472:292,2,85,0|0|8
240,232,181142,1,0
320,200,181333,2,0,B|336:256|284:324|224:316,1,170,0|8
252,148,181906,1,0
332,116,182097,2,0,B|357:64|432:45|479:77,2,170,0|8|0
240,232,183053,5,0
52,196,183244,1,8
136,268,183435,1,0
152,160,183626,2,0,B|148:116|172:76,1,85
392,96,184008,2,0,B|369:148|297:168|245:140,1,170,8|0
304,64,184581,5,0
420,204,184772,1,8
240,232,184964,1,0
72,188,185155,2,0,B|108:164|160:160,1,85
300,304,185537,2,0,B|248:339|166:316|151:258,1,170,8|4
240,136,186110,6,0,B|204:108,2,42.5,0|0|8
240,232,186492,1,0
304,64,186683,5,0
456,100,186874,1,0
392,34,187065,2,0,B|372:74|372:122,1,85,8|0
428,180,187448,2,0,B|396:232|328:248|268:212,1,170,0|8
88,180,188021,2,0,B|120:128|188:112|248:148,1,170,0|0
324,144,188594,1,8
324,296,188785,1,0
324,296,188881,1,0
324,296,188976,6,0,B|352:332|396:344,1,85
308,216,189358,1,8
248,272,189550,2,0,B|240:328|168:360|108:328,1,170
68,204,190123,1,8
40,284,190314,1,0
152,228,190505,2,0,B|199:199|217:114|184:67,1,170,0|8
322,75,191078,2,0,B|294:114|312:199|360:228,1,170,0|0
336,316,191651,2,0,B|256:360|172:316,2,170,8|0|8
322,76,192798,5,0
169,41,192989,1,0
208,184,193180,2,0,B|229:151|233:103,1,85,8|0
288,216,193562,2,0,B|326:258|296:349|236:366,1,170,0|8
132,336,194136,1,0
68,234,194327,2,0,B|79:180|171:153|208:184,1,170,0|8
256,192,195091,12,4,198148
256,192,210378,5,4
184,148,210569,6,0,B|140:140|104:168,2,85,2|2|2
256,104,211524,2,0,B|256:60,2,42.5
328,148,212097,2,0,B|372:140|408:168,2,85,2|2|2
256,192,213053,1,0
212,264,213244,1,0
300,264,213435,1,2
160,164,213817,5,2
160,164,214008,2,0,B|128:248,1,85,2|2
212,264,214581,1,0
300,264,214772,1,2
382,243,214964,2,0,B|352:164,1,85,2|0
300,96,215537,1,0
300,96,215728,2,0,B|216:96,2,85,2|0|0
384,96,216683,6,0,B|428:88|468:112,2,85,2|2|2
316,148,217639,1,0
256,88,217830,1,0
196,148,218021,1,0
128,96,218212,2,0,B|84:88|44:112,2,85,2|2|2
110,192,219167,2,0,B|68:192,1,42.5
46,273,219550,6,0,B|84:296|128:288,1,85,2|2
192,232,220123,2,0,B|196:148,1,85,2|2
256,52,220696,2,0,B|256:96,1,42.5,0|2
316,148,221078,2,0,B|320:232,1,85,2|0
384,288,221651,1,0
384,288,221843,2,0,B|428:296|465:273,2,85,2|0|4
124,164,222798,6,0,B|88:220|132:300|196:296,2,170,2|0|0
192,104,223753,1,0
256,168,223944,1,0
320,104,224136,1,0
388,164,224327,6,0,B|424:220|380:300|316:296,2,170,2|0|0
320,104,225282,1,0
192,104,225473,1,0
124,164,225664,2,2,B|88:220|132:300|196:296,1,170,2|2
256,236,226237,2,0,B|256:68,2,170,2|2|2
96,232,227193,6,0,B|68:268|72:316,1,85
164,352,227575,2,0,B|192:316|188:268,1,85,4|0
323,272,227957,2,0,B|320:316|348:352,1,85,0|0
440,311,228339,2,0,B|444:268|416:232,1,85,4|0
340,188,228722,5,4
308,108,228913,2,0,B|356:76|436:104|448:160,2,170,2|0|0
256,40,229868,1,0
172,188,230059,1,0
340,188,230250,1,0
204,108,230441,6,0,B|156:76|76:104|64:160,2,170,2|0|0
257,188,231397,2,0,B|172:188,1,85
64,226,231779,2,2,B|76:280|156:308|203:276,1,170,2|2
447,226,232352,2,0,B|436:280|356:308|308:276,2,170,2|2|2
388,72,233308,6,0,B|348:60|304:64,1,85
124,72,233690,2,0,B|164:60|208:64,1,85,4|0
324,140,234072,1,0
188,140,234263,1,0
372,220,234454,1,4
140,220,234645,1,0
256,272,234836,5,4
340,300,235027,2,0,B|351:353|431:381|479:350,2,170,2|0|0
256,272,235983,1,0
324,196,236174,1,0
188,196,236365,1,0
172,300,236556,6,0,B|160:353|80:381|32:350,2,170,2|0|0
256,187,237511,2,0,B|256:271,1,85
188,116,237894,2,2,B|204:76|256:52|308:76|324:116,1,170,2|2
324,230,238467,2,0,B|308:268|256:292|204:268|188:228,2,170,2|2|2
372,152,239422,5,0
460,176,239613,1,0
354,306,239804,2,0,B|324:276|324:230,1,85,4|0
188,228,240187,2,0,B|188:274|158:305,1,85
52,176,240569,1,4
140,152,240760,1,0
188,228,240951,5,4
256,124,241142,2,0,B|268:68|364:52|400:100,2,170,2|0|0
312,192,242097,2,0,B|400:192,2,85
256,260,242671,2,0,B|268:316|364:332|400:284,2,170,2|0|0
200,192,243626,2,0,B|115:192,1,85
60,124,244008,2,2,B|22:140|-2:192|22:244|62:260,1,170,2|2
256,260,244581,2,0,B|296:245|320:193|296:141|258:125,2,170,2|2|2
256,192,245537,12,4,247065
