osu file format v9

[General]
AudioFilename: Senya - Koakuma Apple(EUROBEAT Remix).mp3
AudioLeadIn: 0
PreviewTime: 63519
Countdown: 0
SampleSet: Soft
StackLeniency: 0.7
Mode: 0
LetterboxInBreaks: 1

[Editor]
DistanceSpacing: 2
BeatDivisor: 4
GridSize: 4

[Metadata]
Title:Koakuma Apple (EUROBEAT Remix)
Artist:senya
Creator:Chocopikel
Version:Hard
Source:Touhou
Tags:Bad apple gensokyo Lotus Land Story yuuhei satellite

[Difficulty]
HPDrainRate:5
CircleSize:4
OverallDifficulty:5
ApproachRate:7
SliderMultiplier:1.4
SliderTickRate:1

[Events]
//Background and Video events
0,0,"BG.jpg"
//Break Periods
2,124972,136102
2,198348,209478
//Storyboard Layer 0 (Background)
//Storyboard Layer 1 (Fail)
//Storyboard Layer 2 (Pass)
//Storyboard Layer 3 (Foreground)
//Storyboard Sound Samples
//Background Colour Transformations
3,100,163,162,255

[TimingPoints]
2480,382.165605095541,4,1,1,50,1,0
63626,-100,4,1,1,70,0,0
88085,-100,4,1,1,70,0,1
112543,-100,4,2,1,100,0,0
112639,-100,4,2,1,80,0,0
114072,-100,4,2,1,100,0,0
114167,-100,4,2,1,80,0,0
114836,-100,4,2,1,100,0,0
114932,-100,4,2,1,80,0,0
115601,-100,4,2,1,100,0,0
115696,-100,4,2,1,80,0,0
117129,-100,4,2,1,100,0,0
117225,-100,4,2,1,80,0,0
118658,-100,4,2,1,100,0,0
118753,-100,4,2,1,80,0,0
120187,-100,4,2,1,100,0,0
120282,-100,4,2,1,80,0,0
120951,-100,4,2,1,100,0,0
121046,-100,4,2,1,80,0,0
121715,-100,4,2,1,100,0,0
121811,-100,4,2,1,80,0,0
123244,-100,4,2,1,10,0,0
124772,-100,4,1,1,70,0,1
124820,-100,4,1,1,70,0,0
137002,-100,4,1,1,50,0,0
149231,-100,4,1,1,70,0,0
173690,-100,4,1,1,70,0,1
198148,-100,4,1,1,70,0,0
210378,-100,4,1,1,100,0,1
210425,-200,4,2,1,80,0,0
222798,-100,4,1,1,70,0,0
245537,-100,4,2,1,10,0,0
247065,-100,4,1,1,70,0,1
247113,-100,4,1,1,70,0,0

[Colours]
Combo1 : 128,0,255
Combo2 : 0,128,255
Combo3 : 255,128,255

[HitObjects]
196,336,39167,6,0,B|236:332|264:308,1,70,6|2
324,268,39550,1,2
400,284,39741,2,0,B|428:308|436:344,2,70,2|0|2
372,212,40314,2,0,B|344:192|304:192,1,70,2|2
228,200,40696,5,0
156,168,40887,1,2
172,92,41078,2,0,B|168:56|147:27,1,70,0|2
248,88,41460,2,0,B|300:36|384:44,1,140,2|2
372,212,42225,5,2
312,260,42416,2,0,B|304:296,2,35,2|0|2
276,192,42798,1,2
212,236,42989,2,0,B|172:232|144:256,1,70,0|2
100,192,43371,2,0,B|65:212|49:246,1,70,0|2
88,308,43753,5,0
148,356,43944,1,2
224,344,44136,2,0,B|260:352|292:332,1,70,0|2
312,260,44518,2,2,B|389:252|445:292,1,140,2|2
424,140,45282,6,0,B|448:112|452:76,1,70,2|2
376,68,45664,2,0,B|340:56|304:64,1,70,2|2
232,84,46046,1,0
196,152,46237,1,2
120,164,46429,2,0,B|80:172|48:156,2,70,2|2|0
172,220,47002,6,0,B|172:256|192:288,1,70,2|0
224,356,47384,1,2
284,308,47575,2,0,B|332:252|316:172,1,140,2|2
192,84,48339,6,0,B|232:24|320:20,1,140,2|2
304,100,48913,1,2
380,80,49104,2,0,B|412:64|452:64,2,70,0|2|0
360,156,49677,6,0,B|341:227|384:294,2,140,2|2|2
284,176,50632,2,0,B|210:176|156:235,1,140,2|2
44,72,51397,6,0,B|37:103|54:140,1,70,6|2
128,160,51779,1,2
159,231,51970,2,0,B|171:265|160:300,2,70,2|0|2
236,240,52543,2,0,B|273:239|301:259,1,70,2|2
372,292,52925,5,0
364,216,53116,1,2
424,168,53308,2,0,B|453:147|489:143,1,70,0|2
352,140,53690,2,0,B|300:88|216:96,1,140,2|2
236,240,54454,5,2
192,304,54645,2,0,B|184:340,2,35,2|0|2
268,320,55027,1,2
336,284,55218,2,0,B|372:284|402:303,1,70,0|2
308,212,55601,2,0,B|308:171|286:140,1,70,0|2
264,72,55983,5,0
196,108,56174,1,2
124,80,56365,2,0,B|88:76|56:92,1,70,0|2
92,160,56747,2,2,B|52:216|60:293,1,140,2|2
204,348,57511,6,0,B|208:316|232:284,1,70,2|2
304,256,57894,2,0,B|341:253|374:270,1,70,2|2
440,232,58276,1,0
428,156,58467,1,2
356,128,58658,2,0,B|315:132|284:113,2,70,2|2|0
428,156,59231,6,0,B|432:120|416:84,1,70,2|0
352,48,59613,1,2
276,44,59804,2,0,B|202:36|146:95,1,140,2|2
168,332,60569,6,0,B|108:292|104:204,1,140,2|2
164,164,61142,1,2
236,136,61333,2,0,B|268:116|304:116,2,70,0|2|0
264,208,61906,6,0,B|238:277|275:347,2,140,6|6|6
340,208,62862,2,0,B|365:138|328:68,1,140,6|6
144,80,63626,6,0,B|144:116|132:148,1,70,4|0
200,184,64008,2,0,B|174:209|143:223,1,70,8|0
68,204,64390,1,0
184,304,64772,6,0,B|148:304|116:292,2,70,8|0|0
316,224,65537,1,8
468,244,65919,2,0,B|468:280|452:312,1,70
376,316,66301,2,0,B|376:280|392:248,1,70,8|0
400,172,66683,5,0
428,100,66874,2,0,B|464:108|488:132,2,70,0|8|0
352,108,67448,2,0,B|268:112|224:52,1,140,0|8
184,120,68021,1,0
216,192,68212,6,0,B|212:232|192:264,1,70
252,312,68594,1,8
328,296,68785,1,0
396,332,68976,2,0,B|428:348|468:344,2,70,0|0|8
388,256,69550,1,0
380,180,69741,6,0,B|380:144|356:112,1,70
304,168,70123,1,8
252,224,70314,2,0,B|212:228|184:252,1,70
136,104,70887,5,8
60,88,71078,1,0
32,160,71269,2,0,B|24:236|72:296,2,140,0|8|0
108,176,72225,2,0,B|140:192|180:192,2,70,0|8|0
136,104,72798,5,0
212,88,72989,1,0
288,100,73180,1,8
352,144,73371,1,0
396,208,73562,2,0,B|444:268|440:348,1,140,0|8
364,324,74136,1,0
288,336,74327,6,0,B|248:344|224:372,1,70
180,308,74709,1,8
216,240,74900,1,0
156,192,75091,2,0,B|104:240,1,70
56,180,75473,2,0,B|108:132,1,70,8|0
176,96,75855,6,0,B|208:80|244:84,1,70,4|0
288,148,76237,2,0,B|256:164|220:160,2,70,8|0|0
420,228,77002,5,8
356,184,77193,1,0
308,244,77384,2,0,B|252:292|176:276,2,140,0|8|0
372,288,78339,2,0,B|368:328|384:360,2,70,0|8|0
420,228,78913,6,0,B|424:188|408:156,1,70,0|0
336,184,79295,2,0,B|319:147|289:127,1,70,8|0
240,188,79677,2,0,B|176:144|104:160,1,140,0|8
60,220,80250,1,0
12,160,80441,6,0,B|4:124|16:88,1,70
92,92,80823,1,8
164,56,81015,1,0
228,96,81206,2,0,B|304:104,1,70
300,180,81588,2,0,B|224:172,1,70,8|0
156,188,81970,6,0,B|128:220|128:256,1,70
204,264,82352,2,0,B|195:305|213:336,2,70,8|0|0
64,332,83116,6,0,B|72:290|54:259,1,70,8|0
132,256,83499,2,0,B|138:175|81:129,2,140,0|8|0
204,284,84454,1,0
280,276,84645,2,0,B|312:264|352:272,1,70,8|0
424,272,85027,6,0,B|444:240|440:200,1,70
440,128,85409,1,8
372,164,85601,1,0
324,104,85792,2,0,B|256:76|184:92,1,140,0|8
112,108,86365,1,0
60,164,86556,6,0,B|80:236|48:304,1,140,4|4
196,348,87320,2,0,B|176:276|208:208,1,140,4|4
336,128,88085,6,0,B|356:200|324:268,2,140,4|8|0
272,84,89040,1,0
200,112,89231,2,0,B|176:48,1,70,8|0
116,96,89613,2,0,B|80:156|92:232,1,140,0|8
140,292,90187,1,0
216,272,90378,2,0,B|288:264|348:312,2,140,0|8|0
360,220,91524,6,0,B|344:152,1,70,8|0
276,116,91906,2,0,B|216:76|140:84,2,140,0|8|0
192,244,93053,5,8
124,280,93244,1,0
52,252,93435,2,0,B|20:188|36:112,2,140,0|8|0
356,304,94964,6,0,B|320:304|288:316,2,70,0|0|8
428,276,95537,1,0
372,224,95728,2,0,B|356:152|400:88,1,140,0|8
324,68,96301,1,0
252,96,96492,2,0,B|268:168|224:232,1,140,0|8
108,328,97257,6,0,B|180:344|248:312,1,140,0|8
312,276,97830,1,0
380,240,98021,2,0,B|448:260|488:328,1,140,0|8
488,172,98785,6,0,B|420:152|380:84,1,140,0|8
312,52,99358,1,0
248,96,99550,2,0,B|200:156|212:236,2,140,0|8|4
248,320,101078,5,0
176,292,101269,1,0
108,328,101460,2,0,B|72:340|40:332,1,70,8|0
52,256,101843,2,0,B|104:204|184:204,1,140,0|8
180,128,102416,2,0,B|105:128|53:76,2,140,0|8|8
256,128,103371,6,0,B|331:128|383:76,1,140,0|8
436,132,103944,2,0,B|412:200|448:272,1,140,0|0
472,340,104518,1,8
248,276,104900,6,0,B|180:240|108:256,1,140,0|8
40,280,105473,1,0
28,204,105664,2,0,B|56:136|44:64,2,140,0|8|0
320,104,107193,6,0,B|248:112,2,70,0|0|8
396,92,107766,1,0
380,168,107957,2,0,B|372:244|416:304,1,140,0|8
344,332,108530,1,0
272,308,108722,2,0,B|200:292|132:316,1,140,0|8
256,192,109486,12,4,112161
228,140,112543,6,0,B|244:208,1,70,2|0
260,284,112925,2,0,B|248:324,3,35
172,324,113403,2,0,B|96:328,2,70
176,296,113881,1,0
124,196,114072,6,0,B|104:128,1,70,2|0
68,116,114358,2,0,B|32:104,3,35
176,88,114836,2,0,B|244:88,1,70,2|0
284,88,115123,2,0,B|320:68,3,35
368,168,115601,5,2
444,176,115792,1,0
436,252,115983,2,0,B|416:280,3,35
344,308,116460,2,0,B|316:240,2,70
324,328,116938,1,0
220,244,117129,6,0,B|176:244|144:228,1,70,2|0
112,228,117416,2,0,B|76:224|44:232,2,70
140,156,117989,1,0
215,175,118180,2,0,B|227:213|219:247,1,70
216,272,118467,1,0
324,240,118658,6,0,B|312:202|320:168,1,70,2|0
380,124,119040,2,0,B|380:84,3,35
452,156,119518,2,0,B|464:194|456:228,2,70
452,128,119995,1,0
320,68,120187,6,0,B|252:96,1,70,2|0
224,116,120473,2,0,B|188:116,3,35
36,144,120951,2,0,B|104:172,1,70,2|0
132,192,121237,2,0,B|168:192,3,35
216,292,121715,5,2
296,292,121906,1,0
256,224,122097,1,0
256,208,122193,1,0
256,192,122288,1,0
256,176,122384,2,0,B|256:100,3,70
256,76,123053,1,0
256,192,123244,12,4,124772
352,84,137002,6,0,B|356:124|380:152,1,70,6|2
420,212,137384,1,2
384,280,137575,2,0,B|356:304|348:340,2,70,2|0|2
336,220,138148,2,0,B|300:208|264:212,1,70,2|2
192,228,138530,5,0
124,264,138722,1,2
52,240,138913,2,0,B|48:204|28:176,1,70,0|2
96,140,139295,2,0,B|148:88|232:96,1,140,2|2
336,220,140059,5,2
412,236,140250,2,0,B|452:248,2,35,2|0|2
384,164,140632,1,2
308,148,140823,2,0,B|276:132|236:132,1,70,0|2
224,208,141206,2,0,B|188:210|153:230,1,70,0|2
80,220,141588,5,0
32,280,141779,1,2
76,344,141970,2,0,B|104:324|116:284,1,70,0|2
192,296,142352,2,2,B|248:336|328:328,1,140,2|2
384,164,143116,6,0,B|412:100,1,70,2|2
336,84,143499,2,0,B|308:148,1,70,2|2
280,220,143881,1,0
208,248,144072,1,2
132,236,144263,2,0,B|96:224|60:228,2,70,2|2|0
184,180,144836,6,0,B|184:144|204:112,1,70,2|0
244,48,145218,1,2
304,96,145409,2,0,B|360:144|440:128,1,140,2|2
464,280,146174,6,0,B|404:232|328:248,1,140,2|2
264,280,146747,1,2
188,280,146938,2,0,B|148:284|116:264,2,70,0|2|0
216,208,147511,6,0,B|180:144|204:68,2,140,6|6|6
296,208,148467,2,0,B|332:144|308:68,1,140,6|6
384,208,149231,6,0,B|384:244|396:276,1,70,4|0
320,284,149613,2,0,B|294:309|263:323,1,70,8|0
184,324,149995,1,0
72,216,150378,6,0,B|72:252|84:284,2,70,8|0|0
220,260,151142,1,8
368,216,151524,2,0,B|399:198|434:195,1,70
484,136,151906,2,0,B|484:100|468:68,1,70,8|0
392,56,152288,5,0
344,116,152480,2,0,B|316:140|308:173,2,70,0|8|0
276,76,153053,2,0,B|192:72|148:132,1,140,0|8
108,192,153626,1,0
176,228,153817,6,0,B|172:268|152:300,1,70
232,304,154199,1,8
284,248,154390,1,0
240,184,154581,2,0,B|208:160|176:156,2,70,0|0|8
312,156,155155,1,0
364,212,155346,6,0,B|364:248|388:280,1,70
448,232,155728,1,8
420,160,155919,2,0,B|405:122|375:101,1,70
240,184,156492,5,8
168,212,156683,1,0
100,176,156874,2,0,B|107:105|167:57,2,140,0|8|0
108,252,157830,2,0,B|72:248|36:268,2,70,0|8|0
176,288,158403,5,0
252,304,158594,1,0
312,256,158785,1,8
388,272,158976,1,0
444,220,159167,2,0,B|435:143|376:89,1,140,0|8
312,124,159741,1,0
280,196,159932,6,0,B|288:236|312:256,1,70
252,304,160314,1,8
184,268,160505,1,0
120,312,160696,2,0,B|84:328|52:320,1,70
80,248,161078,2,0,B|80:208|60:180,1,70,8|0
116,60,161460,6,0,B|112:96|128:128,1,70,4|0
272,148,161843,2,0,B|240:164|204:160,2,70,8|0|0
348,280,162607,5,8
376,352,162798,1,0
444,316,162989,2,0,B|492:260|476:184,2,140,0|8|0
296,340,163944,2,0,B|256:344|224:328,2,70,0|8|0
348,280,164518,6,0,B|328:248|336:208,1,70,0|0
400,172,164900,2,0,B|383:135|353:115,1,70,8|0
284,92,165282,2,0,B|240:156|256:228,1,140,0|8
192,268,165855,1,0
136,216,166046,6,0,B|138:178|121:145,1,70
52,120,166429,1,8
16,188,166620,1,0
40,260,166811,2,0,B|68:280|108:280,1,70
232,356,167193,2,0,B|200:340|156:348,1,70,8|0
192,268,167575,6,0,B|220:236|220:200,1,70
280,156,167957,2,0,B|292:196|323:213,2,70,8|0|0
116,120,168722,6,0,B|124:78|106:47,1,70,8|0
96,201,169104,2,0,B|176:193|212:129,2,140,0|8|0
32,160,170059,1,0
20,236,170250,2,0,B|23:270|5:306,1,70,8|0
96,360,170632,6,0,B|92:325|112:293,1,70
180,256,171015,1,8
252,284,171206,1,0
320,248,171397,2,0,B|348:180|332:108,1,140,0|8
264,76,171970,1,0
192,104,172161,6,0,B|117:104|59:56,1,140,4|4
51,211,172925,2,0,B|125:210|183:258,1,140,4|4
336,244,173690,6,0,B|360:314|426:351,2,140,4|8|0
284,188,174645,1,0
224,236,174836,2,0,B|224:272|200:300,1,70,8|0
148,244,175218,2,0,B|136:168|172:108,1,140,0|8
124,48,175792,1,0
52,76,175983,2,0,B|60:148|12:208,2,140,0|8|0
276,116,177129,6,0,B|308:100|344:100,1,70,8|0
332,176,177511,2,0,B|346:246|405:294,2,140,0|8|0
160,120,178658,5,8
220,168,178849,1,0
276,116,179040,2,0,B|340:84|416:100,2,140,0|8|0
282,266,180569,6,0,B|282:302|270:334,2,70,0|0|8
206,282,181142,1,0
134,254,181333,2,0,B|118:182|162:118,1,140,0|8
220,72,181906,1,0
280,120,182097,2,0,B|341:162|413:146,1,140,0|8
268,196,182862,6,0,B|298:260|282:332,1,140,0|8
208,352,183435,1,0
132,332,183626,2,0,B|93:266|25:246,1,140,0|8
162,110,184390,6,0,B|200:175|268:195,1,140,0|8
336,160,184964,1,0
392,212,185155,2,0,B|440:272|428:352,2,140,0|8|4
116,76,186683,5,0
80,144,186874,1,0
148,180,187065,2,0,B|184:184|217:175,1,70,8|0
288,208,187448,2,0,B|287:282|339:334,1,140,0|8
412,312,188021,2,0,B|412:237|360:185,1,140,0|0
304,136,188594,1,8
148,188,188976,6,0,B|132:116|169:52,1,140,0|8
92,40,189550,1,0
72,116,189741,2,0,B|57:187|81:256,1,140,0|8
364,188,190505,6,0,B|380:116|343:52,1,140,0|8
420,40,191078,1,0
440,116,191269,2,0,B|455:187|431:256,2,140,0|8|0
132,136,192798,6,0,B|124:64,2,70,0|0|8
144,212,193371,1,0
216,184,193562,2,0,B|272:142|348:150,1,140,0|8
424,156,194136,1,0
380,220,194327,2,0,B|364:292|388:360,1,140,0|8
256,192,195091,12,4,198148
188,192,210378,5,4
188,192,210569,5,2
48,212,210951,1,2
100,80,211333,1,2
324,192,212097,5,2
464,212,212480,1,2
412,80,212862,1,2
256,112,213244,5,2
256,112,213435,2,0,B|256:192,1,70,2|2
224,244,214008,2,0,B|256:264|292:244,2,70,2|2|2
188,308,214964,2,0,B|256:344|324:308,1,140,2|2
412,80,216683,6,0,B|424:112|404:148,1,70,2|2
368,208,217448,1,2
100,80,218212,2,0,B|88:112|108:148,1,70,2|2
144,208,218976,1,2
196,160,219358,5,2
196,160,219550,2,0,B|176:124|188:92,1,70,2|2
324,92,220123,2,0,B|336:124|316:160,2,70,2|2|2
256,204,221078,2,0,B|256:348,1,140,2|2
256,204,222607,1,4
188,144,222798,6,0,B|124:104|44:116,2,140,2|0|0
256,108,223753,2,0,B|256:40,2,70
324,144,224327,2,0,B|388:104|468:116,2,140,2|0|0
328,216,225282,1,0
184,216,225473,1,0
196,292,225664,6,2,B|216:320|256:336|296:320|316:292,1,140,2|2
256,244,226237,2,0,B|256:104,2,140,2|2|2
316,292,227193,6,0,B|336:320|372:332,1,70
384,256,227575,2,0,B|364:228|328:216,1,70,4|0
184,216,227957,2,0,B|148:228|128:256,1,70,0|0
140,332,228339,2,0,B|176:320|196:292,1,70,4|0
256,244,228722,5,4
212,144,228913,2,0,B|208:109|182:75|139:69|108:84,2,140,2|0|0
136,156,229868,1,0
68,192,230059,1,0
136,228,230250,1,0
212,240,230441,6,0,B|208:274|182:308|139:314|108:300,2,140,2|0|0
272,192,231397,2,0,B|344:192,1,70
392,132,231779,2,2,B|420:152|436:192|420:232|392:252,1,140,2|2
392,252,232352,1,2
256,192,232448,12,4,234836
124,232,235027,6,0,B|76:260|72:316|72:316|16:316,2,140,2|0|0
188,188,235983,1,0
256,224,236174,1,0
324,188,236365,1,0
388,232,236556,2,0,B|436:260|440:316|440:316|496:316,2,140,2|0|0
360,304,237511,2,0,B|340:336|300:344,1,70
212,264,237894,6,2,B|184:244|168:204|184:164|212:144,1,140,2|2
300,144,238467,2,0,B|328:164|344:204|328:244|300:264,1,140,2|2
207,343,239040,2,0,B|172:336|152:304,1,70,0|2
88,260,239422,6,0,B|72:296|36:308,1,70
38,76,239804,2,0,B|72:88|88:124,1,70,4|0
128,192,240187,2,0,B|56:192,2,70,0|0|4
204,192,240760,1,0
280,192,240951,5,4
340,240,241142,2,0,B|356:276|344:312|344:312|380:324|400:356,2,140,2|0|0
416,232,242097,2,0,B|448:252|456:288,2,70
340,144,242671,2,0,B|356:108|344:72|344:72|380:60|400:28,2,140,2|0|0
416,152,243626,2,0,B|448:132|456:96,2,70,0|0|2
256,192,244390,5,2
196,240,244581,2,0,B|216:268|256:284|296:268|316:240,2,140,2|2|2
256,192,245537,12,4,247065
