osu file format v14

[General]
AudioFilename: kimiiro.mp3
AudioLeadIn: 0
PreviewTime: 53874
Countdown: 0
SampleSet: Normal
StackLeniency: 0.7
Mode: 0
LetterboxInBreaks: 0
WidescreenStoryboard: 1

[Editor]
Bookmarks: 24100
DistanceSpacing: 1
BeatDivisor: 4
GridSize: 4
TimelineZoom: 2.3

[Metadata]
Title:Kimiiro Subliminal
TitleUnicode:君色サブリミナル
Artist:senya
ArtistUnicode:senya
Creator:G e o n
Version:Normal
Source:東方Project
Tags:touhou yuuhei satellite kaku seiga g_e_o_n Pjecoo Mortem
BeatmapID:732019
BeatmapSetID:324991

[Difficulty]
HPDrainRate:3
CircleSize:3
OverallDifficulty:5
ApproachRate:5
SliderMultiplier:1
SliderTickRate:1

[Events]
//Background and Video events
0,0,"kimiiro.jpg",0,0
//Break Periods
//Storyboard Layer 0 (Background)
//Storyboard Layer 1 (Fail)
//Storyboard Layer 2 (Pass)
//Storyboard Layer 3 (Foreground)
//Storyboard Sound Samples

[TimingPoints]
1125,400,4,1,0,60,1,0
52325,-100,4,1,0,40,0,0
53883,400,4,1,0,60,1,1
79483,-100,4,1,0,60,0,0
92683,-100,4,1,0,40,0,0

[Colours]
Combo1 : 108,192,255
Combo2 : 108,192,255
Combo3 : 54,138,255
Combo4 : 18,102,255
Combo5 : 0,66,237
Combo6 : 18,102,255
Combo7 : 53,139,255

[HitObjects]
256,192,23525,12,4,25125,0:0:0:0:
101,288,26725,5,4,0:0:0:0:
196,324,27125,1,8,0:0:0:0:
183,224,27525,2,0,P|232:231|273:260,1,100,8|8,0:0|0:0,0:0:0:0:
332,340,28325,1,2,0:0:0:0:
380,252,28725,1,8,0:0:0:0:
292,208,29125,2,0,P|327:173|375:153,1,100,8|8,0:0|0:0,0:0:0:0:
466,118,29925,1,0,0:0:0:0:
392,52,30325,5,8,0:0:0:0:
292,36,30725,2,0,P|244:45|205:75,1,100,8|8,0:0|0:0,0:0:0:0:
204,176,31525,2,0,P|252:167|291:137,1,100,8|8,0:0|0:0,0:0:0:0:
215,69,32325,1,0,0:0:0:0:
32,148,33125,5,4,0:0:0:0:
31,242,33525,1,0,0:0:0:0:
120,192,33925,2,0,P|168:180|203:144,1,100,8|8,0:0|0:0,0:0:0:0:
291,99,34725,2,0,P|212:48|117:94,1,200,2|8,0:0|0:0,0:0:0:0:
202,144,35925,1,8,0:0:0:0:
104,172,36325,6,0,P|119:219|164:260,1,100,0|8,0:0|0:0,0:0:0:0:
183,352,37125,2,0,P|227:329|251:285,1,100,0|8,0:0|0:0,0:0:0:0:
249,184,37925,2,0,L|201:168,2,50,4|0|4,0:0|0:0|0:0,0:0:0:0:
332,128,38725,2,0,P|355:171|398:194,1,100,8|8,0:0|0:0,0:0:0:0:
424,100,39525,5,4,0:0:0:0:
346,38,39925,1,8,0:0:0:0:
250,67,40325,2,0,P|211:98|192:144,1,100,0|8,0:0|0:0,0:0:0:0:
287,154,41125,6,0,P|332:173|367:209,1,100,2|8,0:0|0:0,0:0:0:0:
356,307,41925,2,0,P|328:349|283:369,1,100,8|8,0:0|0:0,0:0:0:0:
262,269,42725,5,2,0:0:0:0:
161,273,43125,1,8,0:0:0:0:
86,205,43525,2,0,P|71:158|74:108,1,100,8|8,0:0|0:0,0:0:0:0:
163,150,44325,6,0,P|211:159|260:150,1,100,2|8,0:0|0:0,0:0:0:0:
211,62,45125,2,0,P|260:53|308:63,1,100,2|8,0:0|0:0,0:0:0:0:
399,102,45925,5,4,0:0:0:0:
459,182,46325,1,8,0:0:0:0:
423,274,46725,2,0,P|381:300|332:306,1,100,8|8,0:0|0:0,0:0:0:0:
340,206,47525,1,2,0:0:0:0:
248,246,47925,1,8,0:0:0:0:
164,298,48325,2,0,P|150:250|162:202,1,100,8|8,0:0|0:0,0:0:0:0:
248,154,49125,6,0,P|219:114|171:103,1,100,4|8,0:0|0:0,0:0:0:0:
162,202,49925,1,4,0:0:0:0:
12,126,50725,2,0,P|20:77|57:45,1,100,4|8,0:0|0:0,0:0:0:0:
156,42,51525,1,8,0:0:0:0:
112,132,51925,1,0,0:0:0:0:
211,131,52325,6,0,P|344:121|345:254,1,300
283,188,53883,6,0,P|243:217|194:224,1,100,4|8,0:0|0:0,0:0:0:0:
208,124,54683,2,0,P|158:130|118:159,1,100,8|8,0:0|0:0,0:0:0:0:
193,223,55483,1,2,0:0:0:0:
128,296,55883,1,8,0:0:0:0:
224,324,56283,2,0,B|279:296|291:253,1,100,8|0,0:0|0:0,0:0:0:0:
378,206,57083,6,0,P|347:167|300:156,1,100,2|8,0:0|0:0,0:0:0:0:
291,253,57883,2,0,P|243:241|212:202,1,100,2|8,0:0|0:0,0:0:0:0:
208,104,58683,2,0,P|167:75|118:70,2,100,2|8|8,0:0|0:0|0:0,0:0:0:0:
132,168,59883,1,0,0:0:0:0:
52,228,60283,6,0,P|44:277|56:325,1,100,4|8,0:0|0:0,0:0:0:0:
140,272,61083,2,0,P|185:290|235:290,1,100
324,244,61883,2,0,P|358:208|368:160,1,100,2|8,0:0|0:0,0:0:0:0:
268,160,62683,2,0,P|249:114|242:65,1,100,8|8,0:0|0:0,0:0:0:0:
256,192,63483,12,2,65083,0:0:0:0:
102,277,66683,5,4,0:0:0:0:
192,320,67083,1,8,0:0:0:0:
270,257,67483,2,0,P|302:219|349:202,1,100,8|8,0:0|0:0,0:0:0:0:
443,174,68283,6,0,P|463:129|451:82,1,100,0|8,0:0|0:0,0:0:0:0:
364,32,69083,2,0,P|319:53|286:89,1,100,8|8,0:0|0:0,0:0:0:0:
289,188,69883,6,0,P|240:179|204:145,1,100,2|8,0:0|0:0,0:0:0:0:
290,89,70683,1,8,0:0:0:0:
194,55,71083,1,0,0:0:0:0:
93,68,71483,2,0,P|61:106|51:155,1,100,2|8,0:0|0:0,0:0:0:0:
109,236,72283,2,0,P|140:198|150:149,1,100,8|8,0:0|0:0,0:0:0:0:
193,60,73083,6,0,P|240:74|278:106,1,100,4|8,0:0|0:0,0:0:0:0:
345,180,73883,2,0,P|391:163|428:129,1,100,8|8,0:0|0:0,0:0:0:0:
341,80,74683,1,2,0:0:0:0:
255,131,75083,1,8,0:0:0:0:
161,96,75483,2,0,P|166:145|159:194,1,100,8|8,0:0|0:0,0:0:0:0:
133,292,76283,6,0,P|90:266|62:225,1,100,4|8,0:0|0:0,0:0:0:0:
159,194,77083,2,0,P|151:144|161:95,1,100,4|8,0:0|0:0,0:0:0:0:
251,140,77883,1,4,0:0:0:0:
243,239,78283,1,4,0:0:0:0:
345,248,78683,2,0,P|327:294|291:329,1,100,4|4,0:0|0:0,0:0:0:0:
243,239,79483,5,4,0:0:0:0:
145,232,79883,1,8,0:0:0:0:
97,320,80283,2,0,P|61:285|43:238,1,100,8|8,0:0|0:0,0:0:0:0:
101,156,81083,6,0,P|147:140|172:98,1,100,4|8,0:0|0:0,0:0:0:0:
273,88,81883,1,8,0:0:0:0:
327,175,82283,1,0,0:0:0:0:
337,276,82683,2,0,P|320:321|273:356,1,100,4|8,0:0|0:0,0:0:0:0:
237,264,83483,2,0,P|214:274|195:290,2,50,8|0|0,0:0|0:0|0:0,0:0:0:0:
337,274,84283,6,0,P|418:220|443:125,1,200,4|4,0:0|0:0,0:0:0:0:
247,87,85883,1,4,0:0:0:0:
147,95,86283,2,0,P|132:74|120:52,2,50,8|0|8,0:0|0:0|0:0,0:0:0:0:
207,175,87083,2,0,P|194:224|204:272,1,100,8|4,0:0|0:0,0:0:0:0:
295,227,87883,5,0,0:0:0:0:
331,135,88283,2,0,P|374:112|394:67,1,100,8|8,0:0|0:0,0:0:0:0:
256,192,89083,12,4,91883,0:0:0:0:
182,173,92683,5,2,2:0:0:0:
101,112,93083,2,0,P|142:84|195:70,1,100,2|2,2:0|2:0,2:0:0:0:
272,127,93883,2,0,P|275:176|260:229,1,100,2|2,2:0|2:0,2:0:0:0:
173,267,94683,2,0,P|128:244|89:205,1,100,2|10,2:0|2:0,2:0:0:0:
256,192,95483,12,0,98483,2:0:0:0:
