osu file format v14

[General]
AudioFilename: kimiiro.mp3
AudioLeadIn: 0
PreviewTime: 53874
Countdown: 0
SampleSet: Normal
StackLeniency: 0.7
Mode: 0
LetterboxInBreaks: 0
WidescreenStoryboard: 1

[Editor]
Bookmarks: 24100
DistanceSpacing: 1
BeatDivisor: 4
GridSize: 4
TimelineZoom: 2.8

[Metadata]
Title:Kimiiro Subliminal
TitleUnicode:君色サブリミナル
Artist:senya
ArtistUnicode:senya
Creator:G e o n
Version:Lunatic
Source:東方Project
Tags:touhou yuuhei satellite kaku seiga g_e_o_n Pjecoo Mortem
BeatmapID:721997
BeatmapSetID:324991

[Difficulty]
HPDrainRate:6
CircleSize:4
OverallDifficulty:7
ApproachRate:8.5
SliderMultiplier:1.6
SliderTickRate:1

[Events]
//Background and Video events
0,0,"kimiiro.jpg",0,0
//Break Periods
//Storyboard Layer 0 (Background)
//Storyboard Layer 1 (Fail)
//Storyboard Layer 2 (Pass)
//Storyboard Layer 3 (Foreground)
//Storyboard Sound Samples

[TimingPoints]
1125,400,4,1,0,60,1,0
53883,400,4,1,0,60,1,1
66283,-100,4,1,0,60,0,0
66683,-100,4,1,0,60,0,1
79483,-100,4,1,0,60,0,0
92683,-133.333333333333,4,2,0,40,0,0

[Colours]
Combo1 : 108,192,255
Combo2 : 108,192,255
Combo3 : 54,138,255
Combo4 : 18,102,255
Combo5 : 0,66,237
Combo6 : 18,102,255
Combo7 : 53,139,255

[HitObjects]
256,192,23525,12,4,25125,0:0:0:0:
150,146,25525,5,8,0:0:0:0:
168,111,25625,1,0,0:0:0:0:
196,83,25725,1,0,0:0:0:0:
231,63,25825,1,0,0:0:0:0:
270,56,25925,1,4,0:0:0:0:
457,123,26225,1,4,0:0:0:0:
317,265,26525,1,4,0:0:0:0:
135,222,26725,6,0,P|133:183|150:147,1,80,4|0,0:0|0:0,0:0:0:0:
270,56,27125,2,0,P|272:95|255:131,1,80,8|0,0:0|0:0,0:0:0:0:
135,222,27525,1,8,0:0:0:0:
196,83,27725,1,0,0:0:0:0:
275,197,27925,2,0,P|292:233|316:264,1,80,8|0,0:0|0:0,0:0:0:0:
400,168,28325,5,8,0:0:0:0:
432,290,28525,1,0,0:0:0:0:
316,264,28725,2,0,P|290:294|259:319,1,80,8|0,0:0|0:0,0:0:0:0:
135,222,29125,1,8,0:0:0:0:
24,300,29325,1,0,0:0:0:0:
153,344,29525,1,8,0:0:0:0:
48,220,29725,1,0,0:0:0:0:
56,84,29925,6,0,P|76:49|89:12,1,80,2|0,0:0|0:0,0:0:0:0:
128,151,30325,2,0,P|167:146|205:133,1,80,8|0,0:0|0:0,0:0:0:0:
243,14,30725,1,8,0:0:0:0:
336,96,30925,1,0,0:0:0:0:
462,120,31125,2,0,P|449:157|425:189,1,80,8|0,0:0|0:0,0:0:0:0:
296,165,31525,6,0,P|311:128|335:96,1,80,2|0,0:0|0:0,0:0:0:0:
330,280,31925,2,0,P|300:306|265:323,1,80,8|0,0:0|0:0,0:0:0:0:
232,200,32325,2,0,L|194:185,3,40,8|0|0|0,0:0|0:0|0:0|0:0,0:0:0:0:
120,144,32725,2,0,L|116:184,1,40,8|0,0:0|0:0,0:0:0:0:
28,268,32925,2,0,L|32:228,1,40,8|0,0:0|0:0,0:0:0:0:
48,95,33125,6,0,P|76:68|114:56,1,80,4|0,0:0|0:0,0:0:0:0:
248,128,33525,2,0,P|282:146|302:180,1,80,8|0,0:0|0:0,0:0:0:0:
416,212,33925,1,8,0:0:0:0:
344,304,34125,1,0,0:0:0:0:
203,327,34325,2,0,P|202:288|215:250,1,80,8|0,0:0|0:0,0:0:0:0:
346,224,34725,6,0,P|352:263|344:303,1,80,2|0,0:0|0:0,0:0:0:0:
224,151,35125,2,0,P|244:118|275:93,1,80,8|0,0:0|0:0,0:0:0:0:
416,48,35525,1,2,0:0:0:0:
446,74,35625,1,0,0:0:0:0:
466,108,35725,1,0,0:0:0:0:
475,147,35825,1,0,0:0:0:0:
468,184,35925,2,0,L|447:218,1,40,2|0,0:0|0:0,0:0:0:0:
452,300,36125,2,0,L|412:301,1,40,2|0,0:3|0:3,0:3:0:0:
264,236,36325,6,0,P|294:261|331:277,1,80,2|0,0:0|0:0,0:0:0:0:
360,148,36725,1,0,0:0:0:0:
220,96,36925,1,0,0:0:0:0:
75,115,37125,2,0,P|77:76|87:37,1,80,8|0,0:0|0:0,0:0:0:0:
144,220,37525,1,0,0:0:0:0:
60,352,37725,1,0,0:0:0:0:
264,308,37925,6,0,P|301:294|330:267,1,80
219,96,38325,2,0,P|222:135|240:171,1,80,4|0,0:0|0:0,0:0:0:0:
144,220,38725,1,2,0:0:0:0:
113,216,38825,1,0,0:0:0:0:
82,205,38925,1,0,0:0:0:0:
60,181,39025,1,0,0:0:0:0:
44,151,39125,2,0,P|40:132|39:112,3,40,2|0|0|0,0:0|0:0|0:0|0:0,0:0:0:0:
145,103,39525,6,0,P|172:74|208:58,1,80,4|0,0:0|0:0,0:0:0:0:
233,165,39925,1,8,0:0:0:0:
232,164,40125,2,0,P|284:224|360:247,1,160
299,130,40725,2,0,P|322:161|360:172,1,80,8|0,0:0|0:0,0:0:0:0:
397,53,41125,5,2,0:0:0:0:
299,130,41325,1,0,0:0:0:0:
193,229,41525,2,0,P|158:247|118:246,1,80,8|0,2:0|2:0,2:0:0:0:
173,77,41925,1,8,0:0:0:0:
142,102,42025,1,0,0:0:0:0:
133,141,42125,1,0,0:0:0:0:
281,229,42325,2,0,L|256:260,2,40,8|0|0,0:0|0:0|0:0,0:0:0:0:
417,129,42725,6,0,P|416:90|398:55,1,80,2|0,0:0|0:0,0:0:0:0:
299,130,43125,1,8,0:0:0:0:
396,236,43325,2,0,P|420:267|431:305,1,80
254,362,43725,2,0,P|291:347|320:320,1,80
208,208,44125,1,0,0:0:0:0:
47,199,44325,6,0,P|51:160|71:125,1,80,2|0,0:0|0:0,0:0:0:0:
248,68,44725,2,0,P|244:107|224:142,1,80,2|0,0:0|0:0,0:0:0:0:
108,56,45125,1,8,0:0:0:0:
208,208,45325,1,0,0:0:0:0:
124,340,45525,1,0,0:0:0:0:
154,314,45625,1,0,0:0:0:0:
177,281,45725,1,0,0:0:0:0:
191,244,45825,1,0,0:0:0:0:
208,208,45925,6,0,L|280:256,2,80,4|0|8,0:0|0:0|0:0,0:0:0:0:
47,199,46525,1,0,0:0:0:0:
144,115,46725,2,0,P|180:100|220:96,1,80
347,238,47125,2,0,P|336:276|312:307,1,80,8|0,0:0|0:0,0:0:0:0:
291,135,47525,6,0,P|287:96|299:58,1,80,2|0,0:0|0:0,0:0:0:0:
144,115,47925,2,0,P|142:154|126:191,1,80,8|0,0:0|0:0,0:0:0:0:
0,128,48325,5,8,0:0:0:0:
0,128,48425,1,0,0:0:0:0:
0,128,48525,1,0,0:0:0:0:
125,191,48725,2,0,L|162:204,1,40,8|0,0:0|0:0,0:0:0:0:
254,145,48925,2,0,L|216:131,1,40
249,41,49125,5,4,0:0:0:0:
385,160,49325,1,0,0:0:0:0:
241,269,49525,2,0,P|280:267|316:244,1,80,8|0,0:0|0:0,0:0:0:0:
124,121,49925,2,0,P|86:133|60:168,1,80,8|0,0:0|0:0,0:0:0:0:
285,100,50325,2,0,P|311:70|317:31,1,80,8|0,0:0|0:0,0:0:0:0:
241,269,50725,5,4,0:0:0:0:
124,121,50925,1,8,0:0:0:0:
304,176,51125,1,2,0:0:0:0:
196,20,51325,1,8,0:0:0:0:
384,32,51524,2,0,P|376:71|359:107,1,80,2|0,0:0|0:0,0:0:0:0:
244,276,51925,1,2,0:0:0:0:
244,276,52025,1,0,0:0:0:0:
244,276,52125,1,0,0:0:0:0:
256,192,52325,12,8,53525,2:0:0:0:
56,150,53883,6,0,P|73:115|99:84,1,80,4|0,0:0|0:0,0:0:0:0:
240,72,54283,1,8,0:0:0:0:
176,184,54483,1,8,0:0:0:0:
192,328,54683,2,0,P|154:314|124:288,1,80,8|0,0:0|0:0,0:0:0:0:
284,248,55083,1,8,0:0:0:0:
406,177,55283,1,0,0:0:0:0:
188,256,55483,5,8,0:0:0:0:
177,102,55683,1,0,0:0:0:0:
177,102,55883,2,0,P|177:62|182:22,1,80,8|0,0:0|0:0,0:0:0:0:
76,96,56283,2,0,P|82:135|102:169,1,80,8|0,0:0|0:0,0:0:0:0:
244,176,56683,2,0,P|269:146|277:107,1,80,8|0,0:0|0:0,0:0:0:0:
384,8,57083,6,0,P|413:82|413:161,1,160,2|8,0:0|0:0,0:0:0:0:
244,180,57683,1,0,0:0:0:0:
104,80,57883,2,0,P|90:117|79:156,1,80,8|0,0:0|0:0,0:0:0:0:
136,304,58283,2,0,P|148:265|158:227,1,80,8|0,0:0|0:0,0:0:0:0:
204,108,58683,6,0,L|240:91,3,40,2|0|8|0,0:0|0:0|0:0|0:0,0:0:0:0:
285,81,59083,1,2,0:0:0:0:
323,105,59183,1,0,0:0:0:0:
343,139,59283,1,8,0:0:0:0:
340,178,59383,1,0,0:0:0:0:
328,216,59483,2,0,L|312:253,3,40,2|0|8|0,0:0|0:0|0:0|0:0,0:0:0:0:
284,292,59883,1,2,0:0:0:0:
252,324,59983,1,0,0:0:0:0:
212,336,60083,1,8,0:0:0:0:
168,328,60183,1,0,0:0:0:0:
134,302,60283,6,0,P|114:268|111:229,1,80,4|0,0:0|0:0,0:0:0:0:
255,176,60683,2,0,P|242:212|209:234,1,80,8|0,0:0|0:0,0:0:0:0:
132,124,61084,1,8,0:0:0:0:
285,81,61283,1,0,0:0:0:0:
412,172,61483,2,0,P|437:202|447:240,1,80,8|0,0:0|0:0,0:0:0:0:
322,263,61883,5,8,0:0:0:0:
160,240,62083,1,2,0:0:0:0:
252,324,62283,1,8,0:0:0:0:
255,176,62483,1,2,0:0:0:0:
395,274,62683,2,0,P|357:279|321:262,1,80
285,79,63083,2,0,P|324:79|361:95,1,80
285,80,63483,5,2,0:0:0:0:
468,216,63683,1,8,0:0:0:0:
252,324,63883,1,2,0:0:0:0:
468,216,64083,1,8,0:0:0:0:
399,272,64283,5,0,0:0:0:0:
364,289,64383,1,0,0:0:0:0:
326,304,64483,1,0,0:0:0:0:
288,315,64583,1,0,0:0:0:0:
249,322,64683,1,0,0:0:0:0:
209,325,64783,1,0,0:0:0:0:
169,325,64883,1,0,0:0:0:0:
129,321,64983,1,0,0:0:0:0:
92,312,65083,6,0,L|52:305,3,40,2|0|0|0,0:0|0:0|0:0|0:0,0:0:0:0:
84,224,65483,2,0,P|63:191|47:154,1,80,4|0,0:0|0:0,0:0:0:0:
185,58,65883,2,0,P|184:97|170:135,1,80,2|0,0:0|0:0,0:0:0:0:
327,58,66283,2,0,P|328:97|342:135,1,80,4|0,0:0|0:0,0:0:0:0:
364,176,66583,1,0,0:0:0:0:
364,175,66683,6,0,P|403:171|440:185,1,80,2|8,0:0|0:0,0:0:0:0:
476,336,67083,1,8,0:0:0:0:
344,344,67283,1,0,0:0:0:0:
244,257,67483,2,0,P|232:220|231:180,1,80,8|0,0:0|0:0,0:0:0:0:
413,42,67883,2,0,P|394:77|366:104,1,80,8|0,0:0|0:0,0:0:0:0:
144,116,68283,6,0,P|173:89|211:77,1,80,2|8,0:0|0:0,0:0:0:0:
296,208,68683,1,8,0:0:0:0:
184,320,68884,1,0,0:0:0:0:
341,353,69083,2,0,P|379:342|405:313,1,80,8|0,0:0|0:0,0:0:0:0:
291,128,69483,2,0,P|291:167|295:207,1,80,8|0,0:0|0:0,0:0:0:0:
184,320,69883,6,0,P|135:258|130:178,1,160,2|8,0:0|0:0,0:0:0:0:
440,212,70483,1,0,0:0:0:0:
269,350,70683,1,8,0:0:0:0:
295,207,70883,1,0,0:0:0:0:
440,212,71083,2,0,L|485:145,1,80,8|0,0:0|0:0,0:0:0:0:
440,344,71483,5,2,0:0:0:0:
295,207,71683,1,8,0:0:0:0:
269,350,71883,1,2,0:0:0:0:
124,200,72083,1,8,0:0:0:0:
53,106,72283,5,2,0:0:0:0:
80,94,72383,1,0,0:0:0:0:
109,85,72483,1,0,0:0:0:0:
139,82,72583,1,0,0:0:0:0:
168,87,72683,1,2,0:0:0:0:
198,86,72783,1,0,0:0:0:0:
227,77,72883,1,0,0:0:0:0:
253,63,72983,1,0,0:0:0:0:
281,46,73083,6,0,P|320:43|360:47,1,80,4|8,0:0|0:0,0:0:0:0:
456,120,73483,2,0,P|436:154|406:180,1,80,8|0,0:0|0:0,0:0:0:0:
241,298,73883,1,8,0:0:0:0:
385,314,74083,1,0,0:0:0:0:
255,176,74283,2,0,P|294:179|334:187,1,80,8|0,0:0|0:0,0:0:0:0:
324,361,74683,6,0,P|312:324|307:284,1,80,8|0,0:0|0:0,0:0:0:0:
165,306,75083,1,2,0:0:0:0:
181,182,75283,1,8,0:0:0:0:
89,306,75483,5,2,0:0:0:0:
105,166,75683,1,8,0:0:0:0:
13,302,75883,5,2,0:0:0:0:
29,146,76083,1,8,0:0:0:0:
181,182,76283,6,0,P|219:173|245:144,1,80,4|0,0:0|0:0,0:0:0:0:
395,222,76683,2,0,P|356:220|317:229,1,80,2|0,0:0|0:0,0:0:0:0:
377,354,77083,1,4,0:0:0:0:
245,143,77283,1,0,0:0:0:0:
193,366,77483,1,2,0:0:0:0:
181,182,77683,1,0,0:0:0:0:
64,40,77883,5,4,0:0:0:0:
64,40,77983,1,0,0:0:0:0:
68,40,78083,2,0,L|100:72,1,40
24,156,78283,1,4,0:0:0:0:
24,156,78383,1,0,0:0:0:0:
24,156,78483,2,0,L|72:176,1,40
8,280,78683,6,0,L|55:299,1,40,4|0,0:0|0:0,0:0:0:0:
169,246,78883,2,0,L|129:249,1,40
155,352,79083,2,0,L|192:365,1,40,4|0,0:0|0:0,0:0:0:0:
320,274,79283,2,0,L|281:282,1,40
424,359,79483,6,0,P|447:328|454:289,1,80,4|8,0:0|0:0,0:0:0:0:
468,156,79883,1,0,0:0:0:0:
329,186,80083,1,0,0:0:0:0:
331,35,80283,2,0,P|292:41|255:56,1,80,8|0,0:0|0:0,0:0:0:0:
143,167,80683,2,0,P|117:137|104:100,1,80,8|0,0:0|0:0,0:0:0:0:
240,252,81083,6,0,P|211:279|174:293,1,80,4|0,0:0|0:0,0:0:0:0:
143,167,81483,1,8,0:0:0:0:
255,56,81683,1,0,0:0:0:0:
329,186,81883,2,0,P|366:199|406:196,1,80,8|0,0:0|0:0,0:0:0:0:
411,50,82283,1,8,0:0:0:0:
255,56,82483,1,0,0:0:0:0:
377,120,82683,6,0,P|400:88|411:50,1,80,4|0,0:0|0:0,0:0:0:0:
244,234,83083,2,0,P|212:255|172:258,1,80,8|0,0:0|0:0,0:0:0:0:
61,70,83483,1,4,0:0:0:0:
185,186,83683,1,0,0:0:0:0:
109,338,83883,1,4,0:0:0:0:
257,158,84083,1,0,0:0:0:0:
321,330,84283,6,0,P|380:334|440:329,2,120,4|4|4,0:0|0:0|0:0,0:0:0:0:
171,257,85083,2,0,B|128:248|114:206,1,80,4|0,0:0|0:0,0:0:0:0:
180,128,85483,1,0,0:0:0:0:
288,196,85683,1,0,0:0:0:0:
316,172,85783,1,0,0:0:0:0:
353,176,85883,6,0,P|392:182|431:174,1,80,4|0,0:0|0:0,0:0:0:0:
388,64,86283,1,0,0:0:0:0:
499,188,86483,2,0,P|481:222|446:242,2,80,0|8|0,0:0|0:0|0:0,0:0:0:0:
288,196,87083,2,0,P|251:182|221:156,1,80,8|0,0:0|0:0,0:0:0:0:
188,20,87483,6,0,P|149:31|119:56,1,80,4|0,0:0|0:0,0:0:0:0:
96,208,87883,1,0,0:0:0:0:
220,155,88083,1,0,0:0:0:0:
232,300,88283,2,0,P|270:289|311:268,1,80,8|0,0:0|0:0,0:0:0:0:
392,208,88683,1,8,0:0:0:0:
348,72,88883,1,0,0:0:0:0:
256,192,89083,12,4,92283,0:0:0:0:
84,101,92683,6,0,P|107:83|135:71,1,60.0000022888184,2|0,2:0|2:0,2:0:0:0:
156,164,93083,1,2,2:0:0:0:
247,184,93283,2,0,P|270:164|280:136,2,60.0000022888184,0|2|0,2:0|2:0|2:0,2:0:0:0:
232,288,93883,6,0,P|203:279|178:262,1,60.0000022888184,2|0,2:0|2:0,2:0:0:0:
340,256,94283,1,2,2:0:0:0:
356,144,94483,1,0,2:0:0:0:
476,116,94683,2,0,P|480:155|472:188,1,60.0000022888184,2|0,2:0|2:0,2:0:0:0:
452,284,95083,1,2,0:0:0:0:
380,352,95283,1,0,2:0:0:0:
256,192,95483,12,0,104283,2:0:0:0:
