osu file format v14

[General]
AudioFilename: senyatoyoump3.mp3
AudioLeadIn: 1000
PreviewTime: 120480
Countdown: 0
SampleSet: Soft
StackLeniency: 0.7
Mode: 0
LetterboxInBreaks: 0
WidescreenStoryboard: 0

[Editor]
Bookmarks: 73601
DistanceSpacing: 0.8
BeatDivisor: 4
GridSize: 4
TimelineZoom: 1

[Metadata]
Title:Kimi to Dareka no Yasashisa ni
TitleUnicode:君と誰かの優しさに
Artist:senya
ArtistUnicode:senya
Creator:kakifly
Version:Setz's Normal
Source:艦隊これくしょん
Tags:setz kantai collection kancolle Yuuhei Catharsis 終焉の輝き kamase-tora かませ虎 Hizumi C87 Married ship girls image song yuri Kitakami Ooi
BeatmapID:596173
BeatmapSetID:250337

[Difficulty]
HPDrainRate:3
CircleSize:3.5
OverallDifficulty:3
ApproachRate:4
SliderMultiplier:1.1
SliderTickRate:2

[Events]
//Background and Video events
0,0,"bgsenya.png",0,0
//Break Periods
2,85137,95817
2,157137,167817
//Storyboard Layer 0 (Background)
//Storyboard Layer 1 (Fail)
//Storyboard Layer 2 (Pass)
//Storyboard Layer 3 (Foreground)
//Storyboard Sound Samples

[TimingPoints]
1137,375,4,2,1,30,1,0
1137,-100,4,2,1,30,0,0
11637,-100,4,2,1,55,0,0
13137,-100,4,2,1,50,0,0
18762,-100,4,2,1,35,0,0
19137,-100,4,2,1,50,0,0
25137,-100,4,2,1,40,0,0
29637,-100,4,2,1,30,0,0
30012,-100,4,2,1,40,0,0
59637,-100,4,2,1,75,0,0
61137,-100,4,2,1,90,0,1
61230,-100,4,2,1,80,0,1
72762,-100,4,2,1,80,0,0
73137,-100,4,2,1,90,0,1
73230,-100,4,2,1,80,0,1
83637,-100,4,2,1,90,0,0
83730,-100,4,2,1,50,0,0
108762,-100,4,2,1,40,0,0
109137,-100,4,2,1,50,0,0
119637,-100,4,2,1,75,0,0
121137,-100,4,2,1,90,0,1
121230,-100,4,2,1,80,0,1
123762,-100,4,2,1,60,0,1
124137,-100,4,2,1,80,0,1
132762,-100,4,2,1,80,0,0
133137,-100,4,2,1,90,0,1
133230,-100,4,2,1,80,0,1
138762,-100,4,2,1,60,0,1
139137,-100,4,2,1,80,0,1
143637,-100,4,2,1,90,0,0
143730,-100,4,2,1,70,0,0
150480,-100,4,2,1,55,0,0
150762,-100,4,2,1,70,0,0
150855,-100,4,2,1,55,0,0
151137,-100,4,2,1,70,0,0
155637,-100,4,2,1,80,0,0
169137,-100,4,2,1,80,0,1
174762,-100,4,2,1,60,0,1
175137,-100,4,2,1,80,0,1
179637,-100,4,2,1,80,0,0
181137,-100,4,2,1,95,0,1
181230,-100,4,2,1,80,0,1
186387,-100,4,2,1,60,0,1
186480,-100,4,2,1,80,0,1
186762,-100,4,2,1,60,0,1
187137,-100,4,2,1,80,0,1
192762,-100,4,2,1,80,0,0
193137,-100,4,2,1,90,0,1
193230,-100,4,2,1,80,0,1
198762,-100,4,2,1,60,0,1
199137,-100,4,2,1,80,0,1
203637,-100,4,2,1,90,0,0
205137,-100,4,2,1,20,0,0
205887,-100,4,2,1,10,0,0
206449,-100,4,2,1,5,0,0

[Colours]
Combo1 : 255,230,142
Combo2 : 251,162,162
Combo3 : 250,165,192
Combo4 : 180,123,210

[HitObjects]
39,271,1137,6,0,P|93:256|159:268,1,110,2|0,0:0|0:0,0:0:0:0:
186,278,1699,1,2,0:0:0:0:
226,295,1887,2,0,P|278:308|346:296,1,110,2|0,0:0|0:0,0:0:0:0:
410,257,2637,2,0,P|404:201|418:140,1,110,2|0,0:0|0:0,0:0:0:0:
393,63,3387,2,0,L|420:13,2,55,2|0|0,0:0|0:0|0:0,0:0:0:0:
323,117,4137,6,0,P|271:127|208:115,1,110,2|0,0:0|0:0,0:0:0:0:
136,77,4887,2,0,B|120:93|106:109|106:109|120:136|106:161|115:173,1,110,2|0,0:0|0:0,0:0:0:0:
129,214,5449,1,0,0:0:0:0:
130,258,5637,2,0,B|121:270|135:295|121:322|121:322|135:338|151:354,2,110,2|0|2,0:0|0:0|0:0,0:0:0:0:
102,84,7137,6,0,P|161:80|204:110,1,110,2|0,0:0|0:0,0:0:0:0:
264,166,7887,2,0,P|309:195|363:190,1,110,2|2,0:0|0:0,0:0:0:0:
422,124,8637,2,0,P|447:168|441:233,1,110,2|0,0:3|0:0,0:0:0:0:
417,261,9199,1,2,0:3:0:0:
383,290,9387,2,0,P|328:303|271:286,1,110,2|0,0:0|0:0,0:0:0:0:
198,250,10137,6,0,P|144:236|91:246,1,110,2|0,0:0|0:0,0:0:0:0:
28,309,10887,2,0,P|4:260|23:193,1,110,2|0,0:0|0:0,0:0:0:0:
59,132,11637,1,2,0:0:0:0:
408,177,13137,6,0,P|353:186|298:176,1,110,6|8,0:0|0:0,0:0:0:0:
234,117,13887,2,0,L|240:52,2,55,0|0|8,0:0|0:0|0:0,0:0:0:0:
220,203,14637,2,0,P|177:226|116:225,1,110,2|8,0:0|0:0,0:0:0:0:
77,207,15199,1,0,0:0:0:0:
40,181,15387,2,0,L|40:70,1,110,2|8,0:0|0:0,0:0:0:0:
118,29,16137,6,0,P|172:21|227:31,1,110,10|8,0:0|0:0,0:0:0:0:
303,71,16887,2,0,P|353:79|418:59,1,110,2|8,0:0|0:0,0:0:0:0:
491,30,17637,2,0,L|502:147,1,110,2|8,0:0|0:0,0:0:0:0:
452,212,18387,2,0,L|466:266,2,55,2|2|10,0:0|0:0|0:0,0:0:0:0:
392,147,19137,6,0,B|376:163|362:179|362:179|376:206|362:231|371:243,1,110,4|8,0:0|0:0,0:0:0:0:
320,315,19887,2,0,P|263:314|215:337,1,110,0|8,0:0|0:0,0:0:0:0:
129,320,20637,2,0,L|123:230,2,82.5,2|2|2,0:0|0:0|0:0,0:0:0:0:
133,363,21387,1,0,0:0:0:0:
216,336,21762,1,8,0:0:0:0:
279,274,22137,6,0,P|318:287|375:282,2,82.5,10|8|8,0:0|0:0|0:0,0:0:0:0:
242,248,22887,2,0,P|203:235|146:240,2,82.5,10|8|8,0:0|0:0|0:0,0:0:0:0:
279,224,23637,1,2,0:0:0:0:
359,188,24012,2,0,P|416:186|462:211,2,110,2|2|2,0:0|0:0|0:0,0:0:0:0:
281,146,25137,6,0,P|295:93|279:32,1,110,6|8,0:0|0:0,0:0:0:0:
198,40,25887,2,0,P|186:93|200:145,1,110,0|8,0:0|0:0,0:0:0:0:
223,230,26637,2,0,P|275:249|332:243,2,110,2|8|2,0:0|0:0|0:0,0:0:0:0:
179,225,27574,2,0,L|124:222,1,55,2|10,0:0|0:0,0:0:0:0:
50,172,28137,6,0,P|97:135|162:142,1,110,10|10,0:0|0:0,0:0:0:0:
188,139,28699,2,0,P|241:136|283:101,1,110,10|10,0:0|0:0,0:0:0:0:
307,64,29262,1,10,0:0:0:0:
435,32,29824,6,0,P|450:83|432:145,1,110,0|8,0:0|0:0,0:0:0:0:
402,164,30387,2,0,L|336:170,1,55,8|8,0:0|0:0,0:0:0:0:
311,194,30762,2,0,L|250:199,1,55,8|8,0:0|0:0,0:0:0:0:
222,227,31137,6,0,P|174:244|109:233,1,110,4|8,0:0|0:0,0:0:0:0:
91,151,31887,2,0,P|139:134|204:145,1,110,0|8,0:0|0:0,0:0:0:0:
259,203,32637,2,0,P|314:213|370:197,2,110,2|2|2,0:0|0:0|0:0,0:0:0:0:
215,210,33574,2,0,L|160:219,1,55,2|2,0:0|0:0,0:0:0:0:
80,183,34137,6,0,P|74:234|106:288,1,110,10|8,0:0|0:0,0:0:0:0:
138,307,34699,2,0,L|259:287,1,110,8|8,0:0|0:0,0:0:0:0:
290,282,35262,1,10,0:0:0:0:
419,255,35824,6,0,L|394:136,1,110,10|10,0:0|0:0,0:0:0:0:
365,116,36387,2,0,L|294:131,1,55,8|8,0:0|0:0,0:0:0:0:
271,107,36762,2,0,L|198:121,1,55,8|8,0:0|0:0,0:0:0:0:
173,127,37137,6,0,B|157:143|143:159|143:159|157:186|143:211|152:223,1,110,10|8,0:0|0:0,0:0:0:0:
198,298,37887,2,0,P|253:309|307:295,1,110,0|8,0:0|0:0,0:0:0:0:
363,230,38637,2,0,P|416:217|469:228,2,110,2|8|2,0:0|0:0|0:0,0:0:0:0:
318,226,39574,2,0,L|254:221,1,55,2|10,0:0|0:0,0:0:0:0:
177,201,40137,6,0,P|125:186|51:199,1,110,10|10,0:0|0:0,0:0:0:0:
28,205,40699,2,0,P|19:260|29:314,1,110,10|10,0:0|0:0,0:0:0:0:
45,353,41262,1,10,0:0:0:0:
176,367,41824,6,0,P|238:368|285:354,1,110,0|8,0:0|0:0,0:0:0:0:
325,339,42387,2,0,L|390:320,1,55,8|8,0:0|0:0,0:0:0:0:
408,291,42762,2,0,L|467:273,1,55,8|8,0:0|0:0,0:0:0:0:
490,242,43137,6,0,P|494:186|478:126,1,110,10|8,0:0|0:0,0:0:0:0:
416,74,43887,2,0,P|358:59|307:63,1,110,0|8,0:0|0:0,0:0:0:0:
255,132,44637,2,0,P|201:132|146:108,2,110,2|8|2,0:0|0:0|0:0,0:0:0:0:
298,136,45574,2,0,P|326:140|357:146,1,55,2|10,0:0|0:0,0:0:0:0:
437,168,46137,6,0,P|405:212|339:225,1,110,2|8,0:0|0:0,0:0:0:0:
309,223,46699,2,0,L|199:206,1,110,0|0,0:0|0:0,0:0:0:0:
156,200,47262,1,2,0:0:0:0:
68,210,47637,1,10,0:0:0:0:
107,131,48012,1,10,0:0:0:0:
165,64,48387,2,0,L|123:27,2,55,10|10|10,0:0|0:0|0:0,0:0:0:0:
250,38,49137,6,0,P|309:25|378:33,1,110,6|8,0:0|0:0,0:0:0:0:
441,58,49887,2,0,P|458:115|454:172,1,110,0|8,0:0|0:0,0:0:0:0:
409,240,50637,2,0,P|362:270|305:276,1,110,2|8,0:0|0:0,0:0:0:0:
234,229,51387,2,0,P|233:174|213:116,1,110,0|8,0:0|0:0,0:0:0:0:
197,36,52137,6,0,P|149:61|128:122,1,110,2|8,0:0|0:0,0:0:0:0:
121,153,52699,1,0,0:0:0:0:
126,196,52887,2,0,P|147:245|195:270,1,110,0|8,0:0|0:0,0:0:0:0:
283,280,53637,2,0,P|343:288|400:316,1,110,2|8,0:0|0:0,0:0:0:0:
467,346,54387,1,0,0:0:0:0:
469,258,54762,1,8,0:0:0:0:
407,194,55137,6,0,P|355:172|297:166,1,110,2|8,0:0|0:0,0:0:0:0:
213,164,55887,1,0,0:0:0:0:
180,82,56262,1,8,0:0:0:0:
119,18,56637,2,0,P|93:75|106:130,1,110,2|8,0:0|0:0,0:0:0:0:
149,193,57387,1,0,0:0:0:0:
91,260,57762,1,8,0:0:0:0:
145,328,58137,6,0,L|266:342,1,110,2|10,0:0|0:0,0:0:0:0:
341,351,58887,1,2,0:0:0:0:
426,331,59262,1,10,0:0:0:0:
369,263,59637,1,6,0:0:0:0:
369,263,61137,6,0,P|306:273|256:262,1,110,6|8,0:0|0:0,0:0:0:0:
179,230,61887,2,0,P|164:183|175:120,1,110,0|8,0:0|0:0,0:0:0:0:
201,89,62449,1,0,0:0:0:0:
240,68,62637,2,0,L|363:61,1,110,2|8,0:0|0:0,0:0:0:0:
431,94,63387,1,0,0:0:0:0:
460,176,63762,1,8,0:0:0:0:
447,263,64137,6,0,P|398:244|375:187,1,110,2|8,0:0|0:0,0:0:0:0:
333,116,64887,2,0,P|275:104|214:115,1,110,0|8,0:0|0:0,0:0:0:0:
184,127,65449,1,0,0:0:0:0:
144,146,65637,2,0,L|144:265,1,110,6|8,0:0|0:0,0:0:0:0:
85,322,66387,2,0,P|129:345|202:321,1,110,2|10,0:0|0:0,0:0:0:0:
262,290,67137,6,0,P|315:278|364:301,1,110,2|8,0:0|0:0,0:0:0:0:
426,363,67887,2,0,P|449:320|439:257,1,110,2|8,0:0|0:0,0:0:0:0:
412,177,68637,2,0,L|405:57,1,110,2|8,0:0|0:0,0:0:0:0:
319,73,69387,2,0,P|264:81|207:74,1,110,0|8,0:0|0:0,0:0:0:0:
125,62,70137,6,0,B|109:78|95:94|95:94|109:121|95:146|104:158,1,110,2|8,0:0|0:0,0:0:0:0:
76,241,70887,2,0,P|128:242|176:207,1,110,2|8,0:0|0:0,0:0:0:0:
246,160,71637,2,0,P|286:158|322:178,2,82.5,10|8|8,0:0|0:0|0:0,0:0:0:0:
212,131,72387,1,8,0:0:0:0:
122,282,73137,6,0,P|112:218|123:168,1,110,6|8,0:0|0:0,0:0:0:0:
155,92,73887,2,0,P|202:77|265:88,1,110,0|8,0:0|0:0,0:0:0:0:
296,114,74449,1,0,0:0:0:0:
317,153,74637,2,0,L|324:276,1,110,2|8,0:0|0:0,0:0:0:0:
365,340,75387,1,0,0:0:0:0:
443,302,75762,1,8,0:0:0:0:
495,231,76137,6,0,P|446:209|390:233,1,110,2|8,0:0|0:0,0:0:0:0:
358,250,76699,1,0,0:0:0:0:
320,274,76887,2,0,P|269:292|220:271,1,110,0|8,0:0|0:0,0:0:0:0:
143,229,77637,2,0,L|143:110,1,110,4|8,0:0|0:0,0:0:0:0:
84,53,78387,2,0,P|128:30|201:54,1,110,0|8,0:0|0:0,0:0:0:0:
258,89,79137,6,0,P|310:101|359:78,1,110,2|8,0:0|0:0,0:0:0:0:
434,41,79887,2,0,B|450:57|464:73|464:73|450:100|464:125|455:137,1,110,0|8,0:0|0:0,0:0:0:0:
492,216,80637,2,0,P|437:221|388:191,1,110,2|8,0:0|0:0,0:0:0:0:
365,158,81199,1,0,0:0:0:0:
340,122,81387,2,0,P|285:114|234:134,1,110,0|8,0:0|0:0,0:0:0:0:
168,188,82137,6,0,L|158:285,2,82.5,8|8|8,0:0|0:0|0:0,0:0:0:0:
139,154,82887,2,0,L|129:57,2,82.5,8|8|8,0:0|0:0|0:0,0:0:0:0:
112,188,83637,1,2,0:0:0:0:
171,309,97137,6,0,B|216:313|216:313|236:323|236:323|290:327,1,110,6|8,0:0|0:0,0:0:0:0:
310,244,97887,2,0,B|265:240|265:240|245:230|245:230|191:226,1,110,0|8,0:0|0:0,0:0:0:0:
123,188,98637,2,0,L|133:58,2,110,2|8|2,0:0|0:0|0:0,0:0:0:0:
118,231,99574,2,0,L|108:310,1,55,2|10,0:0|0:0,0:0:0:0:
177,343,100137,6,0,P|242:330|294:342,1,110,10|10,0:0|0:0,0:0:0:0:
325,354,100699,2,0,P|379:362|432:349,1,110,10|10,0:0|0:0,0:0:0:0:
472,331,101262,1,10,0:0:0:0:
496,201,101824,6,0,P|510:147|485:83,1,110,0|0,0:0|0:0,0:0:0:0:
458,71,102387,2,0,L|398:59,1,55,0|2,0:0|0:0,0:0:0:0:
363,77,102762,2,0,L|303:65,1,55,10|10,0:0|0:0,0:0:0:0:
268,84,103137,6,0,P|211:78|158:53,1,110,6|8,0:0|0:0,0:0:0:0:
82,21,103887,2,0,P|55:69|57:123,1,110,0|8,0:0|0:0,0:0:0:0:
121,184,104637,2,0,P|67:211|11:197,2,110,2|8|2,0:0|0:0|0:0,0:0:0:0:
164,179,105574,2,0,L|219:179,1,55,2|10,0:0|0:0,0:0:0:0:
296,136,106137,6,0,P|306:183|283:240,1,110,10|8,0:0|0:0,0:0:0:0:
253,270,106699,2,0,P|204:291|146:288,1,110,10|8,0:0|0:0,0:0:0:0:
105,276,107262,1,10,0:0:0:0:
51,206,107637,1,8,0:0:0:0:
92,128,108012,1,8,0:0:0:0:
156,67,108387,2,0,L|150:12,2,55,10|10|10,0:0|0:0|0:0,0:0:0:0:
166,154,109137,6,0,L|179:263,1,110,14|8,0:0|0:0,0:0:0:0:
137,341,109887,2,0,P|192:351|244:321,1,110,0|8,0:0|0:0,0:0:0:0:
308,274,110637,2,0,P|357:249|410:260,1,110,2|8,0:0|0:0,0:0:0:0:
460,332,111387,2,0,P|492:291|487:221,1,110,0|8,0:0|0:0,0:0:0:0:
433,169,112137,6,0,P|371:170|319:144,1,110,2|8,0:0|0:0,0:0:0:0:
290,127,112699,1,0,0:0:0:0:
254,100,112887,2,0,P|203:79|148:81,1,110,0|8,0:0|0:0,0:0:0:0:
66,112,113637,2,0,L|49:227,1,110,2|8,0:0|0:0,0:0:0:0:
75,305,114387,1,0,0:0:0:0:
141,362,114762,1,8,0:0:0:0:
208,305,115137,6,0,P|260:285|330:291,1,110,2|8,0:0|0:0,0:0:0:0:
397,311,115887,1,0,0:0:0:0:
447,238,116262,1,8,0:0:0:0:
472,154,116637,2,0,P|409:159|368:198,1,110,2|8,0:0|0:0,0:0:0:0:
316,255,117387,1,0,0:0:0:0:
259,187,117762,1,8,0:0:0:0:
187,135,118137,6,0,P|203:79|185:28,1,110,2|2,0:0|0:0,0:0:0:0:
120,83,118887,1,2,0:0:0:0:
49,136,119262,1,2,0:0:0:0:
122,184,119637,1,6,0:0:0:0:
122,184,121137,6,0,P|176:195|230:186,1,110,4|8,0:0|0:0,0:0:0:0:
303,133,121887,2,0,P|319:187|303:238,1,110,0|8,0:0|0:0,0:0:0:0:
279,273,122449,1,0,0:0:0:0:
243,298,122637,2,0,P|186:306|122:294,1,110,2|8,0:0|0:0,0:0:0:0:
51,268,123387,1,0,0:0:0:0:
110,202,123762,1,8,0:0:0:0:
33,157,124137,6,0,P|75:120|130:116,1,110,2|8,0:0|0:0,0:0:0:0:
169,127,124699,1,0,0:0:0:0:
211,141,124887,2,0,P|265:147|318:136,1,110,0|8,0:0|0:0,0:0:0:0:
397,96,125637,2,0,P|447:75|503:91,1,110,6|8,0:0|0:0,0:0:0:0:
453,163,126387,2,0,L|458:288,1,110,0|10,0:0|0:0,0:0:0:0:
432,357,127137,6,0,L|319:367,1,110,2|8,0:0|0:0,0:0:0:0:
234,363,127887,2,0,P|189:327|183:268,1,110,0|8,0:0|0:0,0:0:0:0:
179,189,128637,2,0,L|172:69,1,110,2|8,0:0|0:0,0:0:0:0:
84,81,129387,2,0,L|90:190,1,110,0|8,0:0|0:0,0:0:0:0:
109,274,130137,6,0,B|158:308|168:261|217:303,1,110,2|8,0:0|0:0,0:0:0:0:
287,344,130887,2,0,P|339:345|387:310,1,110,0|8,0:0|0:0,0:0:0:0:
425,234,131637,2,0,L|508:234,2,82.5,8|8|8,0:0|0:0|0:0,0:0:0:0:
380,233,132387,1,8,0:0:0:0:
340,61,133137,6,0,P|282:47|220:60,1,110,6|8,0:0|0:0,0:0:0:0:
149,82,133887,2,0,P|160:132|145:194,1,110,0|8,0:0|0:0,0:0:0:0:
128,228,134449,1,0,0:0:0:0:
103,264,134637,2,0,P|83:316|99:370,1,110,2|8,0:0|0:0,0:0:0:0:
172,321,135387,1,0,0:0:0:0:
249,362,135762,1,8,0:0:0:0:
327,323,136137,6,0,P|374:333|445:314,1,110,2|8,0:0|0:0,0:0:0:0:
485,246,136887,2,0,L|484:125,1,110,0|8,0:0|0:0,0:0:0:0:
404,98,137637,2,0,L|404:208,1,110,6|8,0:0|0:0,0:0:0:0:
394,295,138387,2,0,P|341:306|292:283,1,110,2|2,0:0|0:0,0:0:0:0:
229,220,139137,6,0,P|181:196|128:208,1,110,2|8,0:0|0:0,0:0:0:0:
69,274,139887,2,0,B|21:225|54:160,1,110,0|8,0:0|0:0,0:0:0:0:
96,99,140637,2,0,L|215:86,1,110,2|8,0:0|0:0,0:0:0:0:
293,88,141387,2,0,L|402:99,1,110,0|8,0:0|0:0,0:0:0:0:
443,114,141949,1,0,0:0:0:0:
467,150,142137,6,0,L|457:247,2,82.5,10|8|8,0:0|0:0|0:0,0:0:0:0:
443,114,142887,2,0,L|433:17,2,82.5,8|8|8,0:0|0:0|0:0,0:0:0:0:
406,138,143637,1,2,0:0:0:0:
90,294,145137,6,0,L|82:357,2,55,6|2|10,0:0|0:0|0:0,0:0:0:0:
115,258,145699,2,0,L|107:195,2,55,2|2|2,0:0|0:0|0:0,0:0:0:0:
143,291,146262,1,10,0:0:0:0:
229,308,146637,2,0,P|293:306|346:320,1,110,2|8,0:0|0:0,0:0:0:0:
421,337,147387,2,0,B|482:349|482:349|498:291,1,110,2|8,0:0|0:0,0:0:0:0:
505,215,148137,6,0,P|510:162|498:94,1,110,2|8,0:0|0:0,0:0:0:0:
427,59,148887,2,0,P|367:70|311:59,1,110,2|8,0:0|0:0,0:0:0:0:
277,48,149449,1,2,0:0:0:0:
233,38,149637,2,0,P|173:27|117:38,1,110,2|8,0:0|0:0,0:0:0:0:
47,76,150387,2,0,L|23:25,2,55,2|2|10,0:0|0:0|0:0,0:0:0:0:
64,116,150949,1,2,0:0:0:0:
82,156,151137,6,0,P|95:207|81:265,1,110,0|8,0:0|0:0,0:0:0:0:
23,326,151887,2,0,P|68:348|133:333,1,110,2|8,0:0|0:0,0:0:0:0:
206,303,152637,2,0,P|248:301|298:323,2,82.5,2|2|0,0:0|0:0|0:0,0:0:0:0:
175,271,153387,1,2,0:0:0:0:
134,195,153762,2,0,L|135:123,1,55,8|0,0:0|0:0,0:0:0:0:
134,95,154137,6,0,P|197:93|246:69,2,110,2|8|2,0:0|0:0|0:0,0:0:0:0:
94,75,155074,2,0,P|67:67|40:64,2,55,2|8|2,0:0|0:0|0:0,0:0:0:0:
130,50,155637,1,4,0:0:0:0:
126,295,169137,6,0,P|181:315|238:295,1,110,6|8,0:0|0:0,0:0:0:0:
182,227,169887,2,0,P|167:172|184:118,1,110,0|8,0:0|0:0,0:0:0:0:
210,89,170449,1,0,0:0:0:0:
252,79,170637,2,0,P|290:88|366:77,1,110,2|8,0:0|0:0,0:0:0:0:
442,48,171387,1,0,0:0:0:0:
438,135,171762,1,8,0:0:0:0:
465,218,172137,6,0,L|441:325,1,110,2|8,0:0|0:0,0:0:0:0:
354,340,172887,2,0,L|378:233,1,110,0|8,0:0|0:0,0:0:0:0:
447,178,173637,2,0,P|396:147|341:153,1,110,6|8,0:0|0:0,0:0:0:0:
263,178,174387,2,0,P|208:179|163:150,1,110,2|10,0:0|0:0,0:0:0:0:
91,105,175137,6,0,L|72:224,1,110,2|8,0:0|0:0,0:0:0:0:
13,277,175887,2,0,P|65:303|126:288,1,110,0|8,0:0|0:0,0:0:0:0:
196,262,176637,2,0,P|249:254|297:279,1,110,2|8,0:0|0:0,0:0:0:0:
373,324,177387,2,0,L|422:215,1,110,0|8,0:0|0:0,0:0:0:0:
364,153,178137,6,0,L|354:56,2,82.5,8|8|8,0:0|0:0|0:0,0:0:0:0:
330,181,178887,2,0,L|320:278,2,82.5,8|8|8,0:0|0:0|0:0,0:0:0:0:
301,146,179637,1,2,0:0:0:0:
220,181,180012,2,0,P|161:194|109:181,1,110,0|0,0:0|0:0,0:0:0:0:
38,136,180762,1,0,0:0:0:0:
39,223,181137,6,0,P|76:260|151:269,1,110,6|8,0:0|0:0,0:0:0:0:
219,269,181887,2,0,L|333:259,1,110,0|8,0:0|0:0,0:0:0:0:
372,254,182449,1,0,0:0:0:0:
409,230,182637,2,0,P|418:174|400:120,1,110,2|8,0:0|0:0,0:0:0:0:
334,67,183387,1,0,0:0:0:0:
260,115,183762,1,8,0:0:0:0:
191,59,184137,6,0,P|137:64|77:53,1,110,2|8,0:0|0:0,0:0:0:0:
13,109,184887,2,0,L|15:221,1,110,0|8,0:0|0:0,0:0:0:0:
34,258,185449,1,0,0:0:0:0:
64,291,185637,2,0,P|123:289|187:316,1,110,6|8,0:0|0:0,0:0:0:0:
251,341,186387,2,0,P|302:358|357:355,1,110,6|14,0:0|0:0,0:0:0:0:
436,322,187137,6,0,P|446:268|433:215,1,110,2|8,0:0|0:0,0:0:0:0:
474,137,187887,2,0,P|420:128|365:160,1,110,0|8,0:0|0:0,0:0:0:0:
291,188,188637,2,0,P|230:173|181:175,1,110,2|8,0:0|0:0,0:0:0:0:
98,199,189387,2,0,P|85:253|104:308,1,110,0|8,0:0|0:0,0:0:0:0:
137,328,189949,1,8,0:0:0:0:
177,345,190137,6,0,B|292:349,1,110,10|8,0:0|0:0,0:0:0:0:
374,348,190887,2,0,P|391:300|369:235,1,110,0|8,0:0|0:0,0:0:0:0:
303,194,191637,2,0,L|314:105,2,82.5,10|8|8,0:0|0:0|0:0,0:0:0:0:
296,237,192387,1,0,0:0:0:0:
199,87,193137,6,0,P|210:141|201:195,1,110,14|8,0:0|0:0,0:0:0:0:
139,253,193887,2,0,P|185:281|240:273,1,110,0|8,0:0|0:0,0:0:0:0:
277,251,194449,1,0,0:0:0:0:
318,235,194637,2,0,P|368:230|422:255,1,110,2|8,0:0|0:0,0:0:0:0:
489,309,195387,1,0,0:0:0:0:
500,221,195762,1,8,0:0:0:0:
440,156,196137,6,0,B|449:117|449:117|435:92|435:92|434:44,1,110,2|8,0:0|0:0,0:0:0:0:
348,71,196887,2,0,B|348:112|348:112|362:137|362:137|353:176,1,110,0|8,0:0|0:0,0:0:0:0:
313,254,197637,2,0,P|251:252|203:278,1,110,6|8,0:0|0:0,0:0:0:0:
129,310,198387,2,0,P|80:276|64:215,1,110,2|10,0:0|0:0,0:0:0:0:
97,148,199137,6,0,P|150:136|195:104,1,110,2|8,0:0|0:0,0:0:0:0:
235,25,199887,2,0,B|287:53|285:119,1,110,0|8,0:0|0:0,0:0:0:0:
325,193,200637,2,0,P|380:198|430:219,1,110,2|8,0:0|0:0,0:0:0:0:
498,276,201387,2,0,P|450:305|393:299,1,110,0|8,0:0|0:0,0:0:0:0:
317,267,202137,6,0,P|276:269|224:257,2,82.5,8|8|8,0:0|0:0|0:0,0:0:0:0:
340,229,202887,2,0,P|381:227|433:239,2,82.5,8|8|8,0:0|0:0|0:0,0:0:0:0:
306,200,203637,1,2,0:0:0:0:
256,192,205137,12,2,206637,0:0:0:0:
