osu file format v14

[General]
AudioFilename: senyatoyoump3.mp3
AudioLeadIn: 1000
PreviewTime: 120480
Countdown: 0
SampleSet: Soft
StackLeniency: 0.7
Mode: 0
LetterboxInBreaks: 0
WidescreenStoryboard: 0

[Editor]
Bookmarks: 73601
DistanceSpacing: 1.5
BeatDivisor: 4
GridSize: 4
TimelineZoom: 1

[Metadata]
Title:Kimi to Dareka no Yasashisa ni
TitleUnicode:君と誰かの優しさに
Artist:senya
ArtistUnicode:senya
Creator:kakifly
Version:Hard
Source:艦隊これくしょん
Tags:setz kantai collection kancolle Yuuhei Catharsis 終焉の輝き kamase-tora かませ虎 Hizumi C87 Married ship girls image song yuri Kitakami Ooi
BeatmapID:596169
BeatmapSetID:250337

[Difficulty]
HPDrainRate:5
CircleSize:4
OverallDifficulty:6
ApproachRate:7.5
SliderMultiplier:1.4
SliderTickRate:2

[Events]
//Background and Video events
0,0,"bgsenya.png",0,0
//Break Periods
2,85137,96312
2,157137,166812
//Storyboard Layer 0 (Background)
//Storyboard Layer 1 (Fail)
//Storyboard Layer 2 (Pass)
//Storyboard Layer 3 (Foreground)
//Storyboard Sound Samples

[TimingPoints]
1137,375,4,2,1,30,1,0
1137,-133.333333333333,4,2,1,30,0,0
11637,-133.333333333333,4,2,1,55,0,0
13137,-100,4,2,1,50,0,0
18762,-100,4,2,1,35,0,0
19137,-100,4,2,1,50,0,0
25137,-111.111111111111,4,2,1,40,0,0
29637,-111.111111111111,4,2,1,30,0,0
30012,-111.111111111111,4,2,1,40,0,0
59637,-111.111111111111,4,2,1,75,0,0
61137,-100,4,2,1,90,0,1
61230,-100,4,2,1,80,0,1
72762,-100,4,2,1,80,0,0
73137,-100,4,2,1,90,0,1
73230,-100,4,2,1,80,0,1
83637,-100,4,2,1,90,0,0
83730,-100,4,2,1,50,0,0
97137,-111.111111111111,4,2,1,50,0,0
108762,-111.111111111111,4,2,1,40,0,0
109137,-111.111111111111,4,2,1,50,0,0
119637,-111.111111111111,4,2,1,75,0,0
121137,-100,4,2,1,90,0,1
121230,-100,4,2,1,80,0,1
123762,-100,4,2,1,60,0,1
124137,-100,4,2,1,80,0,1
132762,-100,4,2,1,80,0,0
133137,-100,4,2,1,90,0,1
133230,-100,4,2,1,80,0,1
138762,-100,4,2,1,60,0,1
139137,-100,4,2,1,80,0,1
143637,-100,4,2,1,90,0,0
143730,-100,4,2,1,70,0,0
150480,-100,4,2,1,55,0,0
150762,-100,4,2,1,70,0,0
150855,-100,4,2,1,55,0,0
151137,-100,4,2,1,70,0,0
155637,-100,4,2,1,80,0,0
169137,-100,4,2,1,80,0,1
174762,-100,4,2,1,60,0,1
175137,-100,4,2,1,80,0,1
179637,-100,4,2,1,80,0,0
181137,-100,4,2,1,95,0,1
181230,-100,4,2,1,80,0,1
186387,-100,4,2,1,60,0,1
186480,-100,4,2,1,80,0,1
186762,-100,4,2,1,60,0,1
187137,-100,4,2,1,80,0,1
192762,-100,4,2,1,80,0,0
193137,-100,4,2,1,90,0,1
193230,-100,4,2,1,80,0,1
198762,-100,4,2,1,60,0,1
199137,-100,4,2,1,80,0,1
203637,-100,4,2,1,90,0,0
205137,-100,4,2,1,30,0,0
205887,-100,4,2,1,20,0,0
206449,-100,4,2,1,15,0,0

[Colours]
Combo1 : 255,230,142
Combo2 : 251,162,162
Combo3 : 250,165,192
Combo4 : 180,123,210

[HitObjects]
144,104,1137,6,0,L|132:36,2,52.5000020027161,2|0|0,0:0|0:0|0:0,0:0:0:0:
228,120,1699,1,2,0:0:0:0:
168,180,1887,2,0,P|136:184|104:168,1,52.5000020027161,2|0,0:0|0:0,0:0:0:0:
228,244,2262,2,0,P|260:240|292:256,1,52.5000020027161,0|2,0:0|0:0,0:0:0:0:
340,296,2637,6,0,L|324:168,1,105.000004005432,2|0,0:0|0:0,0:0:0:0:
376,132,3199,1,0,0:0:0:0:
432,192,3387,2,0,P|464:200|492:196,2,52.5000020027161,2|0|0,0:0|0:0|0:0,0:0:0:0:
376,132,3949,1,0,0:0:0:0:
300,168,4137,6,0,P|268:172|240:164,1,52.5000020027161,2|0,0:0|0:0,0:0:0:0:
276,88,4512,1,0,0:0:0:0:
164,144,4699,1,0,0:0:0:0:
164,144,4793,1,0,0:0:0:0:
164,144,4887,2,0,L|176:260,1,105.000004005432,2|0,0:0|0:0,0:0:0:0:
148,316,5449,1,0,0:0:0:0:
252,276,5637,6,0,L|244:204,2,52.5000020027161,2|0|0,0:0|0:0|0:0,0:0:0:0:
324,308,6199,1,0,0:0:0:0:
364,232,6387,2,0,P|424:252|472:220,1,105.000004005432,2|0,0:0|0:0,0:0:0:0:
404,68,7137,6,0,L|416:192,1,105.000004005432,2|0,0:0|0:0,0:0:0:0:
284,224,7887,2,0,L|273:119,1,105.000004005432,2|2,0:0|0:0,0:0:0:0:
312,44,8449,1,2,0:0:0:0:
228,48,8637,6,0,B|200:64|200:64|136:68,2,78.7500030040742,2|2|2,0:3|0:3|0:3,0:0:0:0:
312,44,9387,2,0,L|380:52,2,52.5000020027161,2|0|0,0:0|0:0|0:0,0:0:0:0:
312,44,10137,6,0,L|320:120,1,52.5000020027161,2|0,0:0|0:0,0:0:0:0:
384,180,10512,2,0,L|396:124,1,52.5000020027161,0|2,0:0|0:0,0:0:0:0:
324,228,10887,2,0,P|372:256|428:244,1,105.000004005432,2|0,0:0|0:0,0:0:0:0:
384,180,11449,1,0,0:0:0:0:
308,312,11637,5,2,0:0:0:0:
308,312,13137,6,0,L|232:300,1,70,6|0,0:0|0:0,0:0:0:0:
144,328,13512,2,0,B|108:332|108:332|60:324,2,70,8|0|0,0:0|0:0|0:0,0:0:0:0:
239,301,14074,1,0,0:0:0:0:
176,228,14262,1,8,0:0:0:0:
248,160,14449,1,0,0:0:0:0:
248,160,14543,1,0,0:0:0:0:
248,160,14637,6,0,P|296:196|372:176,1,140,2|8,0:0|0:0,0:0:0:0:
420,96,15199,1,0,0:0:0:0:
316,117,15387,2,0,L|323:47,1,70,0|0,0:0|0:0,0:0:0:0:
232,8,15762,2,0,L|196:16,3,35,2|2|2|2,3:3|3:3|3:3|3:3,0:0:0:0:
184,36,16137,6,0,B|128:32|128:32|96:48|96:48|20:40,1,140,2|8,0:0|0:0,0:0:0:0:
8,124,16699,1,0,0:0:0:0:
100,128,16887,2,0,L|184:136,1,70,2|0,0:0|0:0,0:0:0:0:
92,208,17262,2,0,L|22:201,1,70,10|0,0:0|0:0,0:0:0:0:
164,264,17637,5,2,0:0:0:0:
248,312,17824,1,2,0:0:0:0:
159,332,18012,2,0,P|156:298|164:264,1,70,8|0,0:0|0:0,0:0:0:0:
244,224,18387,2,0,L|284:216,3,35,2|2|2|2,0:0|0:0|0:0|0:0,0:0:0:0:
312,204,18762,2,0,L|364:208,3,35,10|2|2|2,0:0|0:0|0:0|0:0,0:0:0:0:
376,208,19137,6,0,P|356:156|392:84,1,140,2|8,0:0|0:0,0:0:0:0:
440,152,19699,1,0,0:0:0:0:
392,84,19887,2,0,L|324:64,1,70,2|0,0:0|0:0,0:0:0:0:
240,112,20262,2,0,P|208:120|164:112,1,70,8|0,0:0|0:0,0:0:0:0:
72,112,20637,6,0,B|100:148|100:148|112:220,2,105,2|0|0,0:0|0:0|0:0,0:0:0:0:
16,192,21387,2,0,L|28:272,1,70,2|0,0:0|0:0,0:0:0:0:
108,320,21762,1,8,0:0:0:0:
180,256,21949,1,8,0:0:0:0:
180,256,22043,1,8,0:0:0:0:
180,256,22137,6,0,P|224:240|288:256,2,105,8|8|8,0:0|0:0|0:0,0:0:0:0:
108,320,22887,2,0,B|68:300|68:300|32:236,2,105,8|8|8,0:0|0:0|0:0,0:0:0:0:
200,348,23637,5,2,0:0:0:0:
200,348,24012,2,0,L|288:332,1,70
292,256,24387,2,2,P|308:220|336:200,2,70,2|0|0,0:0|0:0|0:0,0:0:0:0:
375,281,24949,1,0,0:0:0:0:
262,335,25137,6,0,L|191:350,1,62.9999980773926,6|0,0:0|0:0,0:0:0:0:
144,284,25512,2,0,P|108:292|80:288,1,62.9999980773926,8|0,0:0|0:0,0:0:0:0:
104,196,25887,2,0,B|64:180|48:164|48:164|16:84,1,125.999996154785,0|8,0:0|0:0,0:0:0:0:
72,24,26449,1,0,0:0:0:0:
164,48,26637,6,0,L|240:24,2,62.9999980773926,2|0|8,0:0|0:0|0:0,0:0:0:0:
100,112,27199,1,0,0:0:0:0:
181,158,27387,2,0,B|212:156|212:156|244:160,1,62.9999980773926,2|0,0:0|0:0,0:0:0:0:
328,248,27762,2,0,B|297:250|297:250|265:246,1,62.9999980773926,8|8,0:0|0:0,0:0:0:0:
236,244,28043,1,0,0:0:0:0:
236,244,28137,6,0,L|244:324,1,62.9999980773926,10|0,0:0|0:0,0:0:0:0:
300,384,28512,1,10,0:0:0:0:
360,320,28699,1,10,0:0:0:0:
360,320,29074,1,8,0:0:0:0:
296,260,29262,2,0,P|268:212|308:140,1,125.999996154785,10|0,0:0|0:0,0:0:0:0:
404,212,29824,6,0,L|340:204,1,62.9999980773926,4|0,0:3|0:0,0:0:0:0:
440,136,30199,2,0,L|512:144,2,62.9999980773926,4|4|4,0:3|0:3|0:3,0:0:0:0:
404,212,30762,2,0,L|412:248,3,31.4999990386963,8|2|8|8,0:3|0:3|0:3|0:3,0:0:0:0:
416,268,31137,6,0,P|364:296|296:264,1,125.999996154785,10|8,0:0|0:0,0:0:0:0:
244,208,31699,1,0,0:0:0:0:
220,292,31887,2,0,B|232:324|232:324|236:368,2,62.9999980773926,0|0|8,0:0|0:0|0:0,0:0:0:0:
160,228,32449,1,0,0:0:0:0:
244,208,32637,6,0,P|264:168|236:88,2,125.999996154785,2|8|0,0:0|0:0|0:0,0:0:0:0:
176,152,33574,1,0,0:0:0:0:
243,94,33762,1,8,0:0:0:0:
346,109,33949,1,8,0:0:0:0:
346,109,34043,1,8,0:0:0:0:
346,109,34137,6,0,L|342:197,1,62.9999980773926,10|0,0:0|0:0,0:0:0:0:
432,256,34512,2,0,L|436:184,1,62.9999980773926,10|10,0:0|0:0,0:0:0:0:
435,193,35074,1,10,0:0:0:0:
336,264,35262,1,10,0:0:0:0:
336,264,35637,6,0,L|296:256,3,31.4999990386963,2|2|4|2,0:0|0:0|0:0|0:0,0:0:0:0:
264,248,36012,2,0,L|192:256,1,62.9999980773926,10|4,0:0|0:3,0:0:0:0:
160,176,36387,2,0,L|236:168,2,62.9999980773926,8|4|8,0:0|0:3|0:0,0:0:0:0:
92,120,36949,1,4,0:3:0:0:
48,196,37137,6,0,P|56:248|52:276,1,62.9999980773926,10|0,0:0|0:0,0:0:0:0:
8,332,37512,2,0,P|36:304|136:312,1,125.999996154785,8|0,0:0|0:0,0:0:0:0:
200,336,38074,1,0,0:0:0:0:
176,248,38262,2,0,B|172:184|172:184|172:172,1,62.9999980773926,8|0,0:0|0:0,0:0:0:0:
279,251,38637,6,0,B|278:249|278:249|282:313,1,62.9999980773926,2|0,0:0|0:0,0:0:0:0:
364,300,39012,2,0,P|400:308|440:296,1,62.9999980773926,8|0,0:0|0:0,0:0:0:0:
396,228,39387,1,0,0:0:0:0:
279,251,39574,1,0,0:0:0:0:
396,228,39762,2,0,B|395:229|395:229|399:167,1,62.9999980773926,10|0,0:0|0:0,0:0:0:0:
388,152,40043,1,8,0:0:0:0:
388,152,40137,6,0,P|348:168|268:128,1,125.999996154785,2|8,0:0|0:0,0:0:0:0:
200,104,40699,2,0,L|120:116,1,62.9999980773926,8|0,0:0|0:0,0:0:0:0:
84,176,41074,1,8,0:0:0:0:
164,200,41262,2,0,B|192:232|192:232|172:284|216:324,1,125.999996154785,10|0,0:0|0:0,0:0:0:0:
268,264,41824,6,0,P|328:280|379:238,1,125.999996154785,4|4,0:3|0:3,0:0:0:0:
324,144,42387,2,0,L|314:206,1,62.9999980773926,4|4,0:3|0:3,0:0:0:0:
224,140,42762,2,0,L|236:68,1,62.9999980773926,4|4,0:3|0:3,0:0:0:0:
168,32,43137,6,0,P|228:40|300:-4,2,125.999996154785,10|8|0,0:0|0:0|0:0,0:0:0:0:
104,84,44074,1,0,0:0:0:0:
152,148,44262,2,0,L|140:228,1,62.9999980773926,8|0,0:0|0:0,0:0:0:0:
208,268,44637,6,0,L|220:196,1,62.9999980773926,2|0,0:0|0:0,0:0:0:0:
72,216,45012,2,0,L|61:278,1,62.9999980773926,8|0,0:0|0:0,0:0:0:0:
12,352,45387,2,0,P|48:324|132:336,1,125.999996154785,0|8,0:0|0:0,0:0:0:0:
204,364,45949,1,0,0:0:0:0:
276,312,46137,6,0,L|264:240,2,62.9999980773926,2|0|8,0:0|0:0|0:0,0:0:0:0:
360,284,46699,1,4,0:0:0:0:
432,336,46887,1,0,0:0:0:0:
360,284,47074,1,0,0:0:0:0:
424,224,47262,2,0,P|428:192|420:152,1,62.9999980773926,6|0,0:0|0:0,0:0:0:0:
352,108,47637,6,0,L|284:112,1,62.9999980773926,8|8,0:0|0:0,0:0:0:0:
212,180,48012,2,0,L|280:188,1,62.9999980773926,8|8,0:0|0:0,0:0:0:0:
252,264,48387,2,0,L|208:260,3,31.4999990386963,2|2|2|2,0:0|0:0|0:0|0:0,0:0:0:0:
192,280,48762,2,0,L|152:276,3,31.4999990386963,10|2|2|2,0:0|0:0|0:0|0:0,0:0:0:0:
128,288,49137,6,0,P|144:228|112:152,1,125.999996154785,6|8,0:0|0:0,0:0:0:0:
236,80,49887,2,0,L|232:148,1,62.9999980773926,0|0,0:0|0:0,0:0:0:0:
320,128,50262,2,0,L|304:204,1,62.9999980773926,8|0,0:0|0:0,0:0:0:0:
360,260,50637,6,0,P|316:232|236:256,1,125.999996154785,2|8,0:0|0:0,0:0:0:0:
204,324,51199,1,0,0:0:0:0:
284,372,51387,2,0,L|296:304,2,62.9999980773926,0|0|8,0:0|0:0|0:0,0:0:0:0:
204,324,51949,1,8,0:0:0:0:
204,324,52043,1,8,0:0:0:0:
204,324,52137,6,0,P|160:328|128:320,2,62.9999980773926,2|0|8,0:0|0:0|0:0,0:0:0:0:
180,240,52699,1,0,0:0:0:0:
268,252,52887,2,0,L|284:180,1,62.9999980773926,0|0,0:0|0:0,0:0:0:0:
204,148,53262,2,0,L|190:86,1,62.9999980773926,8|0,0:0|0:0,0:0:0:0:
108,132,53637,6,0,P|68:136|36:128,1,62.9999980773926,2|0,0:0|0:0,0:0:0:0:
20,216,54012,2,0,P|51:211|82:215,1,62.9999980773926,8|0,0:0|0:0,0:0:0:0:
172,216,54387,2,0,B|156:276|156:276|172:368,1,125.999996154785,0|8,0:0|0:0,0:0:0:0:
252,348,54949,1,0,0:0:0:0:
296,268,55137,6,0,L|300:200,1,62.9999980773926,2|0,0:0|0:0,0:0:0:0:
380,288,55512,2,0,L|388:352,1,62.9999980773926,8|0,0:0|0:0,0:0:0:0:
384,192,55887,2,0,P|360:140|284:120,1,125.999996154785,0|8,0:0|0:0,0:0:0:0:
300,205,56449,1,0,0:0:0:0:
380,288,56637,6,0,B|416:272|416:272|460:304|512:272,1,125.999996154785,2|8,0:0|0:0,0:0:0:0:
464,204,57199,1,0,0:0:0:0:
384,192,57387,2,0,L|376:112,2,62.9999980773926,0|0|8,0:0|0:0|0:0,0:0:0:0:
380,288,57949,1,10,0:0:0:0:
380,288,58043,1,0,0:0:0:0:
380,288,58137,6,0,P|328:308|248:268,1,125.999996154785,10|10,0:0|0:0,0:0:0:0:
204,220,58699,1,2,0:0:0:0:
304,160,58887,2,0,L|324:236,1,62.9999980773926,2|2,0:0|0:0,0:0:0:0:
216,132,59262,2,0,L|236:64,1,62.9999980773926,10|2,0:0|0:0,0:0:0:0:
328,52,59637,5,6,0:0:0:0:
328,52,61137,6,0,L|248:60,1,70,6|0,0:0|0:0,0:0:0:0:
360,136,61512,2,0,L|440:144,1,70,8|0,0:0|0:0,0:0:0:0:
360,240,61887,2,0,P|308:228|256:152,1,140,0|8,0:0|0:0,0:0:0:0:
188,112,62449,1,0,0:0:0:0:
124,212,62637,6,0,B|160:204|160:204|196:208,1,70,2|0,0:0|0:0,0:0:0:0:
224,288,63012,2,0,B|188:296|188:296|152:292,1,70,8|0,0:0|0:0,0:0:0:0:
56,260,63387,2,0,L|40:184,1,70,0|0,0:0|0:0,0:0:0:0:
80,116,63762,2,0,L|124:112,3,35,8|0|0|0,0:0|0:0|0:0|0:0,0:0:0:0:
144,96,64137,6,0,P|196:112|280:72,1,140,2|8,0:0|0:0,0:0:0:0:
332,140,64699,1,0,0:0:0:0:
292,212,64887,2,0,L|296:288,1,70,0|0,0:0|0:0,0:0:0:0:
344,352,65262,1,8,0:0:0:0:
208,344,65449,1,0,0:0:0:0:
208,344,65543,1,0,0:0:0:0:
208,344,65637,6,0,L|200:204,1,140,6|8,0:0|0:0,0:0:0:0:
240,116,66199,1,0,0:0:0:0:
144,140,66387,2,0,B|112:148|112:148|72:144,1,70,0|0,0:0|0:0,0:0:0:0:
32,232,66762,2,0,L|80:240,3,35,10|2|2|2,0:0|0:0|0:0|0:0,0:0:0:0:
100,244,67137,6,0,P|168:224|236:248,1,140,2|8,0:0|0:0,0:0:0:0:
308,308,67699,1,0,0:0:0:0:
308,308,67887,2,0,L|324:220,2,70,0|0|8,0:0|0:0|0:0,0:0:0:0:
220,352,68449,1,0,0:0:0:0:
220,252,68637,6,0,L|236:164,1,70,2|0,0:0|0:0,0:0:0:0:
324,152,69012,2,0,P|384:156|448:100,1,140,8|0,0:0|0:0,0:0:0:0:
360,60,69574,1,0,0:0:0:0:
264,36,69762,1,8,0:0:0:0:
176,80,69949,1,8,0:0:0:0:
176,80,70043,1,8,0:0:0:0:
176,80,70137,6,0,B|188:124|188:124|176:200,2,105,2|0|0,0:0|0:0|0:0,0:0:0:0:
80,56,70887,2,0,B|76:96|76:96|88:136,1,70,2|0,0:0|0:0,0:0:0:0:
179,183,71262,2,0,B|187:211|187:211|183:251,1,70,8|0,0:0|0:0,0:0:0:0:
232,336,71637,6,0,P|172:352|108:320,2,105,8|8|8,0:0|0:0|0:0,0:0:0:0:
300,264,72387,2,0,L|292:176,2,70,0|0|8,0:0|0:0|0:0,0:0:0:0:
340,352,72949,1,8,0:0:0:0:
428,308,73137,6,0,P|456:236|432:176,1,140,6|8,0:0|0:0,0:0:0:0:
356,240,73699,1,0,0:0:0:0:
284,176,73887,2,0,L|299:107,1,70,0|0,0:0|0:0,0:0:0:0:
376,44,74262,2,0,L|392:124,1,70,8|0,0:0|0:0,0:0:0:0:
284,176,74637,5,2,0:0:0:0:
196,132,74824,1,0,0:0:0:0:
284,176,75012,2,0,P|292:232|296:272,1,70,8|0,0:0|0:0,0:0:0:0:
216,308,75387,2,0,P|200:272|204:212,1,70,0|0,0:0|0:0,0:0:0:0:
284,176,75762,1,8,0:0:0:0:
368,228,75949,1,0,0:0:0:0:
368,228,76043,1,0,0:0:0:0:
368,228,76137,6,0,L|364:308,1,70,2|0,0:0|0:0,0:0:0:0:
420,376,76512,2,0,P|356:340|284:372,1,140,8|0,0:0|0:0,0:0:0:0:
216,308,77074,1,0,0:0:0:0:
292,245,77262,2,0,B|284:211|284:211|284:175,1,70,8|0,0:0|0:0,0:0:0:0:
364,120,77637,6,0,P|308:80|232:96,2,140,4|8|0,0:0|0:0|0:0,0:0:0:0:
284,176,78574,1,0,0:0:0:0:
176,148,78762,2,0,L|152:72,1,70,8|0,0:0|0:0,0:0:0:0:
232,16,79137,5,2,0:0:0:0:
304,84,79324,1,0,0:0:0:0:
304,84,79418,1,0,0:0:0:0:
304,84,79512,2,0,P|344:88|380:80,1,70,8|0,0:0|0:0,0:0:0:0:
440,12,79887,2,0,P|425:78|456:139,1,140,0|8,0:0|0:0,0:0:0:0:
412,228,80449,1,0,0:0:0:0:
324,180,80637,6,0,L|335:110,1,70
240,132,81012,2,0,P|188:152|116:116,1,140,8|0,0:0|0:0,0:0:0:0:
188,52,81574,1,0,0:0:0:0:
284,44,81762,2,0,L|357:68,1,70,8|8,0:0|0:0,0:0:0:0:
404,148,82137,6,0,B|456:144|456:144|516:180,2,105,8|8|8,0:0|0:0|0:0,0:0:0:0:
312,184,82887,2,0,P|264:200|204:180,2,105,8|8|8,0:0|0:0|0:0,0:0:0:0:
264,104,83637,5,2,0:0:0:0:
300,236,97137,6,0,L|308:160,1,62.9999980773926,6|0,0:0|0:0,0:0:0:0:
364,104,97512,2,0,P|360:60|340:32,1,62.9999980773926,8|0,0:0|0:0,0:0:0:0:
276,92,97887,2,0,B|232:104|232:104|192:84|144:104,1,125.999996154785,0|8,0:0|0:0,0:0:0:0:
188,180,98449,1,0,0:0:0:0:
264,224,98637,5,2,0:0:0:0:
344,264,98824,1,0,0:0:0:0:
264,224,99012,2,0,P|260:264|252:304,1,62.9999980773926,8|0,0:0|0:0,0:0:0:0:
188,180,99387,2,0,P|190:148|195:117,2,62.9999980773926,0|0|8,0:0|0:0|0:0,0:0:0:0:
152,280,99949,1,8,0:0:0:0:
152,280,100043,1,0,0:0:0:0:
152,280,100137,6,0,L|76:272,1,62.9999980773926,10|0,0:0|0:0,0:0:0:0:
52,192,100512,1,10,0:0:0:0:
116,136,100699,1,10,0:0:0:0:
116,136,101074,1,0,0:0:0:0:
188,180,101262,6,0,P|220:204|308:192,1,125.999996154785,2|0,0:0|0:0,0:0:0:0:
384,168,101824,2,0,L|364:320,1,125.999996154785,4|4,0:3|0:3,0:0:0:0:
288,336,102387,1,8,0:0:0:0:
224,276,102574,1,4,0:3:0:0:
288,336,102762,2,0,L|268:360,3,31.4999990386963,0|0|4|0,0:0|0:0|0:3|0:0,0:0:0:0:
224,368,103137,6,0,L|148:352,1,62.9999980773926,2|0,0:0|0:0,0:0:0:0:
60,280,103512,2,0,L|132:280,1,62.9999980773926,8|0,0:0|0:0,0:0:0:0:
224,276,103887,2,0,P|238:234|236:201,1,62.9999980773926,0|0,0:0|0:0,0:0:0:0:
144,140,104262,2,0,P|146:171|158:200,1,62.9999980773926,8|0,0:0|0:0,0:0:0:0:
248,140,104637,6,0,P|304:140|388:128,1,125.999996154785,2|8,0:0|0:0,0:0:0:0:
308,60,105199,1,0,0:0:0:0:
344,212,105387,2,0,L|368:272,2,62.9999980773926,0|0|8,0:0|0:0|0:0,0:0:0:0:
248,224,105949,1,0,0:0:0:0:
248,224,106043,1,0,0:0:0:0:
248,224,106137,6,0,L|168:216,1,62.9999980773926,2|0,0:0|0:0,0:0:0:0:
100,244,106512,1,8,0:0:0:0:
168,300,106699,2,0,L|240:308,2,62.9999980773926,4|0|0,0:0|0:0|0:0,0:0:0:0:
100,244,107262,2,0,B|91:196|91:196|51:170|56:100,1,125.999996154785,12|8,0:0|0:0,0:0:0:0:
148,120,107824,5,8,0:0:0:0:
212,188,108012,2,0,L|220:264,1,62.9999980773926,8|8,0:0|0:0,0:0:0:0:
312,240,108387,2,0,L|308:200,3,31.4999990386963,10|10|10|10,0:0|0:0|0:0|0:0,0:0:0:0:
324,184,108762,2,0,L|320:140,3,31.4999990386963,10|10|10|10,0:0|0:0|0:0|0:0,0:0:0:0:
312,120,109137,6,0,B|372:136|372:136|452:112,1,125.999996154785,14|8,0:0|0:0,0:0:0:0:
504,52,109699,1,0,0:0:0:0:
433,118,109887,2,0,P|429:154|425:194,1,62.9999980773926,0|0,0:0|0:0,0:0:0:0:
508,288,110262,2,0,L|505:257|502:226,1,62.9999980773926,8|0,0:0|0:0,0:0:0:0:
432,324,110637,6,0,P|408:270|324:252,1,125.999996154785,2|8,0:0|0:0,0:0:0:0:
264,260,111199,1,0,0:0:0:0:
320,376,111387,2,0,L|352:322,2,62.9999980773926,0|0|8,0:0|0:0|0:0,0:0:0:0:
232,372,111949,1,8,0:0:0:0:
232,372,112043,1,0,0:0:0:0:
232,372,112137,6,0,B|184:356|184:356|152:360|152:360|88:336,1,125.999996154785,2|10,0:0|0:0,0:0:0:0:
124,256,112699,1,0,0:0:0:0:
216,204,112887,2,0,L|208:272,1,62.9999980773926,0|0,0:0|0:0,0:0:0:0:
132,176,113262,2,0,L|124:113,1,62.9999980773926,8|0,0:0|0:0,0:0:0:0:
56,60,113637,6,0,P|112:72|188:36,1,125.999996154785,2|8,0:0|0:0,0:0:0:0:
264,44,114199,1,0,0:0:0:0:
224,124,114387,2,0,L|244:200,1,62.9999980773926,0|0,0:0|0:0,0:0:0:0:
320,208,114762,1,8,0:0:0:0:
256,264,114949,1,0,0:0:0:0:
340,292,115137,6,0,P|398:310|455:287,2,125.999996154785,2|8|0,0:0|0:0|0:0,0:0:0:0:
256,264,116074,1,0,0:0:0:0:
396,228,116262,2,0,L|392:152,1,62.9999980773926,8|0,0:0|0:0,0:0:0:0:
420,80,116637,6,0,B|388:88|388:88|340:80,1,62.9999980773926,2|0,0:0|0:0,0:0:0:0:
256,156,117012,2,0,B|288:148|288:148|336:156,1,62.9999980773926,8|0,0:0|0:0,0:0:0:0:
288,236,117387,1,0,0:0:0:0:
204,264,117574,1,0,0:0:0:0:
132,216,117762,2,0,P|132:176|128:136,1,62.9999980773926,8|0,0:0|0:0,0:0:0:0:
60,96,118137,6,0,P|104:116|180:84,1,125.999996154785,2|10,0:0|0:0,0:0:0:0:
240,32,118699,1,2,0:0:0:0:
252,120,118887,2,0,B|248:152|248:152|252:200,2,62.9999980773926,2|2|10,0:0|0:0|0:0,0:0:0:0:
328,72,119449,1,2,0:0:0:0:
412,148,119637,5,6,0:0:0:0:
412,148,121137,6,0,P|364:176|288:140,1,140,4|8,0:0|0:0,0:0:0:0:
228,76,121699,1,0,0:0:0:0:
208,164,121887,2,0,B|216:196|216:196|216:244,1,70,0|0,0:0|0:0,0:0:0:0:
144,288,122262,1,8,0:0:0:0:
80,224,122449,1,0,0:0:0:0:
80,224,122543,1,0,0:0:0:0:
80,224,122637,6,0,P|72:144|72:72,1,140,2|8,0:0|0:0,0:0:0:0:
136,20,123199,1,0,0:0:0:0:
212,94,123387,2,0,L|208:182,1,70,0|0,0:0|0:0,0:0:0:0:
310,100,123762,2,0,L|313:30,1,70,8|0,0:0|0:0,0:0:0:0:
356,168,124137,6,0,P|320:180|276:176,2,70,2|0|8,0:0|0:0|0:0,0:0:0:0:
436,124,124699,1,0,0:0:0:0:
436,124,124793,1,0,0:0:0:0:
436,124,124887,2,0,L|424:280,1,140,0|8,0:0|0:0,0:0:0:0:
420,360,125449,1,0,0:0:0:0:
336,312,125637,6,0,L|342:242,2,70,6|0|8,0:0|0:0|0:0,0:0:0:0:
264,200,126199,1,0,0:0:0:0:
192,280,126387,2,0,B|228:288|228:288|264:284,1,70,0|0,0:0|0:0,0:0:0:0:
180,188,126762,2,0,B|144:180|144:180|108:184,1,70,8|0,0:0|0:0,0:0:0:0:
40,240,127137,6,0,L|52:316,1,70,2|0,0:0|0:0,0:0:0:0:
72,324,127418,1,0,0:0:0:0:
72,324,127512,2,0,P|116:300|204:328,1,140,8|0,0:0|0:0,0:0:0:0:
276,368,128074,1,0,0:0:0:0:
320,288,128262,2,0,L|328:208,1,70,8|0,0:0|0:0,0:0:0:0:
264,152,128637,5,2,0:0:0:0:
224,228,128824,1,0,0:0:0:0:
327,219,129012,2,0,B|363:227|363:227|403:223,1,70,8|0,0:0|0:0,0:0:0:0:
264,152,129387,2,0,L|176:124,2,70,0|0|8,0:0|0:0|0:0,0:0:0:0:
316,88,129949,1,0,0:0:0:0:
316,88,130043,1,0,0:0:0:0:
316,88,130137,6,0,P|364:64|460:104,1,140,2|8,0:0|0:0,0:0:0:0:
500,156,130699,1,0,0:0:0:0:
384,232,130887,2,0,L|381:163,1,70,0|0,0:0|0:0,0:0:0:0:
291,238,131262,2,0,L|288:308,1,70,8|0,0:0|0:0,0:0:0:0:
392,340,131637,6,0,P|440:332|476:264,2,105,8|8|8,0:0|0:0|0:0,0:0:0:0:
288,308,132387,1,0,0:0:0:0:
384,232,132574,1,0,0:0:0:0:
320,164,132762,2,0,L|313:94,1,70,8|8,0:0|0:0,0:0:0:0:
388,40,133137,6,0,P|328:52|256:4,2,140,6|8|0,0:0|0:0|0:0,0:0:0:0:
468,84,134074,1,0,0:0:0:0:
400,144,134262,2,0,L|408:220,1,70,8|0,0:0|0:0,0:0:0:0:
464,284,134637,5,2,0:0:0:0:
508,204,134824,1,0,0:0:0:0:
408,214,135012,2,0,B|360:202|360:202|312:234|264:202,1,140,8|0,0:0|0:0,0:0:0:0:
240,128,135574,2,0,P|274:121|308:129,1,70,0|8,0:0|0:0,0:0:0:0:
188,208,135949,1,0,0:0:0:0:
188,208,136043,1,0,0:0:0:0:
188,208,136137,6,0,L|180:280,2,70,2|0|8,0:0|0:0|0:0,0:0:0:0:
240,128,136699,1,0,0:0:0:0:
284,208,136887,2,0,P|341:245|409:235,1,140,0|8,0:0|0:0,0:0:0:0:
360,160,137449,1,0,0:0:0:0:
252,280,137637,6,0,L|260:364,1,70,6|0,0:0|0:0,0:0:0:0:
168,336,138012,2,0,L|161:266,1,70,8|0,0:0|0:0,0:0:0:0:
76,228,138387,2,0,L|64:196,3,35,2|2|2|2,0:0|0:0|0:0|0:0,0:0:0:0:
92,172,138762,2,0,L|92:132,3,35,10|2|2|2,0:0|0:0|0:0|0:0,0:0:0:0:
76,108,139137,6,0,P|124:116|200:60,1,140,2|8,0:0|0:0,0:0:0:0:
240,148,139699,1,0,0:0:0:0:
240,148,139887,2,0,B|232:188|232:188|236:236,1,70,0|0,0:0|0:0,0:0:0:0:
320,276,140262,2,0,B|328:236|328:236|324:188,1,70,8|0,0:0|0:0,0:0:0:0:
316,116,140637,6,0,P|336:160|420:188,2,140,2|8|0,0:0|0:0|0:0,0:0:0:0:
404,100,141574,1,0,0:0:0:0:
348,28,141762,2,0,B|312:20|312:20|272:28,1,70,8|0,0:0|0:0,0:0:0:0:
196,60,142137,6,0,P|144:72|88:56,2,105,10|8|8,0:0|0:0|0:0,0:0:0:0:
288,104,142887,2,0,B|276:144|276:144|288:224,2,105,8|8|8,0:0|0:0|0:0,0:0:0:0:
348,28,143637,5,2,0:0:0:0:
256,192,145137,12,0,146262,0:0:0:0:
352,144,146637,6,0,L|348:220,2,70,2|0|8,0:0|0:0|0:0,0:0:0:0:
436,196,147199,1,0,0:0:0:0:
380,284,147387,2,0,B|348:292|348:292|304:280,1,70,2|0,0:0|0:0,0:0:0:0:
252,216,147762,1,8,0:0:0:0:
172,256,147949,1,0,0:0:0:0:
172,256,148043,1,0,0:0:0:0:
172,256,148137,6,0,B|136:248|136:248|92:252,1,70,2|0,0:0|0:0,0:0:0:0:
24,300,148512,1,8,0:0:0:0:
100,348,148699,1,0,0:0:0:0:
103,251,148887,2,0,L|92:146,2,105,2|0|0,0:0|0:0|0:0,0:0:0:0:
179,148,149637,6,0,P|155:84|91:57,1,140,2|8,0:0|0:0,0:0:0:0:
256,72,150387,2,0,L|296:76,3,35,2|2|2|2,0:0|0:0|0:0|0:0,0:0:0:0:
316,92,150762,2,0,L|368:80,3,35,10|2|2|2,0:0|0:0|0:0|0:0,0:0:0:0:
376,88,151137,6,0,B|384:128|384:128|376:168,1,70,0|0,0:0|0:0,0:0:0:0:
292,240,151512,2,0,B|284:200|284:200|292:160,2,70,8|0|2,0:0|0:0|0:0,0:0:0:0:
368,288,152074,1,0,0:0:0:0:
284,320,152262,2,0,L|212:328,1,70,8|0,0:0|0:0,0:0:0:0:
368,288,152637,6,0,P|416:272|480:292,2,105,2|0|0,0:0|0:0|0:0,0:0:0:0:
284,320,153387,2,0,L|272:232,1,70,2|0,0:0|0:0,0:0:0:0:
360,136,153762,2,0,L|348:224,1,70,8|0,0:0|0:0,0:0:0:0:
256,164,154137,6,0,P|252:112|284:60,2,105,2|8|0,0:0|0:0|0:0,0:0:0:0:
196,232,154887,2,0,L|124:224,1,70,2|8,0:0|0:0,0:0:0:0:
280,280,155262,2,0,L|349:272,1,70,8|8,0:0|0:0,0:0:0:0:
256,164,155637,5,10,0:0:0:0:
256,192,167637,12,0,168762,0:0:0:0:
164,336,169137,6,0,L|148:180,1,140,6|8,0:0|0:0,0:0:0:0:
80,136,169699,1,0,0:0:0:0:
80,228,169887,2,0,L|88:312,1,70,0|0,0:0|0:0,0:0:0:0:
232,284,170262,2,0,L|225:214,1,70,8|0,0:0|0:0,0:0:0:0:
192,128,170637,6,0,P|228:164|324:144,1,140,2|8,0:0|0:0,0:0:0:0:
384,104,171199,1,0,0:0:0:0:
384,196,171387,2,0,B|380:224|380:224|384:276,2,70,0|0|8,0:0|0:0|0:0,0:0:0:0:
460,148,171949,1,0,0:0:0:0:
460,148,172043,1,0,0:0:0:0:
460,148,172137,6,0,L|464:64,1,70,2|0,0:0|0:0,0:0:0:0:
384,196,172512,2,0,P|348:204|292:188,1,70,8|0,0:0|0:0,0:0:0:0:
196,128,172887,2,0,P|232:120|288:136,1,70,0|0,0:0|0:0,0:0:0:0:
228,208,173262,2,0,L|216:288,1,70,8|0,0:0|0:0,0:0:0:0:
132,188,173637,6,0,P|108:140|152:56,1,140,6|8,0:0|0:0,0:0:0:0:
196,128,174199,1,0,0:0:0:0:
228,208,174387,2,0,L|264:216,3,35,2|2|2|2,0:0|0:0|0:0|0:0,0:0:0:0:
280,188,174762,2,0,L|320:184,3,35,10|2|2|2,0:0|0:0|0:0|0:0,0:0:0:0:
344,200,175137,6,0,P|380:160|352:56,1,140,2|8,0:0|0:0,0:0:0:0:
228,208,175887,2,0,L|252:292,2,70,0|0|8,0:0|0:0|0:0,0:0:0:0:
160,156,176449,1,0,0:0:0:0:
160,156,176637,6,0,P|220:156|260:124,2,105,2|0|0,0:0|0:0|0:0,0:0:0:0:
92,96,177387,2,0,L|8:84,2,70,0|0|8,0:0|0:0|0:0,0:0:0:0:
192,76,177949,1,8,0:0:0:0:
192,76,178043,1,8,0:0:0:0:
192,76,178137,6,0,B|244:56|244:56|276:8,2,105,8|8|8,0:0|0:0|0:0,0:0:0:0:
160,156,178887,2,0,P|148:204|168:260,2,105,8|8|8,0:0|0:0|0:0,0:0:0:0:
232,204,179637,5,2,0:0:0:0:
232,204,181137,6,0,P|236:160|232:120,1,70,6|0,0:0|0:0,0:0:0:0:
136,224,181512,2,0,P|132:268|136:308,1,70,8|0,0:0|0:0,0:0:0:0:
224,308,181887,2,0,B|296:324|296:272|372:304,1,140,0|8,0:0|0:0,0:0:0:0:
444,328,182449,1,0,0:0:0:0:
444,328,182637,6,0,L|456:248,2,70,2|0|8,0:0|0:0|0:0,0:0:0:0:
360,300,183199,1,0,0:0:0:0:
276,340,183387,2,0,P|232:344|192:332,1,70,0|0,0:0|0:0,0:0:0:0:
128,252,183762,2,0,P|172:248|212:260,1,70,8|0,0:0|0:0,0:0:0:0:
108,340,184137,6,0,P|64:316|48:212,1,140,2|8,0:0|0:0,0:0:0:0:
84,156,184699,1,0,0:0:0:0:
128,252,184887,2,0,L|171:197,2,70,0|0|8,0:0|0:0|0:0,0:0:0:0:
108,340,185449,1,0,0:0:0:0:
232,263,185637,6,0,P|260:201|238:137,1,140,6|8,0:0|0:0,0:0:0:0:
172,196,186199,1,0,0:0:0:0:
238,136,186387,2,0,B|271:143|271:143|326:128,1,70,0|0,0:0|0:0,0:0:0:0:
414,206,186762,2,0,B|380:200|380:200|326:214,1,70,8|0,0:0|0:0,0:0:0:0:
388,288,187137,6,0,L|412:360,1,70,2|0,0:0|0:0,0:0:0:0:
480,264,187512,2,0,P|504:220|464:136,1,140,8|0,0:0|0:0,0:0:0:0:
392,100,188074,1,0,0:0:0:0:
344,201,188262,2,0,L|414:207,1,70,8|0,0:0|0:0,0:0:0:0:
311,272,188637,6,0,P|264:288|212:268,2,105,2|0|0,0:0|0:0|0:0,0:0:0:0:
263,205,189387,2,0,L|256:136,1,70,0|0,0:0|0:0,0:0:0:0:
168,176,189762,1,8,0:0:0:0:
188,76,189949,1,8,0:0:0:0:
188,76,190043,1,8,0:0:0:0:
188,76,190137,6,0,P|256:88|316:40,1,140,10|8,0:0|0:0,0:0:0:0:
404,52,190699,1,0,0:0:0:0:
364,132,190887,2,0,L|368:216,1,70,0|0,0:0|0:0,0:0:0:0:
444,292,191262,2,0,L|447:222,1,70,8|0,0:0|0:0,0:0:0:0:
448,132,191637,6,0,P|460:176|512:208,2,105,10|8|8,0:0|0:0|0:0,0:0:0:0:
404,52,192387,2,0,L|324:56,1,70,0|0,0:0|0:0,0:0:0:0:
264,112,192762,1,8,0:0:0:0:
160,72,192949,1,8,0:0:0:0:
160,72,193043,1,8,0:0:0:0:
160,72,193137,6,0,P|184:120|144:200,2,140,14|8|0,0:0|0:0|0:0,0:0:0:0:
80,32,194074,1,0,0:0:0:0:
40,112,194262,2,0,L|120:132,1,70,8|0,0:0|0:0,0:0:0:0:
76,216,194637,6,0,P|116:268|208:248,1,140,2|8,0:0|0:0,0:0:0:0:
152,196,195199,1,0,0:0:0:0:
186,267,195387,2,0,L|193:340,2,70,0|0|8,0:0|0:0|0:0,0:0:0:0:
260,220,195949,1,0,0:0:0:0:
260,220,196043,1,0,0:0:0:0:
260,220,196137,6,0,P|312:228|356:220,1,70,2|0,0:0|0:0,0:0:0:0:
432,160,196512,2,0,P|380:152|336:160,1,70,8|0,0:0|0:0,0:0:0:0:
408,232,196887,2,0,L|412:308,1,70,2|0,0:0|0:0,0:0:0:0:
324,376,197262,2,0,L|327:306,1,70,8|0,0:0|0:0,0:0:0:0:
260,220,197637,6,0,P|208:236|132:196,2,140,6|8|0,0:0|0:0|0:0,0:0:0:0:
208,144,198574,1,0,0:0:0:0:
296,128,198762,2,0,B|332:124|332:124|368:128,1,70,8|2,0:0|0:0,0:0:0:0:
436,184,199137,6,0,L|448:256,1,70,2|0,0:0|0:0,0:0:0:0:
456,352,199512,2,0,P|416:332|328:368,1,140,8|0,0:0|0:0,0:0:0:0:
232,364,200074,1,0,0:0:0:0:
228,264,200262,2,0,P|228:216|224:188,1,70,8|0,0:0|0:0,0:0:0:0:
112,120,200637,6,0,P|112:168|116:196,1,70,2|0,0:0|0:0,0:0:0:0:
148,276,201012,1,8,0:0:0:0:
60,252,201199,1,0,0:0:0:0:
148,276,201387,2,0,L|144:352,2,70,0|0|8,0:0|0:0|0:0,0:0:0:0:
228,232,201949,1,0,0:0:0:0:
228,232,202043,1,0,0:0:0:0:
228,232,202137,6,0,P|276:216|340:240,2,105,8|8|8,0:0|0:0|0:0,0:0:0:0:
148,276,202887,2,0,L|128:168,2,105,8|8|8,0:0|0:0|0:0,0:0:0:0:
280,304,203637,5,2,0:0:0:0:
256,192,205137,12,2,206637,0:0:0:0:
