osu file format v14

[General]
AudioFilename: senyatoyoump3.mp3
AudioLeadIn: 1000
PreviewTime: 120480
Countdown: 0
SampleSet: Soft
StackLeniency: 0.7
Mode: 0
LetterboxInBreaks: 0
WidescreenStoryboard: 0

[Editor]
Bookmarks: 73601
DistanceSpacing: 1.2
BeatDivisor: 4
GridSize: 4
TimelineZoom: 1

[Metadata]
Title:Kimi to Dareka no Yasashisa ni
TitleUnicode:君と誰かの優しさに
Artist:senya
ArtistUnicode:senya
Creator:kakifly
Version:Affection
Source:艦隊これくしょん
Tags:setz kantai collection kancolle Yuuhei Catharsis 終焉の輝き kamase-tora かませ虎 Hizumi C87 Married ship girls image song yuri Kitakami Ooi
BeatmapID:596161
BeatmapSetID:250337

[Difficulty]
HPDrainRate:6
CircleSize:4
OverallDifficulty:7
ApproachRate:8.5
SliderMultiplier:1.6
SliderTickRate:2

[Events]
//Background and Video events
0,0,"bgsenya.png",0,0
//Break Periods
2,85137,96462
2,157137,166962
//Storyboard Layer 0 (Background)
//Storyboard Layer 1 (Fail)
//Storyboard Layer 2 (Pass)
//Storyboard Layer 3 (Foreground)
//Storyboard Sound Samples

[TimingPoints]
1137,375,4,2,1,30,1,0
1137,-133.333333333333,4,2,1,30,0,0
11637,-133.333333333333,4,2,1,55,0,0
13137,-100,4,2,1,50,0,0
18762,-100,4,2,1,35,0,0
19137,-100,4,2,1,50,0,0
25137,-111.111111111111,4,2,1,40,0,0
29637,-111.111111111111,4,2,1,30,0,0
30012,-111.111111111111,4,2,1,40,0,0
59637,-111.111111111111,4,2,1,75,0,0
61137,-100,4,2,1,90,0,1
61230,-100,4,2,1,80,0,1
72762,-100,4,2,1,80,0,0
73137,-100,4,2,1,90,0,1
73230,-100,4,2,1,80,0,1
83637,-100,4,2,1,90,0,0
83730,-100,4,2,1,50,0,0
97137,-111.111111111111,4,2,1,50,0,0
108762,-111.111111111111,4,2,1,40,0,0
109137,-111.111111111111,4,2,1,50,0,0
119637,-111.111111111111,4,2,1,75,0,0
121137,-100,4,2,1,90,0,1
121230,-100,4,2,1,80,0,1
123762,-100,4,2,1,60,0,1
124137,-100,4,2,1,80,0,1
132762,-100,4,2,1,80,0,0
133137,-100,4,2,1,90,0,1
133230,-100,4,2,1,80,0,1
138762,-100,4,2,1,60,0,1
139137,-100,4,2,1,80,0,1
143637,-100,4,2,1,90,0,0
143730,-100,4,2,1,70,0,0
150480,-100,4,2,1,55,0,0
150762,-100,4,2,1,70,0,0
150855,-100,4,2,1,55,0,0
151137,-100,4,2,1,70,0,0
155637,-100,4,2,1,80,0,0
169137,-100,4,2,1,80,0,1
174762,-100,4,2,1,60,0,1
175137,-100,4,2,1,80,0,1
179637,-100,4,2,1,80,0,0
181137,-100,4,2,1,95,0,1
181230,-100,4,2,1,80,0,1
186387,-100,4,2,1,60,0,1
186480,-100,4,2,1,80,0,1
186762,-100,4,2,1,60,0,1
187137,-100,4,2,1,80,0,1
192762,-100,4,2,1,60,0,0
193137,-100,4,2,1,90,0,1
193230,-100,4,2,1,80,0,1
198762,-100,4,2,1,60,0,1
199137,-100,4,2,1,80,0,1
203637,-100,4,2,1,90,0,0
205137,-100,4,2,1,30,0,0
205887,-100,4,2,1,20,0,0
206449,-100,4,2,1,15,0,0

[Colours]
Combo1 : 255,230,142
Combo2 : 251,162,162
Combo3 : 250,165,192
Combo4 : 180,123,210

[HitObjects]
104,128,1137,6,0,P|148:144|228:116,1,120.000004577637,2|0,0:0|0:0,0:0:0:0:
268,68,1699,1,2,0:0:0:0:
268,68,1887,2,0,L|260:208,1,120.000004577637,2|0,0:0|0:0,0:0:0:0:
304,252,2449,1,2,0:0:0:0:
384,248,2637,6,0,P|368:208|340:180,1,60.0000022888184,2|0,0:0|0:0,0:0:0:0:
224,260,3012,2,0,P|240:300|268:328,1,60.0000022888184
352,376,3387,2,0,L|344:312,1,60.0000022888184,2|0,0:0|0:0,0:0:0:0:
156,196,3762,2,0,L|143:264,1,60.0000022888184
304,252,4137,5,2,0:0:0:0:
332,172,4324,1,0,0:0:0:0:
156,196,4512,1,0,0:0:0:0:
239,319,4699,1,0,0:0:0:0:
239,319,4793,1,0,0:0:0:0:
239,319,4887,2,0,L|223:255,2,60.0000022888184,2|0|0,0:0|0:0|0:0,0:0:0:0:
351,330,5449,1,0,0:0:0:0:
428,268,5637,5,2,0:0:0:0:
304,252,5824,1,0,0:0:0:0:
428,344,6012,1,0,0:0:0:0:
356,196,6199,1,0,0:0:0:0:
240,320,6387,2,0,P|296:344|360:324,1,120.000004577637,2|0,0:0|0:0,0:0:0:0:
289,133,7137,6,0,L|305:261,1,120.000004577637,2|0,0:0|0:0,0:0:0:0:
372,214,7699,1,0,0:0:0:0:
216,168,7887,2,0,L|228:252,1,60.0000022888184,2|0,0:0|0:0,0:0:0:0:
372,214,8262,2,0,L|363:154,1,60.0000022888184,2|2,0:0|0:0,0:0:0:0:
312,48,8637,6,0,P|368:56|416:36,2,90.0000034332277,2|2|2,0:3|0:3|0:3,0:0:0:0:
232,64,9387,2,0,L|248:140,2,60.0000022888184,2|0|0,0:0|0:0|0:0,0:0:0:0:
232,64,10137,5,2,0:0:0:0:
152,104,10324,1,0,0:0:0:0:
64,92,10512,1,0,0:0:0:0:
0,32,10699,1,2,0:0:0:0:
64,92,10887,2,0,P|72:148|56:224,1,120.000004577637,2|0,0:0|0:0,0:0:0:0:
16,288,11449,1,0,0:0:0:0:
204,232,11637,5,2,0:0:0:0:
216,244,13137,6,0,L|224:332,1,80,6|0,0:0|0:0,0:0:0:0:
292,376,13512,1,8,0:0:0:0:
336,292,13699,1,0,0:0:0:0:
136,216,13887,2,0,L|144:304,2,80,0|0|8,0:0|0:0|0:0,0:0:0:0:
64,152,14449,1,0,0:0:0:0:
64,152,14543,1,0,0:0:0:0:
64,152,14637,6,0,P|124:172|192:100,1,160,2|8,0:0|0:0,0:0:0:0:
208,28,15199,1,0,0:0:0:0:
98,17,15387,2,0,L|116:96,1,80
244,184,15762,1,2,3:3:0:0:
268,180,15855,1,2,3:3:0:0:
292,176,15949,1,2,3:3:0:0:
316,172,16043,1,2,3:3:0:0:
340,168,16137,6,0,P|320:236|384:316,1,160,2|8,0:0|0:0,0:0:0:0:
464,248,16699,1,0,0:0:0:0:
472,236,16793,1,0,0:0:0:0:
479,224,16887,2,0,L|400:232,1,80,0|0,0:0|0:0,0:0:0:0:
260,80,17262,2,0,L|368:92,1,80,8|0,0:0|0:0,0:0:0:0:
424,132,17637,5,2,0:0:0:0:
456,52,17824,1,2,0:0:0:0:
340,168,18012,1,8,0:0:0:0:
479,224,18199,1,2,0:0:0:0:
248,72,18387,1,2,0:0:0:0:
256,92,18480,1,2,0:0:0:0:
260,112,18574,1,2,0:0:0:0:
260,132,18668,1,2,0:0:0:0:
244,160,18762,5,10,0:0:0:0:
240,180,18855,1,2,0:0:0:0:
244,200,18949,1,2,0:0:0:0:
256,220,19043,1,2,0:0:0:0:
264,236,19137,6,0,P|212:220|176:236,1,80,2|0,0:0|0:0,0:0:0:0:
304,312,19512,1,8,0:0:0:0:
340,168,19699,1,0,0:0:0:0:
220,296,19887,2,0,L|216:375,1,80,0|0,0:0|0:0,0:0:0:0:
104,244,20262,2,0,L|108:164,1,80,8|0,0:0|0:0,0:0:0:0:
260,157,20637,6,0,P|269:196|264:236,1,80,2|0,0:0|0:0,0:0:0:0:
256,264,20918,1,0,0:0:0:0:
256,264,21012,2,0,P|328:224|404:264,1,160,8|0,0:0|0:0,0:0:0:0:
332,316,21574,1,0,0:0:0:0:
188,216,21762,2,0,L|177:136,1,80,8|8,0:0|0:0,0:0:0:0:
160,116,22043,1,8,0:0:0:0:
160,116,22137,6,0,P|218:120|261:81,2,120,8|8|8,0:0|0:0|0:0,0:0:0:0:
60,192,22887,2,0,B|52:236|52:236|68:312,2,120,8|8|8,0:0|0:0|0:0,0:0:0:0:
188,216,23637,5,2,0:0:0:0:
188,216,24012,2,0,P|236:224|280:212,1,80
228,128,24387,1,2,0:0:0:0:
320,272,24574,1,0,0:0:0:0:
332,164,24762,1,0,0:0:0:0:
188,216,24949,1,0,0:0:0:0:
52,128,25137,6,0,P|48:88|56:32,1,71.9999978027344,6|0,0:0|0:0,0:0:0:0:
160,16,25512,2,0,P|164:64|156:104,1,71.9999978027344,8|0,0:0|0:0,0:0:0:0:
124,180,25887,2,0,P|152:142|254:148,1,143.999995605469,2|8,0:0|0:0,0:0:0:0:
230,271,26449,1,0,0:0:0:0:
230,271,26637,6,0,L|198:206,1,71.9999978027344,2|0,0:0|0:0,0:0:0:0:
312,100,27012,2,0,L|343:164,1,71.9999978027344,8|0,0:0|0:0,0:0:0:0:
330,247,27387,1,2,0:0:0:0:
262,183,27574,1,0,0:0:0:0:
420,184,27762,1,8,0:0:0:0:
401,285,27949,1,8,0:0:0:0:
401,285,28043,1,8,0:0:0:0:
401,285,28137,6,0,L|393:365,1,71.9999978027344,10|0,0:0|0:0,0:0:0:0:
314,323,28512,1,10,0:0:0:0:
420,184,28699,1,10,0:0:0:0:
420,184,29074,1,10,0:0:0:0:
490,327,29262,1,10,0:0:0:0:
490,327,29637,5,2,0:0:0:0:
476,308,29730,1,2,0:0:0:0:
472,284,29824,1,4,0:3:0:0:
476,260,29918,1,2,0:0:0:0:
488,240,30012,1,10,0:0:0:0:
344,152,30199,6,0,L|340:236,1,71.9999978027344,4|4,0:3|0:3,0:0:0:0:
436,140,30574,1,4,0:3:0:0:
256,192,30762,1,2,3:3:0:0:
256,192,30855,1,2,3:3:0:0:
256,192,30949,1,4,3:3:0:0:
256,192,31043,1,2,3:3:0:0:
256,192,31137,6,0,B|248:236|248:236|256:280|256:280|244:344,2,143.999995605469,10|8|0,0:0|0:0|0:0,0:0:0:0:
344,152,32074,1,0,0:0:0:0:
168,180,32262,2,0,P|128:184|76:164,1,71.9999978027344,8|0,0:0|0:0,0:0:0:0:
140,88,32637,6,0,L|148:7,1,71.9999978027344,2|0,0:0|0:0,0:0:0:0:
266,121,33012,2,0,L|256:195,1,71.9999978027344,8|0,0:0|0:0,0:0:0:0:
212,284,33387,1,0,0:0:0:0:
168,180,33574,1,0,0:0:0:0:
332,220,33762,1,8,0:0:0:0:
88,236,33949,1,8,0:0:0:0:
88,236,34043,1,8,0:0:0:0:
88,236,34137,6,0,L|80:164,1,71.9999978027344,10|0,0:0|0:0,0:0:0:0:
164,72,34512,1,10,0:0:0:0:
252,208,34699,1,10,0:0:0:0:
252,208,35074,1,10,0:0:0:0:
80,164,35262,1,10,0:0:0:0:
80,164,35637,6,0,L|36:172,3,35.9999989013672,2|2|4|2,0:0|0:0|0:3|0:0,0:0:0:0:
144,248,36012,2,0,L|188:236,3,35.9999989013672,10|2|4|2,0:0|0:0|0:3|0:0,0:0:0:0:
64,304,36387,2,0,B|68:340|68:340|88:380,1,71.9999978027344,4|4,0:3|0:3,0:0:0:0:
240,308,36762,1,4,3:3:0:0:
260,296,36855,1,0,3:3:0:0:
280,284,36949,1,4,3:3:0:0:
300,272,37043,1,0,3:3:0:0:
316,260,37137,6,0,L|328:180,2,71.9999978027344,2|0|8,0:0|0:0|0:0,0:0:0:0:
416,216,37699,1,2,0:0:0:0:
416,216,37793,1,2,0:0:0:0:
416,216,37887,2,0,P|412:156|336:96,1,143.999995605469,2|8,0:0|0:0,0:0:0:0:
168,108,38449,1,0,0:0:0:0:
232,168,38637,6,0,B|268:176|268:176|308:168,1,71.9999978027344,2|0,0:0|0:0,0:0:0:0:
168,108,39012,1,8,0:0:0:0:
112,268,39199,1,0,0:0:0:0:
188,236,39387,2,0,P|160:204|64:204,1,143.999995605469,0|8,0:0|0:0,0:0:0:0:
81,333,39949,1,8,0:0:0:0:
81,333,40043,1,0,0:0:0:0:
81,333,40137,6,0,L|112:268,1,71.9999978027344,10|0,0:0|0:0,0:0:0:0:
64,204,40512,1,10,0:0:0:0:
192,316,40699,1,10,0:0:0:0:
192,316,41074,1,10,0:0:0:0:
312,224,41262,6,0,P|320:176|256:104,1,143.999995605469,0|8,0:0|0:0,0:0:0:0:
236,188,41824,2,0,L|160:196,1,71.9999978027344,4|0,0:3|0:0,0:0:0:0:
376,112,42199,2,0,L|452:104,1,71.9999978027344,4|4,0:3|0:3,0:0:0:0:
424,232,42574,1,4,0:3:0:0:
288,320,42762,1,10,0:0:0:0:
264,332,42855,1,10,0:0:0:0:
240,332,42949,1,4,0:3:0:0:
216,328,43043,1,10,0:0:0:0:
192,316,43137,6,0,L|116:320,1,71.9999978027344,2|0,0:0|0:0,0:0:0:0:
248,212,43512,2,0,P|292:200|328:208,2,71.9999978027344,8|0|0,0:0|0:0|0:0,0:0:0:0:
288,320,44074,1,0,0:0:0:0:
424,232,44262,1,8,0:0:0:0:
288,120,44449,1,0,0:0:0:0:
168,240,44637,6,0,L|83:237,2,71.9999978027344,2|0|8,0:0|0:0|0:0,0:0:0:0:
272,340,45199,1,0,0:0:0:0:
272,340,45293,1,0,0:0:0:0:
272,340,45387,2,0,P|328:316|412:340,1,143.999995605469,0|8,0:0|0:0,0:0:0:0:
484,300,45949,1,0,0:0:0:0:
404,236,46137,6,0,L|411:164,1,71.9999978027344,2|0,0:0|0:0,0:0:0:0:
500,120,46512,1,8,0:0:0:0:
330,175,46699,2,0,P|294:180|260:172,1,71.9999978027344,4|0,0:0|0:0,0:0:0:0:
304,88,47074,1,0,0:0:0:0:
500,120,47262,2,0,L|488:268,1,143.999995605469,6|4,0:0|0:3,0:0:0:0:
330,176,47824,5,4,0:3:0:0:
420,104,48012,2,0,P|425:68|417:33,1,71.9999978027344,8|4,0:3|0:3,0:0:0:0:
304,88,48387,2,0,L|260:96,3,35.9999989013672,2|2|2|2,0:0|0:0|0:0|0:0,0:0:0:0:
330,176,48762,2,0,L|366:180,3,35.9999989013672,10|2|2|2,0:0|0:0|0:0|0:0,0:0:0:0:
280,252,49137,6,0,B|228:268|228:268|192:256|192:256|116:272,1,143.999995605469,6|8,0:0|0:0,0:0:0:0:
180,352,49699,1,0,0:0:0:0:
168,188,49887,2,0,L|96:204,1,71.9999978027344
12,332,50262,2,0,L|92:316,1,71.9999978027344,8|0,0:0|0:0,0:0:0:0:
260,340,50637,6,0,P|236:292|152:276,1,143.999995605469,2|8,0:0|0:0,0:0:0:0:
180,352,51199,1,0,0:0:0:0:
336,300,51387,2,0,L|336:216,1,71.9999978027344
280,152,51762,1,8,0:0:0:0:
412,232,51949,1,8,0:0:0:0:
424,240,52043,1,8,0:0:0:0:
440,244,52137,6,0,P|484:244|528:204,2,71.9999978027344,2|0|8,0:0|0:0|0:0,0:0:0:0:
352,180,52699,1,0,0:0:0:0:
448,100,52887,2,0,L|464:176,1,71.9999978027344
336,88,53262,2,0,L|320:12,1,71.9999978027344,8|0,0:0|0:0,0:0:0:0:
248,100,53637,6,0,P|196:128|116:84,1,143.999995605469,2|8,0:0|0:0,0:0:0:0:
64,32,54199,1,0,0:0:0:0:
64,32,54387,2,0,B|92:128|92:128|84:192,1,143.999995605469,0|8,0:0|0:0,0:0:0:0:
32,248,54949,1,0,0:0:0:0:
172,208,55137,6,0,P|216:200|268:208,1,71.9999978027344,2|0,0:0|0:0,0:0:0:0:
356,80,55512,2,8,P|352:124|344:160,1,71.9999978027344,8|0,0:0|0:0,0:0:0:0:
312,296,55887,2,0,P|352:264|456:280,1,143.999995605469,0|8,0:0|0:0,0:0:0:0:
392,356,56449,1,0,0:0:0:0:
232,360,56637,6,0,L|221:288,1,71.9999978027344,2|0,0:0|0:0,0:0:0:0:
380,168,57012,2,0,L|373:239,1,71.9999978027344,8|0,0:0|0:0,0:0:0:0:
272,168,57387,1,0,0:0:0:0:
440,116,57574,1,0,0:0:0:0:
272,168,57762,1,8,0:0:0:0:
124,132,57949,1,10,0:0:0:0:
124,132,58043,1,10,0:0:0:0:
124,132,58137,6,0,L|80:116,3,35.9999989013672,10|2|0|2,0:0|0:0|0:0|0:0,0:0:0:0:
168,212,58512,2,0,L|216:196,3,35.9999989013672,10|2|2|2,0:0|0:0|0:0|0:0,0:0:0:0:
152,304,58887,1,2,0:0:0:0:
172,312,58980,1,2,0:0:0:0:
192,316,59074,1,2,0:0:0:0:
212,312,59168,1,2,0:0:0:0:
232,304,59262,5,2,0:0:0:0:
256,292,59355,1,2,0:0:0:0:
280,284,59449,1,2,0:0:0:0:
308,284,59543,1,2,0:0:0:0:
336,292,59637,1,6,0:0:0:0:
336,292,61137,6,0,L|340:200,1,80,6|0,0:0|0:0,0:0:0:0:
208,164,61512,2,0,L|216:252,1,80,8|0,0:0|0:0,0:0:0:0:
416,272,61887,2,0,L|420:104,1,160,0|8,0:0|0:0,0:0:0:0:
296,20,62449,1,0,0:0:0:0:
264,124,62637,6,0,B|304:132|304:132|352:120,1,80,2|0,0:0|0:0,0:0:0:0:
160,80,63012,2,0,B|150:119|150:119|158:159,1,80,8|0,0:0|0:0,0:0:0:0:
260,308,63387,2,0,L|270:218,1,80
168,252,63762,1,8,0:0:0:0:
352,264,63949,1,0,0:0:0:0:
352,264,64043,1,0,0:0:0:0:
352,264,64137,6,0,P|348:216|360:176,2,80,2|0|8,0:0|0:0|0:0,0:0:0:0:
412,340,64699,1,0,0:0:0:0:
428,228,64887,2,0,L|508:240,1,80
287,158,65262,1,8,0:0:0:0:
389,56,65449,1,0,0:0:0:0:
401,64,65543,1,0,0:0:0:0:
414,78,65637,6,0,P|442:138|418:246,1,160,6|8,0:0|0:0,0:0:0:0:
320,300,66199,1,0,0:0:0:0:
260,200,66387,2,0,L|272:112,1,80
304,36,66762,1,10,0:0:0:0:
276,44,66855,1,2,0:0:0:0:
248,44,66949,1,2,0:0:0:0:
220,36,67043,1,2,0:0:0:0:
196,24,67137,6,0,L|112:20,2,80,2|0|8,0:0|0:3|0:0,0:0:0:0:
278,128,67699,1,0,0:0:0:0:
278,128,67793,1,0,0:0:0:0:
278,128,67887,2,0,P|230:180|266:272,1,160,0|8,0:0|0:0,0:0:0:0:
374,232,68449,1,0,0:0:0:0:
386,220,68543,1,0,0:0:0:0:
396,212,68637,6,0,L|317:199,1,80,2|0,0:0|0:0,0:0:0:0:
164,248,69012,2,0,P|168:292|156:328,1,80,8|0,0:0|0:0,0:0:0:0:
76,276,69387,1,0,0:0:0:0:
248,236,69574,1,0,0:0:0:0:
394,192,69762,2,0,L|374:276,1,80,8|8,0:0|0:0,0:0:0:0:
380,286,70043,1,8,0:0:0:0:
380,286,70137,6,0,P|428:292|484:298,1,80,2|0,0:0|0:0,0:0:0:0:
394,192,70512,2,0,L|354:187|314:182,1,80,8|0,0:0|0:0,0:0:0:0:
228,112,70887,2,0,B|172:116|172:116|132:144|132:144|56:144,1,160,0|8,0:0|0:0,0:0:0:0:
16,239,71449,1,0,0:0:0:0:
16,239,71543,1,0,0:0:0:0:
16,240,71637,6,0,P|76:256|136:232,2,120,8|8|8,0:0|0:0|0:0,0:0:0:0:
76,144,72387,1,0,0:0:0:0:
200,280,72574,1,0,0:0:0:0:
76,344,72762,1,8,0:0:0:0:
188,184,72949,1,8,0:0:0:0:
188,184,73043,1,8,0:0:0:0:
188,184,73137,6,0,P|190:144|196:71,1,80,6|0,0:0|0:0,0:0:0:0:
135,30,73512,2,0,P|195:62|279:26,1,160,8|0,0:0|0:0,0:0:0:0:
368,80,74074,1,0,0:0:0:0:
304,164,74262,2,0,B|296:208|296:208|308:260,1,80,8|0,0:0|0:0,0:0:0:0:
364,328,74637,5,2,0:0:0:0:
416,232,74824,1,0,0:0:0:0:
364,328,75012,2,0,P|412:344|464:328,1,80,8|0,0:0|0:0,0:0:0:0:
288,192,75387,2,0,P|240:176|188:192,1,80
136,240,75762,1,8,0:0:0:0:
228,340,75949,1,0,0:0:0:0:
228,340,76043,1,0,0:0:0:0:
228,340,76137,6,0,L|239:260,2,80,2|0|8,0:0|0:0|0:0,0:0:0:0:
136,240,76699,1,0,0:0:0:0:
312,280,76887,2,0,P|316:236|300:184,1,80
228,148,77262,1,8,0:0:0:0:
392,204,77449,1,0,0:0:0:0:
392,204,77543,1,0,0:0:0:0:
392,204,77637,6,0,P|460:208|508:120,2,160,6|8|0,0:0|0:0|0:0,0:0:0:0:
308,160,78574,1,0,0:0:0:0:
379,68,78762,2,0,L|428:132,1,80,8|0,0:0|0:0,0:0:0:0:
308,160,79137,5,2,0:0:0:0:
244,88,79324,2,0,L|200:80,2,40,0|0|8,0:0|0:0|0:0,0:0:0:0:
392,204,79699,1,0,0:0:0:0:
392,204,79793,1,0,0:0:0:0:
392,204,79887,2,0,B|392:248|392:248|408:296,1,80
283,336,80262,2,0,B|283:292|283:292|267:244,1,80,8|0,0:0|0:0,0:0:0:0:
191,208,80637,6,0,P|239:228|307:144,1,160,2|8,0:0|0:0,0:0:0:0:
164,120,81199,1,0,0:0:0:0:
164,120,81387,2,0,P|120:120|72:124,1,80
16,216,81762,2,0,P|60:216|108:212,1,80,8|8,0:0|0:0,0:0:0:0:
108,208,82043,1,8,0:0:0:0:
108,208,82137,6,0,B|96:256|96:256|112:340,2,120,8|8|8,0:0|0:0|0:0,0:0:0:0:
204,192,82887,2,0,P|184:144|124:112,2,120,8|8|8,0:0|0:0|0:0,0:0:0:0:
108,324,83637,5,2,0:0:0:0:
192,124,97137,6,0,B|208:172|208:172|200:212|200:212|216:272,2,143.999995605469,6|8|0,0:0|0:0|0:0,0:0:0:0:
120,76,98074,1,0,0:0:0:0:
280,156,98262,2,0,L|248:68,1,71.9999978027344,8|0,0:0|0:0,0:0:0:0:
104,172,98637,6,0,L|128:239,2,71.9999978027344,2|0|8,0:0|0:0|0:0,0:0:0:0:
28,132,99199,1,0,0:0:0:0:
80,296,99387,2,0,P|156:308|200:248,1,143.999995605469,0|8,0:0|0:0,0:0:0:0:
272,172,99949,1,8,0:0:0:0:
272,172,100043,1,0,0:0:0:0:
272,172,100137,6,0,L|304:252,1,71.9999978027344,10|0,0:0|0:0,0:0:0:0:
376,304,100512,1,10,0:0:0:0:
488,228,100699,1,10,0:0:0:0:
488,228,101074,1,10,0:0:0:0:
388,128,101262,2,0,P|364:100|404:12,1,143.999995605469,10|0,0:0|0:0,0:0:0:0:
388,128,101824,6,0,L|304:136,1,71.9999978027344,4|0,0:3|0:0,0:0:0:0:
276,248,102199,2,0,L|368:236,1,71.9999978027344,4|0,0:3|0:0,0:0:0:0:
232,112,102574,1,4,0:3:0:0:
172,216,102762,1,8,0:0:0:0:
152,224,102855,1,8,0:0:0:0:
132,224,102949,1,4,0:3:0:0:
112,220,103043,1,8,0:0:0:0:
96,208,103137,5,10,0:0:0:0:
40,140,103324,1,0,0:0:0:0:
156,52,103512,2,0,L|148:124,2,71.9999978027344,8|0|0,0:0|0:0|0:0,0:0:0:0:
72,24,104074,1,0,0:0:0:0:
244,128,104262,1,8,0:0:0:0:
352,84,104449,1,0,0:0:0:0:
352,84,104543,1,0,0:0:0:0:
352,84,104637,6,0,B|364:132|364:132|352:236,1,143.999995605469,2|8,0:0|0:0,0:0:0:0:
288,288,105199,1,0,0:0:0:0:
288,288,105387,2,0,P|328:260|436:304,1,143.999995605469,0|8,0:0|0:0,0:0:0:0:
356,348,105949,1,0,0:0:0:0:
288,288,106137,6,0,L|268:208,1,71.9999978027344
308,124,106512,1,8,0:0:0:0:
184,220,106699,2,0,P|144:228|104:216,1,71.9999978027344,4|0,0:0|0:0,0:0:0:0:
152,128,107074,1,0,0:0:0:0:
308,124,107262,2,0,L|304:276,1,143.999995605469,14|4,0:0|0:3,0:0:0:0:
184,220,107824,5,8,0:3:0:0:
384,256,108012,1,4,0:3:0:0:
208,348,108199,1,8,0:3:0:0:
72,312,108387,1,4,0:3:0:0:
72,292,108480,1,10,0:0:0:0:
64,272,108574,1,10,0:0:0:0:
52,256,108668,1,10,0:0:0:0:
32,248,108762,5,10,0:0:0:0:
20,232,108855,1,10,0:0:0:0:
16,212,108949,1,10,0:0:0:0:
24,192,109043,1,10,0:0:0:0:
36,176,109137,6,0,P|96:176|144:92,1,143.999995605469,14|8,0:0|0:0,0:0:0:0:
64,96,109699,1,0,0:0:0:0:
228,152,109887,2,0,L|216:68,1,71.9999978027344
78,25,110262,2,0,L|62:109,1,71.9999978027344,8|0,0:0|0:0,0:0:0:0:
157,225,110637,6,0,P|209:197|289:237,2,143.999995605469,2|8|0,0:0|0:0|0:0,0:0:0:0:
84,292,111574,1,0,0:0:0:0:
212,372,111762,2,0,B|204:336|204:336|212:288,1,71.9999978027344,8|8,0:0|0:0,0:0:0:0:
216,276,112043,1,8,0:0:0:0:
216,276,112137,6,0,P|260:304|308:296,1,71.9999978027344,2|0,0:0|0:0,0:0:0:0:
416,260,112512,2,0,P|380:236|324:240,1,71.9999978027344,10|0,0:0|0:0,0:0:0:0:
284,152,112887,2,0,L|278:224,2,71.9999978027344,0|0|8,0:0|0:0|0:0,0:0:0:0:
180,204,113449,1,0,0:0:0:0:
372,228,113637,6,0,L|380:152,1,71.9999978027344,2|0,0:0|0:0,0:0:0:0:
372,132,113918,1,0,0:0:0:0:
372,132,114012,2,0,P|428:140|496:64,1,143.999995605469,8|0,0:0|0:0,0:0:0:0:
328,56,114574,1,0,0:0:0:0:
328,56,114762,2,0,L|248:40,1,71.9999978027344,8|0,0:0|0:0,0:0:0:0:
140,152,115137,5,2,0:0:0:0:
228,124,115324,1,0,0:0:0:0:
304,180,115512,2,0,L|292:260,1,71.9999978027344,8|0,0:0|0:0,0:0:0:0:
176,340,115887,2,0,L|168:260,1,71.9999978027344
140,152,116262,1,8,0:0:0:0:
256,228,116449,1,0,0:0:0:0:
268,244,116543,1,0,0:0:0:0:
280,256,116637,6,0,P|348:284|408:252,1,143.999995605469,2|8,0:0|0:0,0:0:0:0:
448,164,117199,1,0,0:0:0:0:
340,188,117387,2,0,L|328:100,1,71.9999978027344
272,52,117762,1,8,0:0:0:0:
380,48,117949,1,0,0:0:0:0:
380,48,118043,1,0,0:0:0:0:
380,48,118137,6,0,L|420:56,3,35.9999989013672,2|2|2|2,0:0|0:0|0:0|0:0,0:0:0:0:
328,116,118512,2,0,L|292:124,3,35.9999989013672,2|2|2|2,0:0|0:0|0:0|0:0,0:0:0:0:
404,196,118887,1,2,0:0:0:0:
412,216,118980,1,2,0:0:0:0:
420,236,119074,1,2,0:0:0:0:
428,256,119168,1,2,0:0:0:0:
436,280,119262,5,2,0:0:0:0:
416,296,119355,1,2,0:0:0:0:
388,304,119449,1,2,0:0:0:0:
356,300,119543,1,2,0:0:0:0:
320,288,119637,1,6,0:0:0:0:
320,288,121137,6,0,L|312:204,1,80,4|0,0:0|0:0,0:0:0:0:
384,144,121512,2,0,P|344:168|236:128,1,160,8|0,0:0|0:0,0:0:0:0:
316,84,122074,1,0,0:0:0:0:
248,240,122262,1,8,0:0:0:0:
152,96,122449,1,0,0:0:0:0:
152,96,122543,1,0,0:0:0:0:
152,96,122637,6,0,P|168:136|168:180,2,80,2|0|8,0:0|0:0|0:0,0:0:0:0:
84,28,123199,1,0,0:0:0:0:
88,152,123387,2,0,L|4:168,1,80
20,280,123762,1,8,0:0:0:0:
48,288,123855,1,0,3:3:0:0:
76,288,123949,1,0,3:3:0:0:
104,284,124043,1,0,3:3:0:0:
132,276,124137,6,0,L|220:268,1,80,2|0,0:0|0:0,0:0:0:0:
392,284,124512,2,0,L|312:291,1,80,8|0,0:0|0:0,0:0:0:0:
252,352,124887,2,0,P|262:272|250:194,1,160,0|8,0:0|0:0,0:0:0:0:
192,120,125449,1,0,0:0:0:0:
356,220,125637,6,0,B|344:180|344:180|348:132,1,80,6|0,0:0|0:0,0:0:0:0:
183,41,126012,2,0,B|195:81|195:81|191:129,1,80,8|0,0:0|0:0,0:0:0:0:
136,196,126387,1,0,0:0:0:0:
76,124,126574,1,0,0:0:0:0:
280,88,126762,1,10,0:0:0:0:
304,100,126855,1,2,0:0:0:0:
332,100,126949,1,2,0:0:0:0:
360,96,127043,1,2,0:0:0:0:
384,84,127137,6,0,P|396:144|404:188,1,80,2|0,0:0|0:0,0:0:0:0:
416,184,127418,1,0,0:0:0:0:
416,184,127512,2,0,P|372:196|348:304,1,160,8|0,0:0|0:0,0:0:0:0:
400,364,128074,1,0,0:0:0:0:
496,296,128262,2,0,L|422:268,1,80,8|0,0:0|0:0,0:0:0:0:
268,188,128637,5,2,0:0:0:0:
336,300,128824,1,0,0:0:0:0:
336,300,128918,1,0,0:0:0:0:
336,300,129012,2,0,L|352:216,2,80,8|0|0,0:0|0:0|0:0,0:0:0:0:
252,328,129574,1,0,0:0:0:0:
140,256,129762,1,8,0:0:0:0:
248,208,129949,1,0,0:0:0:0:
264,200,130043,1,0,0:0:0:0:
276,192,130137,6,0,P|312:144|288:40,1,160,2|8,0:0|0:0,0:0:0:0:
192,20,130699,1,0,0:0:0:0:
224,112,130887,2,0,L|145:98,1,80
64,144,131262,1,8,0:0:0:0:
152,232,131449,1,0,0:0:0:0:
276,192,131637,6,0,L|272:320,2,120,8|8|8,0:0|0:0|0:0,0:0:0:0:
364,280,132387,1,0,0:0:0:0:
184,144,132574,1,0,0:0:0:0:
339,110,132762,1,8,0:0:0:0:
343,130,132855,1,8,0:0:0:0:
347,154,132949,1,8,0:0:0:0:
351,178,133043,1,8,0:0:0:0:
355,202,133137,6,0,L|259:190,1,80,6|0,0:0|0:0,0:0:0:0:
136,280,133512,2,0,L|222:271,1,80,8|0,0:0|0:0,0:0:0:0:
408,328,133887,2,0,P|348:360|260:320,1,160,0|8,0:0|0:0,0:0:0:0:
344,192,134449,1,0,0:0:0:0:
344,192,134543,1,0,0:0:0:0:
343,192,134637,6,0,L|336:272,1,80,2|0,0:0|0:0,0:0:0:0:
408,328,135012,1,8,0:0:0:0:
468,248,135199,1,0,0:0:0:0:
256,232,135387,2,0,P|216:244|172:232,1,80
212,156,135762,1,8,0:0:0:0:
88,272,135949,1,0,0:0:0:0:
64,128,136137,5,2,0:0:0:0:
92,132,136230,1,2,0:0:0:0:
120,128,136324,1,2,0:0:0:0:
144,116,136418,1,2,0:0:0:0:
164,100,136512,2,0,L|248:92,2,80,10|0|0,0:0|0:0|0:0,0:0:0:0:
92,36,137074,1,0,0:0:0:0:
28,200,137262,1,8,0:0:0:0:
160,312,137449,1,0,0:0:0:0:
160,312,137543,1,0,0:0:0:0:
160,312,137637,6,0,L|156:224,1,80,6|0,0:0|0:0,0:0:0:0:
244,156,138012,1,8,0:0:0:0:
324,232,138199,1,0,0:0:0:0:
232,60,138387,2,0,L|220:12,1,40,2|2,0:0|0:0,0:0:0:0:
312,68,138574,2,0,L|320:108,1,40,2|2,0:0|0:0,0:0:0:0:
384,40,138762,2,0,P|424:48|472:36,1,80,10|0,0:0|0:0,0:0:0:0:
320,108,139137,5,2,0:0:0:0:
428,156,139324,2,0,L|472:148,2,40,0|0|8,0:0|0:0|0:0,0:0:0:0:
360,224,139699,1,0,0:0:0:0:
232,168,139887,2,0,B|276:156|276:156|320:160,1,80
256,268,140262,2,0,B|221:271|221:271|177:259,1,80,8|0,0:0|0:0,0:0:0:0:
84,184,140637,6,0,L|92:268,1,80,2|0,0:0|0:0,0:0:0:0:
88,284,140918,1,0,0:0:0:0:
88,284,141012,2,0,P|48:276|0:288,1,80,8|0,0:0|0:0,0:0:0:0:
56,368,141387,1,0,0:0:0:0:
176,296,141574,1,0,0:0:0:0:
84,184,141762,1,8,0:0:0:0:
172,88,141949,1,0,0:0:0:0:
172,88,142043,1,0,0:0:0:0:
172,88,142137,6,0,B|168:132|168:132|196:172|172:232,2,120,10|8|8,0:0|0:0|0:0,0:0:0:0:
336,140,142887,2,0,B|340:96|340:96|316:56|344:-8,2,120,8|8|8,0:0|0:0|0:0,0:0:0:0:
256,268,143637,5,2,0:0:0:0:
256,192,145137,12,0,146262,0:0:0:0:
128,232,146637,5,2,0:0:0:0:
216,268,146824,1,0,0:0:0:0:
92,372,147012,2,0,L|76:292,1,80,8|0,0:0|0:0,0:0:0:0:
214,189,147387,2,0,B|222:233|222:233|214:281,1,80,2|0,0:0|0:0,0:0:0:0:
128,232,147762,1,8,0:0:0:0:
302,221,147949,1,0,0:0:0:0:
302,221,148043,1,0,0:0:0:0:
302,221,148137,6,0,L|294:129,1,80,2|0,0:0|0:0,0:0:0:0:
214,109,148512,1,8,0:0:0:0:
376,154,148699,1,0,0:0:0:0:
214,109,148887,2,0,L|228:24,1,80,2|0,0:0|0:0,0:0:0:0:
312,12,149262,1,8,0:0:0:0:
296,100,149449,1,0,0:0:0:0:
120,200,149637,6,0,L|152:36,1,160,2|8,0:0|0:0,0:0:0:0:
52,100,150199,1,0,0:0:0:0:
208,216,150387,2,0,L|248:228,3,40,2|2|2|2,0:0|0:0|0:0|0:0,0:0:0:0:
136,288,150762,2,0,L|96:276,3,40,10|2|2|2,0:0|0:0|0:0|0:0,0:0:0:0:
228,344,151137,6,0,P|272:352|312:340,1,80
376,296,151512,1,8,0:0:0:0:
264,264,151699,1,0,0:0:0:0:
376,296,151887,2,0,L|398:219,1,80,2|0,0:0|0:0,0:0:0:0:
488,188,152262,1,8,0:0:0:0:
316,104,152449,1,0,0:0:0:0:
316,104,152543,1,0,0:0:0:0:
316,104,152637,6,0,L|284:188,2,80,2|0|8,0:0|0:0|0:0,0:0:0:0:
220,104,153199,1,0,0:0:0:0:
384,160,153387,2,0,P|442:165|498:73,1,160,2|8,0:0|0:0,0:0:0:0:
420,84,153949,1,0,0:0:0:0:
420,84,154043,1,0,0:0:0:0:
420,84,154137,6,0,L|372:16,1,80,2|8,0:0|0:0,0:0:0:0:
352,20,154418,1,8,0:0:0:0:
352,20,154512,2,0,P|304:28|264:20,1,80,8|0,0:0|0:0,0:0:0:0:
180,28,154887,1,2,0:0:0:0:
84,112,155074,1,4,0:3:0:0:
84,112,155168,1,4,0:3:0:0:
84,112,155262,1,8,0:3:0:0:
200,164,155449,1,4,0:3:0:0:
88,24,155637,5,10,0:0:0:0:
256,192,167637,12,0,168762,0:0:0:0:
104,104,169137,6,0,L|112:188,1,80,6|0,0:0|0:0,0:0:0:0:
192,224,169512,2,0,P|140:208|56:272,2,160,8|0|8,0:0|0:0|0:0,0:0:0:0:
169,362,170449,1,0,0:0:0:0:
169,362,170543,1,0,0:0:0:0:
169,362,170637,6,0,L|140:288,1,80,2|0,0:0|0:0,0:0:0:0:
288,184,171012,2,0,L|272:262,1,80,8|0,0:0|0:0,0:0:0:0:
192,224,171387,1,0,0:0:0:0:
376,196,171574,1,0,0:0:0:0:
336,312,171762,1,8,0:0:0:0:
208,132,171949,1,0,0:0:0:0:
208,132,172043,1,0,0:0:0:0:
208,132,172137,6,0,P|280:92|356:120,1,160,2|8,0:0|0:0,0:0:0:0:
288,184,172699,1,0,0:0:0:0:
128,140,172887,2,0,B|120:104|120:104|96:64,1,80
16,136,173262,2,0,B|24:172|24:172|48:212,1,80,8|0,0:0|0:0,0:0:0:0:
270,340,173637,6,0,B|271:287|271:287|288:237|288:237|288:168,1,160,6|8,0:0|0:0,0:0:0:0:
208,132,174199,1,0,0:0:0:0:
360,300,174387,1,2,0:0:0:0:
368,284,174480,1,2,0:0:0:0:
368,264,174574,1,2,0:0:0:0:
360,244,174668,1,2,0:0:0:0:
385,222,174762,5,10,0:0:0:0:
396,204,174855,1,2,0:0:0:0:
400,184,174949,1,2,0:0:0:0:
392,162,175043,1,2,0:0:0:0:
395,143,175137,6,0,P|342:144|282:44,1,160,2|8,0:0|0:0,0:0:0:0:
368,63,175699,1,0,0:0:0:0:
227,209,175887,2,0,L|207:129,1,80
140,76,176262,1,8,0:0:0:0:
296,160,176449,1,0,0:0:0:0:
296,160,176543,1,0,0:0:0:0:
296,160,176637,6,0,P|312:216|280:276,2,120,2|0|0,0:0|0:0|0:0,0:0:0:0:
227,209,177387,1,0,0:0:0:0:
392,204,177574,1,0,0:0:0:0:
288,268,177762,1,8,0:0:0:0:
372,116,177949,1,8,0:0:0:0:
372,116,178043,1,8,0:0:0:0:
372,116,178137,6,0,B|392:64|392:64|448:12,2,120,8|8|8,0:0|0:0|0:0,0:0:0:0:
392,204,178887,2,0,P|336:200|288:132,2,120,8|8|8,0:0|0:0|0:0,0:0:0:0:
372,116,179637,5,2,0:0:0:0:
372,116,181137,6,0,P|316:124|280:116,1,80,6|0,0:0|0:0,0:0:0:0:
104,144,181512,2,0,P|160:140|192:144,1,80,8|0,0:0|0:0,0:0:0:0:
264,216,181887,2,0,L|256:32,1,160,0|8,0:0|0:0,0:0:0:0:
372,116,182449,1,0,0:0:0:0:
372,116,182543,1,0,0:0:0:0:
372,116,182637,6,0,L|376:208,1,80,2|0,0:0|0:0,0:0:0:0:
280,336,183012,2,0,P|308:288|336:272,1,80,8|0,0:0|0:0,0:0:0:0:
364,352,183387,1,0,0:0:0:0:
208,276,183574,1,0,0:0:0:0:
344,196,183762,1,8,0:0:0:0:
360,212,183855,1,0,3:3:0:0:
376,228,183949,1,0,3:3:0:0:
392,248,184043,1,0,3:3:0:0:
408,268,184137,6,0,L|492:252,1,80,2|0,0:0|0:0,0:0:0:0:
444,168,184512,1,8,0:0:0:0:
364,352,184699,1,0,0:0:0:0:
444,168,184887,2,0,P|412:120|312:100,1,160,0|8,0:0|0:0,0:0:0:0:
240,156,185449,1,0,0:0:0:0:
240,156,185543,1,0,0:0:0:0:
240,156,185637,6,0,L|264:252,2,80,6|0|8,0:0|0:0|0:0,0:0:0:0:
164,100,186199,1,0,0:0:0:0:
140,296,186387,1,6,0:0:0:0:
160,288,186480,1,2,0:0:0:0:
180,284,186574,1,2,0:0:0:0:
200,288,186668,1,2,0:0:0:0:
224,304,186762,5,14,0:0:0:0:
244,312,186855,1,2,0:0:0:0:
264,316,186949,1,2,0:0:0:0:
284,312,187043,1,2,0:0:0:0:
304,308,187137,6,0,L|312:212,2,80,2|0|8,0:0|0:0|0:0,0:0:0:0:
388,280,187699,1,0,0:0:0:0:
240,152,187887,2,0,L|232:236,1,80
388,280,188262,1,8,0:0:0:0:
348,200,188449,1,0,0:0:0:0:
488,88,188637,5,8,0:0:0:0:
480,100,188730,1,0,3:0:0:0:
472,116,188824,1,0,3:0:0:0:
464,128,188918,1,0,3:0:0:0:
456,140,189012,6,0,L|452:232,1,80,8|0,0:0|0:0,0:0:0:0:
496,296,189387,1,0,0:0:0:0:
348,200,189574,1,0,0:0:0:0:
496,296,189762,1,8,0:0:0:0:
356,364,189949,1,8,0:0:0:0:
356,364,190043,1,8,0:0:0:0:
356,364,190137,6,0,L|372:276,1,80,10|0,0:0|0:0,0:0:0:0:
260,168,190512,2,0,L|272:260,1,80,8|0,0:0|0:0,0:0:0:0:
348,200,190887,1,0,0:0:0:0:
176,176,191074,1,0,0:0:0:0:
270,247,191262,1,8,0:0:0:0:
322,104,191449,1,0,0:0:0:0:
176,176,191637,6,0,P|188:232|180:296,2,120,10|8|8,0:0|0:0|0:0,0:0:0:0:
100,124,192387,2,0,B|88:164|88:164|96:224,1,80
270,247,192762,1,8,0:0:0:0:
288,224,192855,1,8,0:0:0:0:
296,196,192949,1,8,0:0:0:0:
296,168,193043,1,8,0:0:0:0:
284,144,193137,6,0,P|332:160|412:88,1,160,14|8,0:0|0:0,0:0:0:0:
440,12,193699,1,0,0:0:0:0:
332,80,193887,2,0,L|316:-8,1,80
496,80,194262,2,0,L|488:184,1,80,8|0,0:0|0:0,0:0:0:0:
380,276,194637,6,0,P|372:224|380:176,2,80,2|0|8,0:0|0:0|0:0,0:0:0:0:
452,340,195199,1,0,0:0:0:0:
452,340,195293,1,0,0:0:0:0:
452,340,195387,2,0,P|408:320|300:344,1,160,0|8,0:0|0:0,0:0:0:0:
304,244,195949,1,0,0:0:0:0:
304,244,196043,1,0,0:0:0:0:
304,244,196137,6,0,L|312:152,1,80,2|0,0:0|0:0,0:0:0:0:
216,160,196512,2,0,L|200:68,1,80,8|0,0:0|0:0,0:0:0:0:
116,40,196887,2,0,P|184:52|280:16,1,160,0|8,0:0|0:0,0:0:0:0:
216,160,197449,1,0,0:0:0:0:
104,328,197637,6,0,L|120:164,1,160,6|8,0:0|0:0,0:0:0:0:
56,96,198199,1,0,0:0:0:0:
216,160,198387,2,0,L|204:104,3,40,2|2|2|2,0:0|0:0|0:0|0:0,0:0:0:0:
304,200,198762,2,0,L|296:252,3,40,2|2|2|2,0:0|0:0|0:0|0:0,0:0:0:0:
368,120,199137,6,0,P|416:112|460:120,1,80,2|0,0:0|0:0,0:0:0:0:
468,124,199418,1,0,0:0:0:0:
468,124,199512,2,0,L|488:220,2,80,8|0|0,0:0|0:0|0:0,0:0:0:0:
400,28,200074,1,0,0:0:0:0:
280,116,200262,1,8,0:0:0:0:
404,272,200449,1,0,0:0:0:0:
404,272,200543,1,0,0:0:0:0:
404,272,200637,6,0,B|412:228|412:228|404:168,2,80,2|0|8,0:0|0:0|0:0,0:0:0:0:
324,324,201199,1,0,0:0:0:0:
256,204,201387,2,0,L|344:228,1,80
456,336,201762,1,8,0:0:0:0:
324,324,201949,1,0,0:0:0:0:
324,324,202043,1,0,0:0:0:0:
324,324,202137,6,0,P|268:328|216:276,2,120,8|8|8,0:0|0:0|0:0,0:0:0:0:
320,132,202887,2,0,L|292:252,2,120,8|8|8,0:0|0:0|0:0,0:0:0:0:
160,192,203637,5,2,0:0:0:0:
256,192,205137,12,2,206637,0:0:0:0:
