osu file format v14

[General]
AudioFilename: senyatoyoump3.mp3
AudioLeadIn: 1000
PreviewTime: 120480
Countdown: 0
SampleSet: Soft
StackLeniency: 0.7
Mode: 0
LetterboxInBreaks: 0
WidescreenStoryboard: 1

[Editor]
Bookmarks: 73601
DistanceSpacing: 1.3
BeatDivisor: 4
GridSize: 4
TimelineZoom: 1

[Metadata]
Title:Kimi to Dareka no Yasashisa ni
TitleUnicode:君と誰かの優しさに
Artist:senya
ArtistUnicode:senya
Creator:kakifly
Version:Advanced
Source:艦隊これくしょん
Tags:setz kantai collection kancolle Yuuhei Catharsis 終焉の輝き kamase-tora かませ虎 Hizumi C87 Married ship girls image song yuri Kitakami Ooi
BeatmapID:615621
BeatmapSetID:250337

[Difficulty]
HPDrainRate:4
CircleSize:3.5
OverallDifficulty:5
ApproachRate:6
SliderMultiplier:1.2
SliderTickRate:2

[Events]
//Background and Video events
0,0,"bgsenya.png",0,0
//Break Periods
2,85137,96087
2,157137,168087
//Storyboard Layer 0 (Background)
//Storyboard Layer 1 (Fail)
//Storyboard Layer 2 (Pass)
//Storyboard Layer 3 (Foreground)
//Storyboard Sound Samples

[TimingPoints]
1137,375,4,2,1,30,1,0
1137,-111.111111111111,4,2,1,30,0,0
11637,-111.111111111111,4,2,1,55,0,0
13137,-100,4,2,1,50,0,0
18762,-100,4,2,1,35,0,0
19137,-100,4,2,1,50,0,0
25137,-105.263157894737,4,2,1,40,0,0
29637,-105.263157894737,4,2,1,30,0,0
30012,-105.263157894737,4,2,1,40,0,0
59637,-105.263157894737,4,2,1,75,0,0
61137,-100,4,2,1,90,0,1
61230,-100,4,2,1,80,0,1
72762,-100,4,2,1,80,0,0
73137,-100,4,2,1,90,0,1
73230,-100,4,2,1,80,0,1
83637,-100,4,2,1,90,0,0
83730,-100,4,2,1,50,0,0
97137,-105.263157894737,4,2,1,50,0,0
108762,-105.263157894737,4,2,1,40,0,0
109137,-105.263157894737,4,2,1,50,0,0
119637,-105.263157894737,4,2,1,75,0,0
121137,-100,4,2,1,90,0,1
121230,-100,4,2,1,80,0,1
132762,-100,4,2,1,80,0,0
133137,-100,4,2,1,90,0,1
133230,-100,4,2,1,80,0,1
138762,-100,4,2,1,60,0,1
139137,-100,4,2,1,80,0,1
143637,-100,4,2,1,90,0,0
145137,-100,4,2,1,70,0,0
155637,-100,4,2,1,80,0,0
169137,-100,4,2,1,80,0,1
174762,-100,4,2,1,60,0,1
175137,-100,4,2,1,80,0,1
179637,-100,4,2,1,80,0,0
181137,-100,4,2,1,95,0,1
181230,-100,4,2,1,80,0,1
192762,-100,4,2,1,80,0,0
193137,-100,4,2,1,90,0,1
193230,-100,4,2,1,80,0,1
198762,-100,4,2,1,60,0,1
199137,-100,4,2,1,80,0,1
203637,-100,4,2,1,90,0,0
205137,-100,4,2,1,30,0,0
205887,-100,4,2,1,20,0,0
206449,-100,4,2,1,15,0,0

[Colours]
Combo1 : 255,230,142
Combo2 : 251,162,162
Combo3 : 250,165,192
Combo4 : 180,123,210

[HitObjects]
60,72,1137,6,0,L|68:128,1,53.9999983520508,2|0,0:0|0:0,0:0:0:0:
128,180,1512,1,0,0:0:0:0:
128,180,1699,2,0,P|176:172|236:180,1,107.999996704102,2|0,0:0|0:0,0:0:0:0:
312,204,2262,2,0,L|320:260,1,53.9999983520508,0|2,0:0|0:0,0:0:0:0:
396,232,2637,2,0,L|388:176,1,53.9999983520508,2|0,0:0|0:0,0:0:0:0:
352,108,3012,2,0,B|332:80|316:68|316:68|256:60,2,107.999996704102,0|2|0,0:0|0:0|0:0,0:0:0:0:
316,264,4137,6,0,L|340:328,2,53.9999983520508,2|0|0,0:0|0:0|0:0,0:0:0:0:
240,244,4699,1,0,0:0:0:0:
240,244,4887,2,0,P|188:256|136:244,1,107.999996704102,2|0,0:0|0:0,0:0:0:0:
32,120,5637,2,0,L|16:68,1,53.9999983520508,2|0,0:0|0:0,0:0:0:0:
88,32,6012,2,0,L|104:96,1,53.9999983520508,0|0,0:0|0:0,0:0:0:0:
176,116,6387,2,0,B|188:60|188:60|240:92|296:52,1,161.999995056153,2|0,0:0|0:0,0:0:0:0:
368,64,7137,6,0,B|352:104|352:104|352:168,1,107.999996704102,2|0,0:0|0:0,0:0:0:0:
464,272,7887,2,0,B|480:232|480:232|480:168,1,107.999996704102,2|2,0:0|0:0,0:0:0:0:
436,100,8449,1,2,0:0:0:0:
364,140,8637,2,0,P|328:148|284:140,2,80.9999975280763,2|2|2,0:3|0:3|0:3,0:0:0:0:
436,180,9387,2,0,L|446:287,1,107.999996704102
308,372,10137,6,0,P|288:322|292:264,2,107.999996704102,2|0|2,0:0|0:0|0:0,0:0:0:0:
448,288,11262,1,0,0:0:0:0:
380,140,11637,1,2,0:0:0:0:
380,140,13137,6,0,L|389:261,1,120,6|8,0:0|0:0,0:0:0:0:
311,264,13699,1,0,0:0:0:0:
311,264,13887,2,0,P|255:280|205:251,1,120,0|8,0:0|0:0,0:0:0:0:
264,204,14449,1,0,0:0:0:0:
205,251,14637,2,0,L|177:371,2,120,2|8|0,0:0|0:0|0:0,0:0:0:0:
332,340,15762,2,0,L|348:276,1,60,2|2,3:3|3:3,0:0:0:0:
376,208,16137,6,0,P|328:188|260:208,1,120,2|8,0:0|0:0,0:0:0:0:
128,284,16887,2,0,P|176:304|244:284,1,120,0|8,0:0|0:0,0:0:0:0:
180,144,17637,2,0,L|112:124,2,60,2|0|8,0:0|0:0|0:0,0:0:0:0:
256,120,18199,1,0,0:0:0:0:
256,120,18387,2,0,P|280:92|380:92,1,120,2|10,0:0|0:0,0:0:0:0:
412,144,18949,1,2,0:0:0:0:
328,156,19137,6,0,B|304:196|304:196|280:216|232:220,1,120,2|8,0:0|0:0,0:0:0:0:
164,188,19699,1,0,0:0:0:0:
168,264,19887,2,0,B|184:320|184:320|168:392,1,120,2|8,0:0|0:0,0:0:0:0:
32,308,20637,2,0,B|16:260|16:260|16:212,2,90,2|0|0,0:0|0:0|0:0,0:0:0:0:
104,340,21387,2,0,L|228:324,1,120,2|8,0:0|0:0,0:0:0:0:
264,260,21949,1,8,0:0:0:0:
320,312,22137,6,0,P|364:328|416:312,2,90,8|8|8,0:0|0:0|0:0,0:0:0:0:
264,260,22887,2,0,L|248:156,2,90,8|8|8,0:0|0:0|0:0,0:0:0:0:
223,325,23637,1,2,0:0:0:0:
223,325,24012,2,0,B|180:320|180:320|148:352|88:328,1,120,0|2,0:0|0:0,0:0:0:0:
132,260,24574,1,0,0:0:0:0:
208,240,24762,2,0,L|268:248,1,60,0|0,0:0|0:0,0:0:0:0:
332,296,25137,6,0,P|380:268|448:276,2,113.999996955872,6|8|2,0:0|0:0|0:0,0:0:0:0:
248,160,26262,1,8,0:0:0:0:
132,260,26637,2,0,L|68:256,2,56.9999984779358,2|0|8,0:0|0:0|0:0,0:0:0:0:
200,304,27199,1,0,0:0:0:0:
256,244,27387,2,0,P|316:260|376:240,1,113.999996955872,2|8,0:0|0:0,0:0:0:0:
424,192,27949,1,8,0:0:0:0:
492,236,28137,6,0,B|472:280|472:280|480:352,1,113.999996955872,10|10,0:0|0:0,0:0:0:0:
400,332,28699,2,0,B|360:356|360:356|324:360|276:344,1,113.999996955872,10|8,0:0|0:0,0:0:0:0:
284,268,29262,2,0,B|228:260|228:260|168:280,1,113.999996955872,10|0,0:0|0:0,0:0:0:0:
100,244,29824,2,0,L|84:108,1,113.999996955872,4|4,0:3|0:3,0:0:0:0:
148,76,30387,2,0,P|148:48|140:16,2,56.9999984779358,4|4|4,0:3|0:3|0:3,0:0:0:0:
168,152,30949,1,8,0:3:0:0:
228,100,31137,6,0,L|348:88,1,113.999996955872,10|8,0:0|0:0,0:0:0:0:
440,216,31887,2,0,L|326:227,1,113.999996955872,0|8,0:0|0:0,0:0:0:0:
256,188,32449,1,0,0:0:0:0:
212,256,32637,2,0,P|180:272|104:252,2,113.999996955872,2|8|0,0:0|0:0|0:0,0:0:0:0:
256,188,33574,2,0,L|264:132,1,56.9999984779358,0|8,0:0|0:0,0:0:0:0:
244,52,33949,1,8,0:0:0:0:
324,68,34137,6,0,P|356:80|440:52,1,113.999996955872,10|10,0:0|0:0,0:0:0:0:
480,124,34699,2,0,B|456:152|456:152|476:192|456:244,1,113.999996955872,10|10,0:0|0:0,0:0:0:0:
388,196,35262,2,0,B|356:220|328:224|328:224|260:208,1,113.999996955872,10|2,0:0|0:0,0:0:0:0:
220,160,35824,2,0,L|104:176,1,113.999996955872,4|4,0:3|0:3,0:0:0:0:
100,256,36387,2,0,L|160:248,2,56.9999984779358,4|4|4,0:3|0:3|0:3,0:0:0:0:
36,212,36949,1,8,0:0:0:0:
107,176,37137,6,0,P|116:121|96:68,2,113.999996955872,10|8|0,0:0|0:0|0:0,0:0:0:0:
256,116,38262,2,0,L|320:108,1,56.9999984779358,8|0,0:0|0:0,0:0:0:0:
372,164,38637,2,0,P|428:180|484:156,1,113.999996955872,2|8,0:0|0:0,0:0:0:0:
508,236,39199,1,0,0:0:0:0:
432,264,39387,2,0,L|424:388,1,113.999996955872,0|10,0:0|0:0,0:0:0:0:
348,356,39949,1,0,0:0:0:0:
348,356,40137,6,0,P|308:368|236:356,1,113.999996955872,10|8,0:0|0:0,0:0:0:0:
200,288,40699,2,0,B|160:312|160:312|120:316|88:304,1,113.999996955872,8|8,0:0|0:0,0:0:0:0:
128,232,41262,2,0,P|168:204|240:208,1,113.999996955872,10|0,0:0|0:0,0:0:0:0:
308,224,41824,2,0,L|432:204,1,113.999996955872,4|4,0:3|0:3,0:0:0:0:
404,128,42387,2,0,L|340:140,1,56.9999984779358,8|4,0:0|0:3,0:0:0:0:
276,104,42762,2,0,P|244:104|212:112,1,56.9999984779358,10|4,0:0|0:3,0:0:0:0:
176,176,43137,6,0,P|148:148|152:68,2,113.999996955872,10|8|0,0:0|0:0|0:0,0:0:0:0:
316,256,44262,1,8,0:0:0:0:
168,320,44637,2,0,L|148:380,2,56.9999984779358,2|0|8,0:0|0:0|0:0,0:0:0:0:
212,252,45199,1,0,0:0:0:0:
264,312,45387,2,0,P|320:332|372:308,1,113.999996955872,0|8,0:0|0:0,0:0:0:0:
396,236,45949,1,0,0:0:0:0:
448,296,46137,6,0,L|512:312,1,56.9999984779358,2|0,0:0|0:0,0:0:0:0:
504,228,46512,1,8,0:0:0:0:
452,168,46699,2,0,P|436:116|456:56,1,113.999996955872,4|0,0:0|0:0,0:0:0:0:
376,40,47262,2,0,L|252:48,1,113.999996955872,6|4,0:0|0:3,0:0:0:0:
252,128,47824,2,0,L|312:124,2,56.9999984779358,4|4|4,0:3|0:3|0:3,0:0:0:0:
172,116,48387,2,0,B|148:172|148:172|192:216|160:280,1,170.999995433807,2|2,0:0|0:0,0:0:0:0:
112,336,49137,6,0,B|84:300|80:280|80:280|96:228,1,113.999996955872,6|8,0:0|0:0,0:0:0:0:
248,212,49887,2,0,P|304:224|376:204,1,113.999996955872,0|8,0:0|0:0,0:0:0:0:
420,164,50449,1,0,0:0:0:0:
436,244,50637,2,0,B|436:284|436:284|448:312|448:312|448:360,2,113.999996955872,2|8|0,0:0|0:0|0:0,0:0:0:0:
496,192,51574,1,0,0:0:0:0:
420,164,51762,2,0,L|408:92,1,56.9999984779358,8|8,0:0|0:0,0:0:0:0:
332,112,52137,6,0,P|308:84|220:88,1,113.999996955872,2|8,0:0|0:0,0:0:0:0:
264,152,52699,1,0,0:0:0:0:
332,192,52887,2,0,L|344:256,2,56.9999984779358,0|0|8,0:0|0:0|0:0,0:0:0:0:
264,152,53449,1,0,0:0:0:0:
196,196,53637,2,0,P|156:216|84:188,1,113.999996955872,2|8,0:0|0:0,0:0:0:0:
144,136,54199,1,0,0:0:0:0:
196,196,54387,2,0,L|204:324,1,113.999996955872,0|8,0:0|0:0,0:0:0:0:
360,272,55137,6,0,L|352:158,1,113.999996955872,2|8,0:0|0:0,0:0:0:0:
392,88,55699,1,0,0:0:0:0:
392,88,55887,2,0,P|454:105|504:80,1,113.999996955872,0|8,0:0|0:0,0:0:0:0:
444,24,56449,1,0,0:0:0:0:
392,88,56637,2,0,L|272:100,2,113.999996955872,2|8|0,0:0|0:0|0:0,0:0:0:0:
444,24,57574,1,0,0:0:0:0:
497,83,57762,2,0,P|497:115|501:143,1,56.9999984779358,8|10,0:0|0:0,0:0:0:0:
444,196,58137,6,0,B|468:244|468:244|468:284|452:328,1,113.999996955872,10|10,0:0|0:0,0:0:0:0:
384,332,58699,1,2,0:0:0:0:
384,252,58887,2,0,P|364:220|364:192,1,56.9999984779358,2|2,0:0|0:0,0:0:0:0:
444,196,59262,2,0,P|456:168|456:128,1,56.9999984779358,10|2,0:0|0:0,0:0:0:0:
400,72,59637,1,6,0:0:0:0:
400,72,61137,6,0,L|276:80,1,120,6|8,0:0|0:0,0:0:0:0:
196,76,61699,1,0,0:0:0:0:
228,156,61887,2,0,P|236:188|236:224,2,60,0|0|8,0:0|0:0|0:0,0:0:0:0:
196,76,62449,1,0,0:0:0:0:
144,140,62637,2,0,P|88:160|28:136,1,120,2|8,0:0|0:0,0:0:0:0:
124,280,63387,2,0,P|176:260|240:284,1,120,0|8,0:0|0:0,0:0:0:0:
180,344,63949,1,0,0:0:0:0:
124,280,64137,6,0,L|108:200,1,60,2|0,0:0|0:0,0:0:0:0:
180,172,64512,2,0,L|191:113,1,60,8|0,0:0|0:0,0:0:0:0:
108,104,64887,2,0,B|120:56|120:56|144:32|192:28,1,120,0|8,0:0|0:0,0:0:0:0:
260,60,65449,1,0,0:0:0:0:
336,28,65637,2,0,P|372:32|400:32,2,60,6|0|8,0:0|0:0|0:0,0:0:0:0:
260,60,66199,1,0,0:0:0:0:
324,116,66387,2,0,L|320:184,1,60,0|0,0:0|0:0,0:0:0:0:
244,208,66762,2,0,L|252:280,1,60,8|0,0:0|0:0,0:0:0:0:
336,260,67137,6,0,P|372:248|404:168,1,120,2|8,0:0|0:0,0:0:0:0:
320,176,67699,1,0,0:0:0:0:
244,208,67887,2,0,B|184:204|184:204|120:228,1,120,0|8,0:0|0:0,0:0:0:0:
152,304,68449,1,0,0:0:0:0:
220,356,68637,2,0,L|316:344,2,90,2|0|0,0:0|0:0|0:0,0:0:0:0:
152,304,69387,2,0,P|96:328|32:304,1,120,0|8,0:0|0:0,0:0:0:0:
92,244,69949,1,8,0:0:0:0:
172,224,70137,6,0,B|216:216|216:216|248:236|288:226,1,120,2|8,0:0|0:0,0:0:0:0:
264,148,70699,1,0,0:0:0:0:
289,226,70887,2,0,L|297:350,1,120,0|8,0:0|0:0,0:0:0:0:
380,356,71449,1,0,0:0:0:0:
380,356,71637,2,0,P|428:344|480:360,2,90,8|8|8,0:0|0:0|0:0,0:0:0:0:
297,346,72387,2,0,L|171:353,1,120,0|8,0:0|0:0,0:0:0:0:
104,200,73137,6,0,L|223:193,1,120,6|8,0:0|0:0,0:0:0:0:
304,220,73699,1,0,0:0:0:0:
304,220,73887,2,0,P|370:245|429:214,1,120,0|8,0:0|0:0,0:0:0:0:
364,160,74449,1,0,0:0:0:0:
414,229,74637,2,0,L|422:357,2,120,2|8|0,0:0|0:0|0:0,0:0:0:0:
364,160,75574,1,0,0:0:0:0:
432,112,75762,2,0,P|436:76|428:48,1,60,8|0,0:0|0:0,0:0:0:0:
348,72,76137,6,0,B|320:52|288:40|288:40|212:40,1,120,2|8,0:0|0:0,0:0:0:0:
156,68,76699,1,0,0:0:0:0:
216,128,76887,2,0,L|276:128,2,60,0|0|8,0:0|0:0|0:0,0:0:0:0:
156,68,77449,1,0,0:0:0:0:
136,148,77637,2,0,P|80:168|16:136,2,120,4|8|0,0:0|0:0|0:0,0:0:0:0:
156,68,78574,1,0,0:0:0:0:
216,128,78762,2,0,L|224:196,1,60,8|0,0:0|0:0,0:0:0:0:
304,204,79137,6,0,L|292:76,1,120,2|8,0:0|0:0,0:0:0:0:
364,40,79699,1,0,0:0:0:0:
380,124,79887,2,0,P|436:148|500:120,1,120,0|8,0:0|0:0,0:0:0:0:
440,64,80449,1,0,0:0:0:0:
490,130,80637,2,0,L|501:220,2,90,0|0|0,0:0|0:0|0:0,0:0:0:0:
440,64,81387,2,0,P|412:68|368:60,1,60,0|0,0:0|0:0,0:0:0:0:
308,28,81762,2,0,L|244:36,1,60,8|0,0:0|0:0,0:0:0:0:
228,116,82137,6,0,L|328:104,2,90,8|8|8,0:0|0:0|0:0,0:0:0:0:
152,80,82887,2,0,P|116:92|48:72,2,90,8|8|8,0:0|0:0|0:0,0:0:0:0:
160,164,83637,1,2,0:0:0:0:
168,164,97137,6,0,L|180:292,2,113.999996955872,6|8|0,0:0|0:0|0:0,0:0:0:0:
108,112,98074,1,0,0:0:0:0:
184,84,98262,2,0,P|220:88|260:80,1,56.9999984779358,8|0,0:0|0:0,0:0:0:0:
296,144,98637,2,0,P|352:124|416:144,2,113.999996955872,2|8|0,0:0|0:0|0:0,0:0:0:0:
240,200,99574,2,0,L|172:200,2,56.9999984779358,0|8|8,0:0|0:0|0:0,0:0:0:0:
316,232,100137,6,0,B|332:288|332:288|320:352,1,113.999996955872,10|10,0:0|0:0,0:0:0:0:
248,316,100699,2,0,B|208:344|208:344|172:344|124:320,1,113.999996955872,10|10,0:0|0:0,0:0:0:0:
136,248,101262,2,0,L|16:260,1,113.999996955872,10|0,0:0|0:0,0:0:0:0:
24,180,101824,2,0,B|68:176|68:176|96:160|120:120,1,113.999996955872,4|4,0:3|0:3,0:0:0:0:
176,72,102387,2,0,L|172:12,2,56.9999984779358,8|4|0,0:0|0:3|0:0,0:0:0:0:
236,124,102949,1,4,0:3:0:0:
236,124,103137,6,0,P|280:132|308:124,1,56.9999984779358,2|0,0:0|0:0,0:0:0:0:
340,68,103512,2,0,L|400:76,1,56.9999984779358,8|0,0:0|0:0,0:0:0:0:
432,148,103887,2,0,P|408:192|436:264,1,113.999996955872,0|8,0:0|0:0,0:0:0:0:
488,204,104449,1,0,0:0:0:0:
424,252,104637,2,0,L|308:268,1,113.999996955872,2|8,0:0|0:0,0:0:0:0:
172,188,105387,2,0,L|112:196,2,56.9999984779358,0|0|8,0:0|0:0|0:0,0:0:0:0:
244,216,105949,1,0,0:0:0:0:
288,148,106137,6,0,P|320:156|360:144,1,56.9999984779358,2|0,0:0|0:0,0:0:0:0:
324,76,106512,1,8,0:0:0:0:
244,76,106699,2,0,L|120:92,1,113.999996955872,4|0,0:0|0:0,0:0:0:0:
68,140,107262,2,0,B|96:188|96:188|96:256,1,113.999996955872,12|4,0:0|0:3,0:0:0:0:
36,300,107824,2,0,P|32:340|36:364,2,56.9999984779358,4|4|4,0:3|0:3|0:3,0:0:0:0:
96,246,108387,2,0,P|148:268|216:244,1,113.999996955872,10|8,0:0|0:0,0:0:0:0:
264,204,108949,1,8,0:0:0:0:
312,268,109137,6,0,L|436:276,2,113.999996955872,14|8|0,0:0|0:0|0:0,0:0:0:0:
172,348,110262,1,8,0:0:0:0:
64,232,110637,2,0,P|60:188|64:168,1,56.9999984779358,2|0,0:0|0:0,0:0:0:0:
136,144,111012,2,0,P|140:100|136:80,1,56.9999984779358,8|0,0:0|0:0,0:0:0:0:
208,52,111387,2,0,P|256:64|328:48,1,113.999996955872,0|8,0:0|0:0,0:0:0:0:
392,20,111949,1,8,0:0:0:0:
388,100,112137,6,0,L|392:164,2,56.9999984779358,2|0|10,0:0|0:0|0:0,0:0:0:0:
460,68,112699,1,0,0:0:0:0:
476,148,112887,2,0,B|476:196|476:196|464:224|424:244,1,113.999996955872,0|8,0:0|0:0,0:0:0:0:
372,296,113449,1,0,0:0:0:0:
316,240,113637,2,0,B|280:236|280:236|248:264|184:244,1,113.999996955872,2|8,0:0|0:0,0:0:0:0:
232,172,114199,1,0,0:0:0:0:
312,156,114387,2,0,B|368:164|368:164|416:200,1,113.999996955872,0|8,0:0|0:0,0:0:0:0:
320,328,115137,6,0,L|252:336,1,56.9999984779358,2|0,0:0|0:0,0:0:0:0:
212,272,115512,2,0,L|140:264,1,56.9999984779358,8|0,0:0|0:0,0:0:0:0:
124,340,115887,2,0,L|196:348,2,56.9999984779358,0|0|8,0:0|0:0|0:0,0:0:0:0:
76,268,116449,1,0,0:0:0:0:
76,268,116637,2,0,P|56:232|80:144,1,113.999996955872,2|8,0:0|0:0,0:0:0:0:
240,196,117387,2,0,P|204:216|116:192,1,113.999996955872,0|8,0:0|0:0,0:0:0:0:
180,136,117949,1,0,0:0:0:0:
240,196,118137,6,0,L|312:208,2,56.9999984779358,2|0|10,0:0|0:0|0:0,0:0:0:0:
180,136,118699,1,2,0:0:0:0:
135,207,118887,2,0,P|127:247|131:271,1,56.9999984779358,2|2,0:0|0:0,0:0:0:0:
200,300,119262,2,0,P|204:328|200:356,1,56.9999984779358,10|2,0:0|0:0,0:0:0:0:
120,344,119637,1,6,0:0:0:0:
120,344,121137,6,0,L|112:220,1,120,4|8,0:0|0:0,0:0:0:0:
152,152,121699,1,0,0:0:0:0:
200,220,121887,2,0,P|256:240|328:204,1,120,0|8,0:0|0:0,0:0:0:0:
220,80,122637,2,0,L|156:68,2,60,2|0|8,0:0|0:0|0:0,0:0:0:0:
296,48,123199,1,0,0:0:0:0:
336,120,123387,2,0,P|396:144|464:108,1,120,0|8,0:0|0:0,0:0:0:0:
396,56,123949,1,0,0:0:0:0:
336,120,124137,6,0,B|276:128|276:128|252:140|212:184,1,120,2|8,0:0|0:0,0:0:0:0:
228,332,124887,2,0,B|288:324|288:324|312:312|352:268,1,120,0|8,0:0|0:0,0:0:0:0:
364,208,125449,1,0,0:0:0:0:
420,272,125637,2,0,P|456:288|480:296,2,60,6|0|8,0:0|0:0|0:0,0:0:0:0:
364,208,126199,1,0,0:0:0:0:
364,208,126387,2,0,P|312:224|232:196,1,120,0|8,0:0|0:0,0:0:0:0:
188,152,126949,1,0,0:0:0:0:
148,224,127137,6,0,P|112:228|80:228,1,60,2|0,0:0|0:0,0:0:0:0:
64,308,127512,2,0,P|112:308|192:296,1,120,8|0,0:0|0:0,0:0:0:0:
248,244,128074,1,0,0:0:0:0:
284,320,128262,2,0,P|320:316|360:320,1,60,8|0,0:0|0:0,0:0:0:0:
388,248,128637,2,0,P|428:264|484:260,2,90,2|0|0,0:0|0:0|0:0,0:0:0:0:
344,176,129387,2,0,L|284:172,2,60,0|0|8,0:0|0:0|0:0,0:0:0:0:
428,172,129949,1,0,0:0:0:0:
388,248,130137,6,0,P|370:302|396:365,1,120,2|8,0:0|0:0,0:0:0:0:
456,304,130699,1,0,0:0:0:0:
391,359,130887,2,0,L|263:367,1,120,0|8,0:0|0:0,0:0:0:0:
204,320,131449,1,0,0:0:0:0:
272,272,131637,2,0,B|280:232|280:232|268:176,2,90,8|8|8,0:0|0:0|0:0,0:0:0:0:
204,320,132387,2,0,B|152:312|152:312|120:336|68:316,1,120,0|8,0:0|0:0,0:0:0:0:
28,264,132949,1,8,0:0:0:0:
108,240,133137,6,0,L|100:112,1,120,6|8,0:0|0:0,0:0:0:0:
256,56,133887,2,0,L|263:175,1,120,0|8,0:0|0:0,0:0:0:0:
212,240,134449,1,0,0:0:0:0:
296,256,134637,2,0,P|304:296|304:324,2,60,2|0|8,0:0|0:0|0:0,0:0:0:0:
264,176,135199,1,0,0:0:0:0:
348,192,135387,2,0,P|396:202|457:165,1,120,0|8,0:0|0:0,0:0:0:0:
388,120,135949,1,0,0:0:0:0:
455,168,136137,6,0,L|463:240,1,60,2|0,0:0|0:0,0:0:0:0:
400,288,136512,2,0,L|408:360,1,60,8|0,0:0|0:0,0:0:0:0:
324,352,136887,2,0,B|320:308|320:308|304:280|244:252,1,120,0|8,0:0|0:0,0:0:0:0:
184,228,137449,1,0,0:0:0:0:
104,252,137637,2,0,P|144:304|220:304,2,120,6|8|0,0:0|0:0|0:0,0:0:0:0:
184,228,138574,1,0,0:0:0:0:
195,312,138762,2,0,L|199:376,1,60,8|0,0:0|0:0,0:0:0:0:
284,364,139137,6,0,L|276:232,1,120,2|8,0:0|0:0,0:0:0:0:
328,176,139699,1,0,0:0:0:0:
368,252,139887,2,0,P|428:264|480:232,1,120,0|8,0:0|0:0,0:0:0:0:
412,180,140449,1,0,0:0:0:0:
328,176,140637,2,0,B|288:152|288:152|232:144,2,90,2|0|0,0:0|0:0|0:0,0:0:0:0:
412,180,141387,2,0,L|424:104,2,60,0|0|8,0:0|0:0|0:0,0:0:0:0:
368,252,141949,1,0,0:0:0:0:
368,252,142137,6,0,P|380:296|364:356,2,90,10|8|8,0:0|0:0|0:0,0:0:0:0:
328,176,142887,2,0,L|344:76,2,90,8|8|8,0:0|0:0|0:0,0:0:0:0:
284,248,143637,1,2,0:0:0:0:
284,248,145137,6,0,L|216:252,2,60,2|0|8,0:0|0:0|0:0,0:0:0:0:
344,188,145699,2,0,L|408:192,2,60,0|2|0,0:0|0:0|0:0,0:0:0:0:
264,164,146262,2,0,P|260:120|264:88,1,60,8|0,0:0|0:0,0:0:0:0:
200,48,146637,2,0,P|160:68|84:48,1,120,2|8,0:0|0:0,0:0:0:0:
20,100,147199,1,0,0:0:0:0:
88,152,147387,2,0,L|92:216,1,60,2|0,0:0|0:0,0:0:0:0:
40,280,147762,2,0,P|40:312|44:352,1,60,8|0,0:0|0:0,0:0:0:0:
120,364,148137,6,0,L|248:356,1,120,2|8,0:0|0:0,0:0:0:0:
284,284,148699,1,0,0:0:0:0:
352,332,148887,2,0,P|400:344|460:320,2,90,2|0|0,0:0|0:0|0:0,0:0:0:0:
284,284,149637,2,0,L|276:160,1,120,2|8,0:0|0:0,0:0:0:0:
116,112,150387,2,0,L|123:231,1,120,2|10,0:0|0:0,0:0:0:0:
76,300,150949,1,2,0:0:0:0:
160,312,151137,6,0,P|168:348|168:380,2,60,0|0|8,0:0|0:0|0:0,0:0:0:0:
76,300,151699,1,0,0:0:0:0:
124,232,151887,2,0,L|192:216,1,60,2|0,0:0|0:0,0:0:0:0:
240,156,152262,2,0,P|276:160|308:152,1,60,8|0,0:0|0:0,0:0:0:0:
372,196,152637,2,0,P|412:184|472:200,2,90,2|0|0,0:0|0:0|0:0,0:0:0:0:
304,244,153387,2,0,L|240:248,2,60,2|0|8,0:0|0:0|0:0,0:0:0:0:
380,276,153949,1,0,0:0:0:0:
380,276,154137,6,0,B|392:316|392:316|388:376,2,90,2|8|0,0:0|0:0|0:0,0:0:0:0:
304,244,154887,2,0,P|288:196|308:136,2,90,8|8|8,0:0|0:0|0:0,0:0:0:0:
368,192,155637,1,10,0:0:0:0:
452,144,169137,6,0,P|440:180|460:264,1,120,6|8,0:0|0:0,0:0:0:0:
432,340,169699,1,0,0:0:0:0:
372,280,169887,2,0,L|304:272,1,60,0|0,0:0|0:0,0:0:0:0:
240,316,170262,2,0,P|200:320|168:312,1,60,8|0,0:0|0:0,0:0:0:0:
120,372,170637,2,0,P|88:344|8:340,2,120,2|8|0,0:0|0:0|0:0,0:0:0:0:
188,224,171762,2,0,L|252:204,1,60,8|0,0:0|0:0,0:0:0:0:
320,240,172137,6,0,P|384:216|440:240,1,120,2|8,0:0|0:0,0:0:0:0:
380,300,172699,1,0,0:0:0:0:
320,240,172887,2,0,L|304:120,1,120,0|8,0:0|0:0,0:0:0:0:
320,40,173449,1,0,0:0:0:0:
240,68,173637,2,0,P|208:76|172:72,2,60,6|0|8,0:0|0:0|0:0,0:0:0:0:
320,40,174199,1,0,0:0:0:0:
320,40,174387,2,0,L|444:48,1,120,2|10,0:0|0:0,0:0:0:0:
496,204,175137,6,0,L|420:200,1,60,2|0,0:0|0:0,0:0:0:0:
376,260,175512,2,0,P|336:264|300:256,1,60,8|0,0:0|0:0,0:0:0:0:
284,184,175887,2,0,P|236:156|164:160,1,120,0|8,0:0|0:0,0:0:0:0:
104,204,176449,1,0,0:0:0:0:
176,248,176637,2,0,B|184:280|184:280|180:340,2,90,2|0|0,0:0|0:0|0:0,0:0:0:0:
104,204,177387,2,0,L|36:208,2,60,0|0|8,0:0|0:0|0:0,0:0:0:0:
180,168,177949,1,8,0:0:0:0:
180,168,178137,6,0,P|220:176|272:164,2,90,8|8|8,0:0|0:0|0:0,0:0:0:0:
136,96,178887,2,0,P|92:86|48:94,2,90,8|8|8,0:0|0:0|0:0,0:0:0:0:
220,84,179637,1,2,0:0:0:0:
220,84,181137,6,0,L|356:76,1,120,6|8,0:0|0:0,0:0:0:0:
416,108,181699,1,0,0:0:0:0:
348,160,181887,2,0,L|228:167,1,120,0|8,0:0|0:0,0:0:0:0:
152,132,182449,1,0,0:0:0:0:
132,212,182637,2,0,B|148:260|148:260|148:340,2,120,2|8|0,0:0|0:0|0:0,0:0:0:0:
48,64,183762,2,0,L|108:44,1,60,8|0,0:0|0:0,0:0:0:0:
188,40,184137,6,0,P|248:56|304:32,1,120,2|8,0:0|0:0,0:0:0:0:
384,36,184699,1,0,0:0:0:0:
344,112,184887,2,0,L|352:184,2,60,0|0|8,0:0|0:0|0:0,0:0:0:0:
384,36,185449,1,0,0:0:0:0:
444,96,185637,2,0,L|452:176,1,60,6|0,0:0|0:0,0:0:0:0:
484,232,186012,2,0,P|492:272|484:312,1,60,8|0,0:0|0:0,0:0:0:0:
420,340,186387,2,0,L|288:348,1,120,0|8,0:0|0:0,0:0:0:0:
176,232,187137,6,0,L|112:236,2,60,2|0|8,0:0|0:0|0:0,0:0:0:0:
232,168,187699,1,0,0:0:0:0:
232,168,187887,2,0,P|288:188|348:155,1,120,0|8,0:0|0:0,0:0:0:0:
284,104,188449,1,0,0:0:0:0:
341,164,188637,2,0,L|349:288,1,120,2|8,0:0|0:0,0:0:0:0:
384,364,189199,1,0,0:0:0:0:
300,356,189387,2,0,B|252:344|252:344|216:368|160:348,1,120,0|8,0:0|0:0,0:0:0:0:
204,272,189949,1,8,0:0:0:0:
288,256,190137,6,0,B|348:276|348:276|372:272|412:252,1,120,10|8,0:0|0:0,0:0:0:0:
476,104,190887,2,0,B|446:89|422:85|422:85|362:105,1,120,0|8,0:0|0:0,0:0:0:0:
280,92,191449,1,0,0:0:0:0:
216,148,191637,2,0,P|176:144|116:124,2,90,10|8|8,0:0|0:0|0:0,0:0:0:0:
304,176,192387,2,0,P|332:232|448:224,1,180,0|8,0:0|0:0,0:0:0:0:
388,164,193137,6,0,B|372:108|372:108|308:64,1,120,14|8,0:0|0:0,0:0:0:0:
152,64,193887,2,0,P|96:84|32:60,1,120,0|8,0:0|0:0,0:0:0:0:
8,144,194449,1,0,0:0:0:0:
84,180,194637,2,0,B|96:236|96:236|88:280|68:316,1,120,2|8,0:0|0:0,0:0:0:0:
144,348,195199,1,0,0:0:0:0:
184,272,195387,2,0,L|204:204,2,60,0|0|8,0:0|0:0|0:0,0:0:0:0:
248,328,195949,1,0,0:0:0:0:
248,328,196137,6,0,P|308:312|372:340,1,120,2|8,0:0|0:0,0:0:0:0:
440,300,196699,1,0,0:0:0:0:
372,248,196887,2,0,L|368:184,1,60,2|0,0:0|0:0,0:0:0:0:
444,148,197262,2,0,P|448:104|440:72,1,60,8|0,0:0|0:0,0:0:0:0:
364,108,197637,2,0,B|328:84|304:76|304:76|236:80,1,120,6|8,0:0|0:0,0:0:0:0:
208,152,198199,1,0,0:0:0:0:
156,88,198387,2,0,P|120:88|88:80,1,60,2|2,0:0|0:0,0:0:0:0:
72,164,198762,2,0,P|36:164|4:172,1,60,2|2,0:0|0:0,0:0:0:0:
32,252,199137,6,0,P|88:244|152:248,1,120,2|8,0:0|0:0,0:0:0:0:
216,300,199699,1,0,0:0:0:0:
260,228,199887,2,0,B|300:216|300:216|332:240|392:224,1,120,0|8,0:0|0:0,0:0:0:0:
352,148,200449,1,0,0:0:0:0:
268,132,200637,2,0,B|212:152|212:152|168:192,2,90,2|0|0,0:0|0:0|0:0,0:0:0:0:
352,148,201387,2,0,L|352:68,2,60,0|0|8,0:0|0:0|0:0,0:0:0:0:
396,220,201949,1,8,0:0:0:0:
396,220,202137,6,0,B|408:260|408:260|400:320,2,90,8|8|8,0:0|0:0|0:0,0:0:0:0:
312,228,202887,2,0,P|268:240|224:224,2,90,8|8|8,0:0|0:0|0:0,0:0:0:0:
272,156,203637,1,2,0:0:0:0:
256,192,205137,12,2,206637,0:0:0:0:
