osu file format v14

[General]
AudioFilename: 03 [192].mp3
AudioLeadIn: 0
PreviewTime: 120358
Countdown: 0
SampleSet: Soft
StackLeniency: 0.7
Mode: 3
LetterboxInBreaks: 0
SpecialStyle: 0
WidescreenStoryboard: 0

[Editor]
DistanceSpacing: 1
BeatDivisor: 4
GridSize: 16
TimelineZoom: 1.8

[Metadata]
Title:Kimi to Dareka no Yasashisa ni
TitleUnicode:君と誰かの優しさに
Artist:senya
ArtistUnicode:senya
Creator:Zan -
Version:Normal
Source:艦隊これくしょん~艦これ~
Tags:c87 kantai collection kancolle You Communing With Someone Yuuhei Catharsis A Shimmer of Demise Married Ship girls Image Song Combined Fleet [_S_a_k_u_r_a_]
BeatmapID:663564
BeatmapSetID:295336

[Difficulty]
HPDrainRate:7
CircleSize:4
OverallDifficulty:7
ApproachRate:5
SliderMultiplier:1.4
SliderTickRate:1

[Events]
//Background and Video events
0,0,"yamatod.jpg",0,0
//Break Periods
//Storyboard Layer 0 (Background)
//Storyboard Layer 1 (Fail)
//Storyboard Layer 2 (Pass)
//Storyboard Layer 3 (Foreground)
//Storyboard Sound Samples

[TimingPoints]
1108,375,4,2,0,15,1,0
13108,-100,4,2,1,30,0,0
61108,-100,4,2,1,30,0,1
85108,-100,4,2,1,30,0,0
121108,-100,4,2,1,30,0,1
145108,-100,4,2,1,30,0,0
181108,-100,4,2,1,30,0,1
205108,-100,4,2,1,30,0,0

[HitObjects]
64,192,1108,5,2,0:0:0:0:
448,192,1108,1,2,0:0:0:0:
320,192,1295,1,2,0:0:0:0:
192,192,1483,1,2,0:0:0:0:
64,192,1670,1,2,0:0:0:0:
320,192,1670,1,0,0:0:0:0:
320,192,2233,1,2,0:0:0:0:
192,192,2420,1,2,0:0:0:0:
64,192,2608,1,2,0:0:0:0:
448,192,2608,1,0,0:0:0:0:
192,192,2983,1,2,0:0:0:0:
320,192,2983,1,0,0:0:0:0:
64,192,3358,1,2,0:0:0:0:
192,192,3358,1,0,0:0:0:0:
320,192,3733,1,2,0:0:0:0:
448,192,3733,1,0,0:0:0:0:
64,192,4108,1,0,0:0:0:0:
448,192,4108,1,2,0:0:0:0:
320,192,4295,1,2,0:0:0:0:
192,192,4483,1,2,0:0:0:0:
64,192,4670,1,2,0:0:0:0:
192,192,4764,1,2,0:0:0:0:
320,192,4858,1,2,0:0:0:0:
192,192,5233,1,2,0:0:0:0:
64,192,5608,1,2,0:0:0:0:
448,192,5608,1,0,0:0:0:0:
320,192,5795,1,2,0:0:0:0:
64,192,5983,1,2,0:0:0:0:
448,192,6170,1,2,0:0:0:0:
192,192,6358,1,2,0:0:0:0:
448,192,7108,1,2,0:0:0:0:
64,192,7483,1,2,0:0:0:0:
320,192,7858,1,2,0:0:0:0:
192,192,8233,1,2,0:0:0:0:
320,192,8420,1,2,0:0:0:0:
448,192,8608,1,0,0:0:0:0:
64,192,8608,1,2,0:0:0:0:
64,192,8889,1,2,0:0:0:0:
320,192,8889,1,0,0:0:0:0:
192,192,9170,1,2,0:0:0:0:
448,192,9170,1,0,0:0:0:0:
448,192,9358,1,0,0:0:0:0:
64,192,9358,128,2,9733:0:0:0:0:
320,192,9733,1,2,0:0:0:0:
64,192,10108,1,2,0:0:0:0:
192,192,10295,1,2,0:0:0:0:
320,192,10483,1,2,0:0:0:0:
448,192,10670,1,2,0:0:0:0:
64,192,10858,1,0,0:0:0:0:
192,192,10858,1,2,0:0:0:0:
320,192,11233,1,2,0:0:0:0:
64,192,11608,1,2,0:0:0:0:
448,192,11608,1,0,0:0:0:0:
64,192,13108,1,2,0:0:0:0:
448,192,13108,1,4,0:0:0:0:
320,192,13483,1,0,0:0:0:0:
64,192,13483,1,8,0:0:0:0:
192,192,13858,1,2,0:0:0:0:
320,192,14233,1,0,0:0:0:0:
448,192,14233,1,8,0:0:0:0:
64,192,14608,1,2,0:0:0:0:
192,192,14983,1,0,0:0:0:0:
320,192,14983,1,8,0:0:0:0:
448,192,15358,1,2,0:0:0:0:
64,192,15733,1,8,0:0:0:0:
192,192,15733,1,0,0:0:0:0:
320,192,16108,1,2,0:0:0:0:
64,192,16483,1,0,0:0:0:0:
448,192,16483,1,8,0:0:0:0:
192,192,16858,1,2,0:0:0:0:
64,192,17233,1,8,0:0:0:0:
320,192,17233,1,0,0:0:0:0:
320,192,17608,1,2,0:0:0:0:
192,192,17983,1,0,0:0:0:0:
448,192,17983,1,8,0:0:0:0:
320,192,18358,1,2,0:0:0:0:
448,192,18545,1,0,0:0:0:0:
64,192,18733,1,8,0:0:0:0:
192,192,18733,1,0,0:0:0:0:
320,192,19108,1,2,0:0:0:0:
448,192,19108,1,4,0:0:0:0:
64,192,19483,1,8,0:0:0:0:
320,192,19483,1,0,0:0:0:0:
192,192,19858,1,2,0:0:0:0:
448,192,20233,1,8,0:0:0:0:
320,192,20233,1,0,0:0:0:0:
192,192,20608,1,2,0:0:0:0:
64,192,20983,1,8,0:0:0:0:
320,192,20983,1,0,0:0:0:0:
448,192,21358,1,2,0:0:0:0:
320,192,21733,1,0,0:0:0:0:
192,192,21733,1,8,0:0:0:0:
192,192,22108,1,2,0:0:0:0:
448,192,22108,1,4,0:0:0:0:
64,192,22389,1,2,0:0:0:0:
320,192,22389,1,4,0:0:0:0:
192,192,22670,1,2,0:0:0:0:
320,192,22670,1,4,0:0:0:0:
64,192,22858,1,2,0:0:0:0:
448,192,22858,1,4,0:0:0:0:
64,192,23139,1,2,0:0:0:0:
320,192,23139,1,4,0:0:0:0:
192,192,23420,1,2,0:0:0:0:
320,192,23420,1,4,0:0:0:0:
64,192,23608,1,2,0:0:0:0:
448,192,23608,1,4,0:0:0:0:
64,192,25108,1,2,0:0:0:0:
448,192,25108,1,4,0:0:0:0:
320,192,25483,1,0,0:0:0:0:
64,192,25483,1,8,0:0:0:0:
192,192,25858,1,2,0:0:0:0:
64,192,26233,1,8,0:0:0:0:
320,192,26233,1,0,0:0:0:0:
448,192,26608,1,2,0:0:0:0:
320,192,26983,1,0,0:0:0:0:
192,192,26983,1,8,0:0:0:0:
64,192,27358,1,2,0:0:0:0:
192,192,27733,1,0,0:0:0:0:
448,192,27733,1,8,0:0:0:0:
64,192,28108,1,2,0:0:0:0:
448,192,28108,1,0,0:0:0:0:
64,192,28483,1,2,0:0:0:0:
192,192,28483,1,0,0:0:0:0:
320,192,28670,1,0,0:0:0:0:
448,192,28670,1,2,0:0:0:0:
64,192,28951,128,0,30733:0:0:0:0:
320,192,29045,1,0,0:0:0:0:
448,192,29045,1,2,0:0:0:0:
192,192,29233,1,2,0:0:0:0:
448,192,30733,128,2,31108:0:0:0:0:
320,192,31108,1,2,0:0:0:0:
64,192,31483,1,0,0:0:0:0:
448,192,31483,1,8,0:0:0:0:
192,192,31858,1,2,0:0:0:0:
64,192,32233,1,0,0:0:0:0:
448,192,32233,1,8,0:0:0:0:
320,192,32608,1,2,0:0:0:0:
192,192,32983,1,0,0:0:0:0:
448,192,32983,1,8,0:0:0:0:
64,192,33358,1,2,0:0:0:0:
192,192,33733,1,0,0:0:0:0:
448,192,33733,1,8,0:0:0:0:
448,192,34108,1,0,0:0:0:0:
64,192,34108,1,2,0:0:0:0:
64,192,34483,1,2,0:0:0:0:
192,192,34483,1,0,0:0:0:0:
320,192,34670,1,2,0:0:0:0:
448,192,34670,1,0,0:0:0:0:
320,192,35045,1,2,0:0:0:0:
448,192,35045,1,0,0:0:0:0:
192,192,35233,1,2,0:0:0:0:
64,192,35233,128,0,36733:0:0:0:0:
448,192,36733,128,8,37108:0:0:0:0:
192,192,37108,1,2,0:0:0:0:
64,192,37483,1,8,0:0:0:0:
320,192,37483,1,0,0:0:0:0:
192,192,37858,1,2,0:0:0:0:
320,192,38233,1,0,0:0:0:0:
448,192,38233,1,8,0:0:0:0:
192,192,38608,1,2,0:0:0:0:
64,192,38983,1,8,0:0:0:0:
448,192,38983,1,0,0:0:0:0:
320,192,39358,1,2,0:0:0:0:
192,192,39733,1,0,0:0:0:0:
64,192,39733,1,8,0:0:0:0:
448,192,40108,1,2,0:0:0:0:
64,192,40108,1,0,0:0:0:0:
64,192,40483,1,0,0:0:0:0:
320,192,40483,1,2,0:0:0:0:
192,192,40670,1,0,0:0:0:0:
448,192,40670,1,2,0:0:0:0:
192,192,41045,1,0,0:0:0:0:
448,192,41045,1,2,0:0:0:0:
320,192,41233,1,2,0:0:0:0:
64,192,41233,128,0,43108:0:0:0:0:
192,192,43108,1,2,0:0:0:0:
64,192,43483,1,0,0:0:0:0:
448,192,43483,1,8,0:0:0:0:
320,192,43858,1,2,0:0:0:0:
64,192,44233,1,8,0:0:0:0:
192,192,44233,1,0,0:0:0:0:
448,192,44608,1,2,0:0:0:0:
320,192,44983,1,0,0:0:0:0:
64,192,44983,1,8,0:0:0:0:
192,192,45358,1,2,0:0:0:0:
64,192,45733,1,0,0:0:0:0:
448,192,45733,1,8,0:0:0:0:
192,192,46108,1,0,0:0:0:0:
320,192,46108,1,2,0:0:0:0:
64,192,46483,1,0,0:0:0:0:
448,192,46483,1,2,0:0:0:0:
192,192,46670,1,0,0:0:0:0:
320,192,46670,1,2,0:0:0:0:
64,192,47045,1,2,0:0:0:0:
192,192,47045,1,0,0:0:0:0:
320,192,47233,1,2,0:0:0:0:
448,192,47233,128,0,49108:0:0:0:0:
64,192,49108,1,4,0:0:0:0:
320,192,49108,1,2,0:0:0:0:
192,192,49483,1,0,0:0:0:0:
448,192,49483,1,8,0:0:0:0:
320,192,49858,1,2,0:0:0:0:
64,192,50233,1,8,0:0:0:0:
192,192,50233,1,0,0:0:0:0:
320,192,50608,1,2,0:0:0:0:
192,192,50983,1,0,0:0:0:0:
448,192,50983,1,8,0:0:0:0:
64,192,51358,1,2,0:0:0:0:
192,192,51733,1,0,0:0:0:0:
448,192,51733,1,8,0:0:0:0:
64,192,52108,1,2,0:0:0:0:
320,192,52108,1,0,0:0:0:0:
448,192,52295,1,0,0:0:0:0:
64,192,52483,1,8,0:0:0:0:
192,192,52670,1,0,0:0:0:0:
320,192,52858,1,2,0:0:0:0:
64,192,53045,1,0,0:0:0:0:
448,192,53233,1,8,0:0:0:0:
192,192,53420,1,0,0:0:0:0:
320,192,53608,128,2,53983:0:0:0:0:
64,192,53983,1,8,0:0:0:0:
448,192,53983,1,0,0:0:0:0:
192,192,54358,1,2,0:0:0:0:
320,192,54733,1,0,0:0:0:0:
448,192,54733,1,8,0:0:0:0:
192,192,55108,1,2,0:0:0:0:
64,192,55483,1,8,0:0:0:0:
448,192,55483,1,0,0:0:0:0:
320,192,55858,1,2,0:0:0:0:
448,192,56233,1,8,0:0:0:0:
192,192,56233,1,0,0:0:0:0:
64,192,56608,1,2,0:0:0:0:
320,192,56983,1,0,0:0:0:0:
448,192,56983,1,8,0:0:0:0:
192,192,57358,1,2,0:0:0:0:
64,192,57733,1,8,0:0:0:0:
320,192,57733,1,0,0:0:0:0:
448,192,58108,1,2,0:0:0:0:
192,192,58483,1,0,0:0:0:0:
320,192,58483,1,8,0:0:0:0:
64,192,58858,128,0,59233:0:0:0:0:
448,192,58858,1,2,0:0:0:0:
320,192,59233,1,2,0:0:0:0:
192,192,59233,128,0,59608:0:0:0:0:
64,192,59608,1,2,0:0:0:0:
448,192,59608,128,0,60358:0:0:0:0:
64,192,61108,1,2,0:0:0:0:
448,192,61108,1,4,0:0:0:0:
320,192,61295,1,0,0:0:0:0:
192,192,61483,1,8,0:0:0:0:
320,192,61670,1,0,0:0:0:0:
448,192,61858,1,2,0:0:0:0:
64,192,62045,1,0,0:0:0:0:
192,192,62233,1,8,0:0:0:0:
320,192,62420,1,0,0:0:0:0:
448,192,62608,128,2,62983:0:0:0:0:
320,192,62983,128,8,63358:0:0:0:0:
192,192,63358,128,2,63733:0:0:0:0:
448,192,63733,128,8,64108:0:0:0:0:
64,192,64108,128,2,64483:0:0:0:0:
448,192,64483,1,8,0:0:0:0:
192,192,64670,1,0,0:0:0:0:
320,192,64858,1,2,0:0:0:0:
64,192,65045,1,0,0:0:0:0:
320,192,65233,1,8,0:0:0:0:
192,192,65420,1,0,0:0:0:0:
448,192,65608,128,0,66358:0:0:0:0:
64,192,65608,1,2,0:0:0:0:
64,192,66358,128,0,67108:0:0:0:0:
320,192,66358,1,2,0:0:0:0:
448,192,67108,1,2,0:0:0:0:
192,192,67295,1,0,0:0:0:0:
320,192,67483,1,8,0:0:0:0:
64,192,67670,1,0,0:0:0:0:
320,192,67858,1,2,0:0:0:0:
64,192,68045,1,0,0:0:0:0:
448,192,68233,1,8,0:0:0:0:
192,192,68420,1,0,0:0:0:0:
64,192,68608,1,2,0:0:0:0:
320,192,68608,1,0,0:0:0:0:
192,192,68889,1,0,0:0:0:0:
448,192,68889,1,0,0:0:0:0:
192,192,69170,1,0,0:0:0:0:
448,192,69170,1,0,0:0:0:0:
320,192,69358,1,2,0:0:0:0:
64,192,69358,128,0,69733:0:0:0:0:
192,192,69733,1,0,0:0:0:0:
448,192,69733,1,8,0:0:0:0:
64,192,70108,1,2,0:0:0:0:
320,192,70108,128,0,70483:0:0:0:0:
192,192,70483,1,0,0:0:0:0:
448,192,70483,1,8,0:0:0:0:
320,192,70858,1,2,0:0:0:0:
64,192,70858,128,0,71233:0:0:0:0:
192,192,71233,1,0,0:0:0:0:
448,192,71233,1,8,0:0:0:0:
320,192,71608,1,4,0:0:0:0:
448,192,71608,1,2,0:0:0:0:
64,192,71889,1,4,0:0:0:0:
192,192,71889,1,2,0:0:0:0:
192,192,72170,1,4,0:0:0:0:
320,192,72170,1,2,0:0:0:0:
64,192,72358,1,2,0:0:0:0:
448,192,72358,128,0,73108:0:0:0:0:
64,192,73108,1,2,0:0:0:0:
320,192,73108,1,0,0:0:0:0:
192,192,73295,1,0,0:0:0:0:
448,192,73483,1,8,0:0:0:0:
64,192,73670,1,0,0:0:0:0:
320,192,73858,1,2,0:0:0:0:
64,192,74045,1,0,0:0:0:0:
448,192,74233,1,8,0:0:0:0:
192,192,74420,1,0,0:0:0:0:
448,192,74608,128,2,74983:0:0:0:0:
192,192,74983,128,8,75358:0:0:0:0:
320,192,75358,128,2,75733:0:0:0:0:
64,192,75733,128,8,76108:0:0:0:0:
448,192,76108,128,2,76483:0:0:0:0:
192,192,76483,1,8,0:0:0:0:
320,192,76670,1,0,0:0:0:0:
64,192,76858,1,2,0:0:0:0:
448,192,77045,1,0,0:0:0:0:
320,192,77233,1,8,0:0:0:0:
192,192,77420,1,0,0:0:0:0:
64,192,77608,128,0,78358:0:0:0:0:
320,192,77608,1,2,0:0:0:0:
320,192,78358,128,0,79108:0:0:0:0:
448,192,78358,1,2,0:0:0:0:
64,192,79108,1,2,0:0:0:0:
192,192,79295,1,0,0:0:0:0:
320,192,79483,1,8,0:0:0:0:
64,192,79670,1,0,0:0:0:0:
192,192,79858,1,2,0:0:0:0:
448,192,80045,1,0,0:0:0:0:
320,192,80233,1,8,0:0:0:0:
192,192,80420,1,0,0:0:0:0:
320,192,80608,1,0,0:0:0:0:
64,192,80608,1,2,0:0:0:0:
192,192,80889,1,0,0:0:0:0:
448,192,80889,1,0,0:0:0:0:
64,192,81170,1,0,0:0:0:0:
320,192,81170,1,0,0:0:0:0:
192,192,81358,1,2,0:0:0:0:
448,192,81358,128,0,82108:0:0:0:0:
64,192,82108,1,2,0:0:0:0:
320,192,82108,1,0,0:0:0:0:
192,192,82389,1,2,0:0:0:0:
448,192,82389,1,0,0:0:0:0:
192,192,82670,1,2,0:0:0:0:
448,192,82670,1,0,0:0:0:0:
320,192,82858,1,0,0:0:0:0:
64,192,82858,1,2,0:0:0:0:
320,192,83139,1,2,0:0:0:0:
448,192,83139,1,0,0:0:0:0:
192,192,83420,1,2,0:0:0:0:
320,192,83420,1,0,0:0:0:0:
64,192,83608,1,2,0:0:0:0:
192,192,83608,1,0,0:0:0:0:
64,192,85108,1,2,0:0:0:0:
448,192,85108,1,4,0:0:0:0:
320,192,85483,1,8,0:0:0:0:
192,192,85858,1,2,0:0:0:0:
320,192,86233,1,8,0:0:0:0:
448,192,86608,1,2,0:0:0:0:
64,192,86608,1,0,0:0:0:0:
192,192,86795,1,0,0:0:0:0:
320,192,86983,1,8,0:0:0:0:
192,192,87170,1,0,0:0:0:0:
64,192,87358,1,2,0:0:0:0:
448,192,87545,1,0,0:0:0:0:
320,192,87733,1,8,0:0:0:0:
192,192,87920,1,0,0:0:0:0:
64,192,88108,1,2,0:0:0:0:
320,192,88108,1,0,0:0:0:0:
448,192,88295,1,0,0:0:0:0:
320,192,88483,1,8,0:0:0:0:
192,192,88670,1,0,0:0:0:0:
320,192,88858,1,2,0:0:0:0:
64,192,89045,1,0,0:0:0:0:
192,192,89233,1,8,0:0:0:0:
320,192,89420,1,0,0:0:0:0:
448,192,89608,1,0,0:0:0:0:
64,192,89608,1,2,0:0:0:0:
192,192,89983,1,8,0:0:0:0:
320,192,90170,1,0,0:0:0:0:
448,192,90358,128,2,91108:0:0:0:0:
64,192,91108,1,2,0:0:0:0:
320,192,91108,1,0,0:0:0:0:
192,192,91483,1,8,0:0:0:0:
64,192,91858,1,2,0:0:0:0:
192,192,92045,1,0,0:0:0:0:
448,192,92233,1,8,0:0:0:0:
320,192,92420,1,0,0:0:0:0:
64,192,92608,1,2,0:0:0:0:
448,192,92608,1,0,0:0:0:0:
192,192,92983,1,8,0:0:0:0:
320,192,93170,1,0,0:0:0:0:
448,192,93358,128,2,94108:0:0:0:0:
64,192,94108,1,2,0:0:0:0:
320,192,94108,1,0,0:0:0:0:
64,192,94389,1,2,0:0:0:0:
192,192,94389,1,0,0:0:0:0:
320,192,94670,1,2,0:0:0:0:
448,192,94670,1,0,0:0:0:0:
448,192,94858,1,0,0:0:0:0:
192,192,94858,1,2,0:0:0:0:
64,192,95139,1,2,0:0:0:0:
192,192,95139,1,0,0:0:0:0:
192,192,95420,1,2,0:0:0:0:
320,192,95420,1,0,0:0:0:0:
320,192,95608,1,2,0:0:0:0:
448,192,95608,128,0,95983:0:0:0:0:
64,192,97108,1,2,0:0:0:0:
448,192,97108,1,4,0:0:0:0:
192,192,97483,1,8,0:0:0:0:
320,192,97483,1,0,0:0:0:0:
448,192,97858,1,2,0:0:0:0:
64,192,98233,1,8,0:0:0:0:
320,192,98233,1,0,0:0:0:0:
192,192,98608,1,2,0:0:0:0:
320,192,98983,1,0,0:0:0:0:
448,192,98983,1,8,0:0:0:0:
64,192,99358,1,2,0:0:0:0:
192,192,99733,1,0,0:0:0:0:
448,192,99733,1,8,0:0:0:0:
64,192,100108,1,2,0:0:0:0:
320,192,100108,1,0,0:0:0:0:
64,192,100483,1,2,0:0:0:0:
320,192,100483,1,0,0:0:0:0:
192,192,100670,1,2,0:0:0:0:
448,192,100670,1,0,0:0:0:0:
192,192,101045,1,2,0:0:0:0:
448,192,101045,1,0,0:0:0:0:
320,192,101233,1,2,0:0:0:0:
64,192,101233,128,0,102733:0:0:0:0:
320,192,102733,128,2,103108:0:0:0:0:
448,192,103108,1,2,0:0:0:0:
64,192,103483,1,8,0:0:0:0:
320,192,103483,1,0,0:0:0:0:
448,192,103858,1,2,0:0:0:0:
192,192,104233,1,8,0:0:0:0:
320,192,104233,1,0,0:0:0:0:
64,192,104608,1,2,0:0:0:0:
192,192,104983,1,0,0:0:0:0:
448,192,104983,1,8,0:0:0:0:
320,192,105358,1,2,0:0:0:0:
192,192,105733,1,0,0:0:0:0:
64,192,105733,1,8,0:0:0:0:
320,192,106108,1,0,0:0:0:0:
448,192,106108,1,2,0:0:0:0:
448,192,106483,1,2,0:0:0:0:
320,192,106483,1,0,0:0:0:0:
192,192,106670,1,0,0:0:0:0:
64,192,106670,1,2,0:0:0:0:
192,192,107045,1,0,0:0:0:0:
64,192,107045,1,2,0:0:0:0:
320,192,107233,1,2,0:0:0:0:
448,192,107233,128,0,109108:0:0:0:0:
64,192,109108,1,4,0:0:0:0:
320,192,109108,1,2,0:0:0:0:
192,192,109483,1,0,0:0:0:0:
448,192,109483,1,8,0:0:0:0:
64,192,109858,1,2,0:0:0:0:
320,192,110233,1,0,0:0:0:0:
448,192,110233,1,8,0:0:0:0:
192,192,110608,1,2,0:0:0:0:
64,192,110983,1,0,0:0:0:0:
448,192,110983,1,8,0:0:0:0:
320,192,111358,1,2,0:0:0:0:
64,192,111733,1,0,0:0:0:0:
192,192,111733,1,8,0:0:0:0:
320,192,112108,1,2,0:0:0:0:
64,192,112295,1,0,0:0:0:0:
448,192,112483,1,8,0:0:0:0:
192,192,112670,1,0,0:0:0:0:
320,192,112858,1,2,0:0:0:0:
64,192,113045,1,0,0:0:0:0:
448,192,113233,1,8,0:0:0:0:
192,192,113420,1,0,0:0:0:0:
320,192,113608,128,2,113983:0:0:0:0:
448,192,113983,1,0,0:0:0:0:
64,192,113983,1,8,0:0:0:0:
192,192,114358,1,2,0:0:0:0:
320,192,114733,1,0,0:0:0:0:
448,192,114733,1,8,0:0:0:0:
64,192,115108,1,2,0:0:0:0:
192,192,115483,1,0,0:0:0:0:
448,192,115483,1,8,0:0:0:0:
320,192,115858,1,2,0:0:0:0:
64,192,116233,1,0,0:0:0:0:
448,192,116233,1,8,0:0:0:0:
192,192,116608,1,2,0:0:0:0:
320,192,116983,1,0,0:0:0:0:
448,192,116983,1,8,0:0:0:0:
64,192,117358,1,2,0:0:0:0:
192,192,117733,1,0,0:0:0:0:
448,192,117733,1,8,0:0:0:0:
320,192,118108,1,2,0:0:0:0:
192,192,118483,1,0,0:0:0:0:
64,192,118483,1,8,0:0:0:0:
320,192,118858,1,2,0:0:0:0:
448,192,119233,1,8,0:0:0:0:
64,192,119233,1,0,0:0:0:0:
192,192,119608,1,2,0:0:0:0:
320,192,119608,128,0,120358:0:0:0:0:
64,192,121108,1,2,0:0:0:0:
448,192,121108,1,4,0:0:0:0:
320,192,121295,1,0,0:0:0:0:
192,192,121483,1,8,0:0:0:0:
320,192,121670,1,0,0:0:0:0:
64,192,121858,1,2,0:0:0:0:
448,192,122045,1,0,0:0:0:0:
192,192,122233,1,8,0:0:0:0:
320,192,122420,1,0,0:0:0:0:
448,192,122608,128,2,122983:0:0:0:0:
320,192,122983,128,8,123358:0:0:0:0:
192,192,123358,128,2,123733:0:0:0:0:
64,192,123733,128,8,124108:0:0:0:0:
448,192,124108,128,2,124483:0:0:0:0:
192,192,124483,1,8,0:0:0:0:
64,192,124670,1,0,0:0:0:0:
320,192,124858,1,2,0:0:0:0:
192,192,125045,1,0,0:0:0:0:
448,192,125233,1,8,0:0:0:0:
320,192,125420,1,0,0:0:0:0:
192,192,125608,1,2,0:0:0:0:
64,192,125608,128,0,126358:0:0:0:0:
320,192,126358,1,2,0:0:0:0:
448,192,126358,128,0,127108:0:0:0:0:
64,192,127108,1,2,0:0:0:0:
192,192,127108,1,0,0:0:0:0:
320,192,127295,1,0,0:0:0:0:
448,192,127483,1,8,0:0:0:0:
192,192,127670,1,0,0:0:0:0:
64,192,127858,1,2,0:0:0:0:
320,192,128045,1,0,0:0:0:0:
192,192,128233,1,8,0:0:0:0:
320,192,128420,1,0,0:0:0:0:
64,192,128608,1,0,0:0:0:0:
448,192,128608,1,2,0:0:0:0:
192,192,128889,1,0,0:0:0:0:
448,192,128889,1,0,0:0:0:0:
64,192,129170,1,0,0:0:0:0:
320,192,129170,1,0,0:0:0:0:
64,192,129358,1,2,0:0:0:0:
448,192,129358,128,0,129733:0:0:0:0:
192,192,129733,1,0,0:0:0:0:
320,192,129733,1,8,0:0:0:0:
448,192,130108,1,2,0:0:0:0:
64,192,130108,128,0,130483:0:0:0:0:
192,192,130483,1,0,0:0:0:0:
320,192,130483,1,8,0:0:0:0:
448,192,130858,1,2,0:0:0:0:
320,192,130858,128,0,131233:0:0:0:0:
192,192,131233,1,0,0:0:0:0:
64,192,131233,1,8,0:0:0:0:
320,192,131608,1,2,0:0:0:0:
448,192,131608,1,4,0:0:0:0:
448,192,131889,1,2,0:0:0:0:
192,192,131889,1,4,0:0:0:0:
64,192,132170,1,4,0:0:0:0:
320,192,132170,1,2,0:0:0:0:
192,192,132358,1,2,0:0:0:0:
64,192,132358,128,4,133108:0:0:0:0:
192,192,133108,1,2,0:0:0:0:
320,192,133108,1,4,0:0:0:0:
448,192,133295,1,0,0:0:0:0:
64,192,133483,1,8,0:0:0:0:
320,192,133670,1,0,0:0:0:0:
448,192,133858,1,2,0:0:0:0:
192,192,134045,1,0,0:0:0:0:
320,192,134233,1,8,0:0:0:0:
192,192,134420,1,0,0:0:0:0:
64,192,134608,128,2,134983:0:0:0:0:
320,192,134983,128,8,135358:0:0:0:0:
192,192,135358,128,2,135733:0:0:0:0:
448,192,135733,128,8,136108:0:0:0:0:
64,192,136108,128,2,136483:0:0:0:0:
320,192,136483,1,8,0:0:0:0:
448,192,136670,1,0,0:0:0:0:
64,192,136858,1,2,0:0:0:0:
192,192,137045,1,0,0:0:0:0:
448,192,137233,1,8,0:0:0:0:
320,192,137420,1,0,0:0:0:0:
192,192,137608,1,2,0:0:0:0:
64,192,137608,128,0,138358:0:0:0:0:
320,192,138358,1,2,0:0:0:0:
448,192,138358,128,0,139108:0:0:0:0:
64,192,139108,1,2,0:0:0:0:
192,192,139295,1,0,0:0:0:0:
448,192,139483,1,8,0:0:0:0:
320,192,139670,1,0,0:0:0:0:
192,192,139858,1,2,0:0:0:0:
320,192,140045,1,0,0:0:0:0:
64,192,140233,1,8,0:0:0:0:
448,192,140420,1,0,0:0:0:0:
192,192,140608,1,0,0:0:0:0:
64,192,140608,1,2,0:0:0:0:
64,192,140889,1,0,0:0:0:0:
320,192,140889,1,0,0:0:0:0:
192,192,141170,1,0,0:0:0:0:
448,192,141170,1,0,0:0:0:0:
320,192,141358,1,2,0:0:0:0:
448,192,141358,128,0,142108:0:0:0:0:
192,192,142108,1,2,0:0:0:0:
320,192,142108,1,4,0:0:0:0:
448,192,142389,1,4,0:0:0:0:
64,192,142389,1,2,0:0:0:0:
320,192,142670,1,4,0:0:0:0:
64,192,142670,1,2,0:0:0:0:
192,192,142858,1,2,0:0:0:0:
448,192,142858,1,4,0:0:0:0:
64,192,143139,1,2,0:0:0:0:
192,192,143139,1,4,0:0:0:0:
192,192,143420,1,2,0:0:0:0:
320,192,143420,1,4,0:0:0:0:
320,192,143608,1,2,0:0:0:0:
448,192,143608,1,4,0:0:0:0:
64,192,145108,1,2,0:0:0:0:
448,192,145108,1,4,0:0:0:0:
320,192,145295,1,0,0:0:0:0:
192,192,145483,1,8,0:0:0:0:
320,192,145670,1,0,0:0:0:0:
192,192,145858,1,2,0:0:0:0:
64,192,146045,1,0,0:0:0:0:
192,192,146233,1,8,0:0:0:0:
320,192,146420,1,0,0:0:0:0:
448,192,146608,1,2,0:0:0:0:
64,192,146608,1,0,0:0:0:0:
192,192,146795,1,0,0:0:0:0:
448,192,146983,1,8,0:0:0:0:
64,192,147170,1,0,0:0:0:0:
320,192,147358,1,2,0:0:0:0:
192,192,147545,1,0,0:0:0:0:
64,192,147733,1,8,0:0:0:0:
448,192,147920,1,0,0:0:0:0:
320,192,148108,128,2,148483:0:0:0:0:
192,192,148670,1,0,0:0:0:0:
448,192,148858,1,2,0:0:0:0:
320,192,149139,1,0,0:0:0:0:
192,192,149420,1,0,0:0:0:0:
64,192,149608,128,2,151108:0:0:0:0:
448,192,151108,1,2,0:0:0:0:
320,192,151108,1,0,0:0:0:0:
192,192,151295,1,0,0:0:0:0:
320,192,151483,1,8,0:0:0:0:
64,192,151670,1,0,0:0:0:0:
448,192,151858,1,2,0:0:0:0:
320,192,152045,1,0,0:0:0:0:
192,192,152233,1,8,0:0:0:0:
320,192,152420,1,0,0:0:0:0:
448,192,152608,1,2,0:0:0:0:
64,192,152608,1,0,0:0:0:0:
192,192,152889,1,0,0:0:0:0:
448,192,153170,1,0,0:0:0:0:
64,192,153358,128,2,154108:0:0:0:0:
320,192,154108,1,0,0:0:0:0:
448,192,154108,1,2,0:0:0:0:
192,192,154858,1,0,0:0:0:0:
320,192,154858,1,2,0:0:0:0:
64,192,155608,1,0,0:0:0:0:
192,192,155608,1,2,0:0:0:0:
64,192,157108,1,2,0:0:0:0:
448,192,157108,1,4,0:0:0:0:
64,192,158608,1,0,0:0:0:0:
192,192,158608,1,0,0:0:0:0:
192,192,160108,1,0,0:0:0:0:
320,192,160108,1,0,0:0:0:0:
320,192,161608,1,0,0:0:0:0:
448,192,161608,128,0,162358:0:0:0:0:
192,192,162358,1,0,0:0:0:0:
64,192,162358,128,0,163108:0:0:0:0:
320,192,163108,1,4,0:0:0:0:
448,192,163108,1,2,0:0:0:0:
192,192,163858,1,4,0:0:0:0:
320,192,163858,1,2,0:0:0:0:
64,192,164608,1,2,0:0:0:0:
192,192,164608,1,4,0:0:0:0:
64,192,165358,1,2,0:0:0:0:
448,192,165358,1,4,0:0:0:0:
192,192,166108,1,2,0:0:0:0:
448,192,166108,1,4,0:0:0:0:
64,192,166858,1,2,0:0:0:0:
320,192,166858,1,4,0:0:0:0:
192,192,167608,1,2,0:0:0:0:
320,192,167608,1,4,0:0:0:0:
448,192,167889,1,4,0:0:0:0:
64,192,167889,1,2,0:0:0:0:
64,192,168170,1,2,0:0:0:0:
320,192,168170,1,4,0:0:0:0:
192,192,168358,1,2,0:0:0:0:
448,192,168358,128,4,169108:0:0:0:0:
64,192,169108,1,2,0:0:0:0:
320,192,169108,1,4,0:0:0:0:
192,192,169295,1,0,0:0:0:0:
448,192,169483,1,8,0:0:0:0:
64,192,169670,1,0,0:0:0:0:
320,192,169858,1,2,0:0:0:0:
448,192,170045,1,0,0:0:0:0:
192,192,170233,1,8,0:0:0:0:
320,192,170420,1,0,0:0:0:0:
64,192,170608,128,2,170983:0:0:0:0:
192,192,170983,128,8,171358:0:0:0:0:
448,192,171358,128,2,171733:0:0:0:0:
320,192,171733,128,8,172108:0:0:0:0:
192,192,172108,128,2,172483:0:0:0:0:
64,192,172483,1,8,0:0:0:0:
448,192,172670,1,0,0:0:0:0:
192,192,172858,1,2,0:0:0:0:
320,192,173045,1,0,0:0:0:0:
64,192,173233,1,8,0:0:0:0:
448,192,173420,1,0,0:0:0:0:
192,192,173608,1,2,0:0:0:0:
320,192,173608,128,0,174358:0:0:0:0:
64,192,174358,128,0,175108:0:0:0:0:
448,192,174358,1,2,0:0:0:0:
448,192,175108,1,2,0:0:0:0:
192,192,175295,1,0,0:0:0:0:
320,192,175483,1,8,0:0:0:0:
64,192,175670,1,0,0:0:0:0:
448,192,175858,1,2,0:0:0:0:
320,192,176045,1,0,0:0:0:0:
192,192,176233,1,8,0:0:0:0:
320,192,176420,1,0,0:0:0:0:
448,192,176608,1,2,0:0:0:0:
64,192,176608,1,0,0:0:0:0:
192,192,176889,1,0,0:0:0:0:
320,192,176889,1,0,0:0:0:0:
192,192,177170,1,0,0:0:0:0:
448,192,177170,1,0,0:0:0:0:
320,192,177358,1,2,0:0:0:0:
64,192,177358,128,0,177733:0:0:0:0:
192,192,177733,1,0,0:0:0:0:
448,192,177733,1,8,0:0:0:0:
64,192,178108,1,2,0:0:0:0:
320,192,178108,1,4,0:0:0:0:
192,192,178389,1,2,0:0:0:0:
448,192,178389,1,4,0:0:0:0:
192,192,178670,1,2,0:0:0:0:
448,192,178670,1,4,0:0:0:0:
320,192,178858,1,4,0:0:0:0:
64,192,178858,1,2,0:0:0:0:
64,192,179139,1,2,0:0:0:0:
448,192,179139,1,4,0:0:0:0:
192,192,179420,1,2,0:0:0:0:
320,192,179420,1,4,0:0:0:0:
448,192,179608,1,4,0:0:0:0:
64,192,179608,1,2,0:0:0:0:
64,192,181108,1,2,0:0:0:0:
448,192,181108,1,4,0:0:0:0:
192,192,181295,1,0,0:0:0:0:
320,192,181483,1,8,0:0:0:0:
64,192,181670,1,0,0:0:0:0:
448,192,181858,1,2,0:0:0:0:
192,192,182045,1,0,0:0:0:0:
448,192,182233,1,8,0:0:0:0:
64,192,182420,1,0,0:0:0:0:
320,192,182608,128,2,182983:0:0:0:0:
64,192,182983,128,8,183358:0:0:0:0:
448,192,183358,128,2,183733:0:0:0:0:
192,192,183733,128,8,184108:0:0:0:0:
64,192,184108,128,2,184483:0:0:0:0:
448,192,184483,1,8,0:0:0:0:
320,192,184670,1,0,0:0:0:0:
64,192,184858,1,2,0:0:0:0:
192,192,185045,1,0,0:0:0:0:
320,192,185233,1,8,0:0:0:0:
192,192,185420,1,0,0:0:0:0:
64,192,185608,1,2,0:0:0:0:
448,192,185608,128,0,186358:0:0:0:0:
64,192,186358,128,0,187108:0:0:0:0:
320,192,186358,1,2,0:0:0:0:
192,192,187108,1,2,0:0:0:0:
448,192,187295,1,0,0:0:0:0:
64,192,187483,1,8,0:0:0:0:
320,192,187670,1,0,0:0:0:0:
192,192,187858,1,2,0:0:0:0:
448,192,188045,1,0,0:0:0:0:
64,192,188233,1,8,0:0:0:0:
320,192,188420,1,0,0:0:0:0:
192,192,188608,1,0,0:0:0:0:
448,192,188608,1,2,0:0:0:0:
64,192,188889,1,0,0:0:0:0:
320,192,188889,1,0,0:0:0:0:
320,192,189170,1,0,0:0:0:0:
448,192,189170,1,0,0:0:0:0:
192,192,189358,1,2,0:0:0:0:
64,192,189358,128,0,189733:0:0:0:0:
448,192,189733,1,8,0:0:0:0:
320,192,189733,1,0,0:0:0:0:
320,192,190108,128,0,190483:0:0:0:0:
64,192,190108,1,2,0:0:0:0:
192,192,190483,1,0,0:0:0:0:
448,192,190483,1,8,0:0:0:0:
64,192,190858,128,0,191233:0:0:0:0:
320,192,190858,1,2,0:0:0:0:
192,192,191233,1,0,0:0:0:0:
448,192,191233,1,8,0:0:0:0:
320,192,191608,1,4,0:0:0:0:
64,192,191608,1,2,0:0:0:0:
64,192,191889,1,2,0:0:0:0:
192,192,191889,1,4,0:0:0:0:
320,192,192170,1,4,0:0:0:0:
448,192,192170,1,2,0:0:0:0:
192,192,192358,1,4,0:0:0:0:
448,192,192358,128,2,193108:0:0:0:0:
64,192,193108,1,4,0:0:0:0:
320,192,193108,1,2,0:0:0:0:
192,192,193295,1,0,0:0:0:0:
448,192,193483,1,8,0:0:0:0:
64,192,193670,1,0,0:0:0:0:
320,192,193858,1,2,0:0:0:0:
192,192,194045,1,0,0:0:0:0:
448,192,194233,1,8,0:0:0:0:
64,192,194420,1,0,0:0:0:0:
320,192,194608,128,2,194983:0:0:0:0:
448,192,194983,128,8,195358:0:0:0:0:
192,192,195358,128,2,195733:0:0:0:0:
320,192,195733,128,8,196108:0:0:0:0:
64,192,196108,128,2,196483:0:0:0:0:
448,192,196483,1,8,0:0:0:0:
320,192,196670,1,0,0:0:0:0:
64,192,196858,1,2,0:0:0:0:
192,192,197045,1,0,0:0:0:0:
320,192,197233,1,8,0:0:0:0:
192,192,197420,1,0,0:0:0:0:
64,192,197608,1,2,0:0:0:0:
448,192,197608,128,0,198358:0:0:0:0:
192,192,198358,128,0,199108:0:0:0:0:
320,192,198358,1,2,0:0:0:0:
64,192,199108,1,2,0:0:0:0:
320,192,199295,1,0,0:0:0:0:
192,192,199483,1,8,0:0:0:0:
448,192,199670,1,0,0:0:0:0:
192,192,199858,1,2,0:0:0:0:
320,192,200045,1,0,0:0:0:0:
64,192,200233,1,8,0:0:0:0:
448,192,200420,1,0,0:0:0:0:
320,192,200608,1,2,0:0:0:0:
64,192,200795,1,0,0:0:0:0:
192,192,200983,1,8,0:0:0:0:
320,192,201170,1,0,0:0:0:0:
448,192,201358,128,2,201733:0:0:0:0:
64,192,201733,1,8,0:0:0:0:
320,192,201733,1,0,0:0:0:0:
320,192,202108,1,2,0:0:0:0:
448,192,202108,1,4,0:0:0:0:
448,192,202389,1,4,0:0:0:0:
192,192,202389,1,2,0:0:0:0:
64,192,202670,1,4,0:0:0:0:
192,192,202670,1,2,0:0:0:0:
320,192,202858,1,2,0:0:0:0:
64,192,202858,1,4,0:0:0:0:
64,192,203139,1,2,0:0:0:0:
448,192,203139,1,4,0:0:0:0:
192,192,203420,1,2,0:0:0:0:
320,192,203420,1,4,0:0:0:0:
448,192,203608,1,4,0:0:0:0:
64,192,203608,1,2,0:0:0:0:
64,192,205108,1,0,0:0:0:0:
448,192,205108,1,0,0:0:0:0:
320,192,205295,1,0,0:0:0:0:
320,192,205483,1,0,0:0:0:0:
64,192,205670,1,0,0:0:0:0:
320,192,205858,1,0,0:0:0:0:
192,192,206045,1,0,0:0:0:0:
448,192,206233,1,0,0:0:0:0:
64,192,206420,1,0,0:0:0:0:
320,192,206608,1,0,0:0:0:0:
