osu file format v14

[General]
AudioFilename: senyatoyoump3.mp3
AudioLeadIn: 1000
PreviewTime: 120480
Countdown: 0
SampleSet: Soft
StackLeniency: 0.7
Mode: 3
LetterboxInBreaks: 0
SpecialStyle: 0
WidescreenStoryboard: 1

[Editor]
Bookmarks: 1137,4137,7137,12387,13137,19137,23637,25137,31137,34137,37137,41262,43137,49137,55137,58137,61137,67137,73601,79137,85137,91137,97137,103137,109137,114012,115137,121137,127137,133137,139137,144387,151137,155637,157137,163137,166137,169137,175137,181137,185637,187137,190137,193137,197637,199137
DistanceSpacing: 1.3
BeatDivisor: 4
GridSize: 4
TimelineZoom: 2.199998

[Metadata]
Title:Kimi to Dareka no Yasashisa ni
TitleUnicode:君と誰かの優しさに
Artist:senya
ArtistUnicode:senya
Creator:[AyanoTatemaya]
Version:NM
Source:艦隊これくしょん~艦これ~
Tags:kantai collection kancolle Yuuhei Catharsis 終焉の輝き kamase-tora かませ虎 Hizumi C87 Married ship girls image song yuri Kitakami Ooi hinagikukatsura Kyousuke-
BeatmapID:764563
BeatmapSetID:344021

[Difficulty]
HPDrainRate:7
CircleSize:4
OverallDifficulty:7
ApproachRate:6
SliderMultiplier:1.2
SliderTickRate:2

[Events]
//Background and Video events
0,0,"bgsenya.png",0,0
//Break Periods
2,41462,60087
2,64337,205587
//Storyboard Layer 0 (Background)
//Storyboard Layer 1 (Fail)
//Storyboard Layer 2 (Pass)
//Storyboard Layer 3 (Foreground)
//Storyboard Sound Samples

[TimingPoints]
1137,375,4,2,1,20,1,0
61137,-100,4,2,1,20,0,1
72762,-100,4,2,1,20,0,0
73137,-100,4,2,1,20,0,1
83637,-100,4,2,1,20,0,0
121137,-100,4,2,1,20,0,1
132762,-100,4,2,1,20,0,0
133137,-100,4,2,1,20,0,1
143637,-100,4,2,1,20,0,0
169137,-100,4,2,1,20,0,1
179637,-100,4,2,1,20,0,0
181137,-100,4,2,1,20,0,1
192762,-100,4,2,1,20,0,0
193137,-100,4,2,1,20,0,1
203637,-100,4,2,1,20,0,0

[HitObjects]
64,192,1137,5,0,0:0:0:0:
448,192,1137,1,0,0:0:0:0:
192,192,1324,1,0,0:0:0:0:
320,192,1512,1,0,0:0:0:0:
448,192,1699,1,0,0:0:0:0:
192,192,1887,1,0,0:0:0:0:
64,192,2074,1,0,0:0:0:0:
192,192,2262,1,0,0:0:0:0:
320,192,2449,1,0,0:0:0:0:
192,192,2637,1,0,0:0:0:0:
448,192,2637,1,0,0:0:0:0:
320,192,3012,1,0,0:0:0:0:
64,192,3012,1,0,0:0:0:0:
448,192,3387,1,0,0:0:0:0:
192,192,3387,1,0,0:0:0:0:
64,192,3762,1,0,0:0:0:0:
320,192,3762,1,0,0:0:0:0:
448,192,4137,1,0,0:0:0:0:
64,192,4137,1,0,0:0:0:0:
320,192,4324,1,0,0:0:0:0:
192,192,4512,1,0,0:0:0:0:
64,192,4699,1,0,0:0:0:0:
192,192,4793,1,0,0:0:0:0:
320,192,4887,1,0,0:0:0:0:
64,192,5262,1,0,0:0:0:0:
192,192,5637,1,0,0:0:0:0:
448,192,5637,1,0,0:0:0:0:
320,192,5824,1,0,0:0:0:0:
192,192,6012,1,0,0:0:0:0:
320,192,6199,1,0,0:0:0:0:
192,192,6387,1,0,0:0:0:0:
64,192,7137,1,0,0:0:0:0:
448,192,7137,1,0,0:0:0:0:
320,192,7512,1,0,0:0:0:0:
448,192,7887,1,0,0:0:0:0:
64,192,7887,1,0,0:0:0:0:
320,192,8262,1,0,0:0:0:0:
192,192,8449,1,0,0:0:0:0:
448,192,8637,1,0,0:0:0:0:
64,192,8637,1,0,0:0:0:0:
192,192,8918,1,0,0:0:0:0:
448,192,8918,1,0,0:0:0:0:
320,192,9199,1,0,0:0:0:0:
64,192,9199,1,0,0:0:0:0:
448,192,9387,1,0,0:0:0:0:
192,192,9387,1,0,0:0:0:0:
192,192,9762,1,0,0:0:0:0:
64,192,10137,1,0,0:0:0:0:
320,192,10137,1,0,0:0:0:0:
192,192,10324,1,0,0:0:0:0:
320,192,10512,1,0,0:0:0:0:
192,192,10699,1,0,0:0:0:0:
448,192,10887,1,0,0:0:0:0:
64,192,10887,1,0,0:0:0:0:
320,192,11262,1,0,0:0:0:0:
448,192,11637,1,0,0:0:0:0:
192,192,11637,1,0,0:0:0:0:
448,192,13137,1,0,0:0:0:0:
64,192,13137,1,0,0:0:0:0:
320,192,13324,1,0,0:0:0:0:
192,192,13512,1,0,0:0:0:0:
448,192,13699,1,0,0:0:0:0:
320,192,13887,1,0,0:0:0:0:
192,192,14074,1,0,0:0:0:0:
320,192,14262,1,0,0:0:0:0:
64,192,14449,1,0,0:0:0:0:
192,192,14637,1,0,0:0:0:0:
448,192,14637,1,0,0:0:0:0:
320,192,15012,1,0,0:0:0:0:
64,192,15012,1,0,0:0:0:0:
448,192,15387,1,0,0:0:0:0:
192,192,15387,1,0,0:0:0:0:
64,192,15762,1,0,0:0:0:0:
320,192,15762,1,0,0:0:0:0:
448,192,16137,1,0,0:0:0:0:
64,192,16137,1,0,0:0:0:0:
320,192,16324,1,0,0:0:0:0:
448,192,16512,1,0,0:0:0:0:
192,192,16699,1,0,0:0:0:0:
320,192,16887,1,0,0:0:0:0:
64,192,16887,1,0,0:0:0:0:
448,192,17262,1,0,0:0:0:0:
192,192,17262,1,0,0:0:0:0:
64,192,17637,1,0,0:0:0:0:
448,192,17637,1,0,0:0:0:0:
192,192,18012,1,0,0:0:0:0:
320,192,18012,1,0,0:0:0:0:
64,192,18199,1,0,0:0:0:0:
448,192,18387,1,0,0:0:0:0:
192,192,18574,1,0,0:0:0:0:
320,192,18762,1,0,0:0:0:0:
192,192,18949,1,0,0:0:0:0:
448,192,19137,1,0,0:0:0:0:
64,192,19137,1,0,0:0:0:0:
320,192,19512,1,0,0:0:0:0:
448,192,19699,1,0,0:0:0:0:
192,192,19887,1,0,0:0:0:0:
64,192,20262,1,0,0:0:0:0:
320,192,20262,1,0,0:0:0:0:
448,192,20637,1,0,0:0:0:0:
192,192,20918,1,0,0:0:0:0:
320,192,21199,1,0,0:0:0:0:
64,192,21387,1,0,0:0:0:0:
448,192,21762,1,0,0:0:0:0:
64,192,21762,1,0,0:0:0:0:
320,192,22137,1,0,0:0:0:0:
192,192,22137,1,0,0:0:0:0:
320,192,22418,1,0,0:0:0:0:
448,192,22418,1,0,0:0:0:0:
64,192,22699,1,0,0:0:0:0:
192,192,22699,1,0,0:0:0:0:
448,192,22887,1,0,0:0:0:0:
320,192,22887,1,0,0:0:0:0:
192,192,23168,1,0,0:0:0:0:
320,192,23168,1,0,0:0:0:0:
64,192,23449,1,0,0:0:0:0:
320,192,23449,1,0,0:0:0:0:
448,192,23637,1,0,0:0:0:0:
192,192,23637,1,0,0:0:0:0:
320,192,23824,1,0,0:0:0:0:
64,192,24012,1,0,0:0:0:0:
192,192,24199,1,0,0:0:0:0:
448,192,24387,1,0,0:0:0:0:
320,192,24574,1,0,0:0:0:0:
192,192,24762,1,0,0:0:0:0:
64,192,24949,1,0,0:0:0:0:
192,192,25137,1,0,0:0:0:0:
448,192,25137,1,0,0:0:0:0:
320,192,25512,1,0,0:0:0:0:
64,192,25512,1,0,0:0:0:0:
192,192,25887,1,0,0:0:0:0:
448,192,26262,1,0,0:0:0:0:
64,192,26262,1,0,0:0:0:0:
320,192,26637,1,0,0:0:0:0:
192,192,27012,1,0,0:0:0:0:
448,192,27012,1,0,0:0:0:0:
320,192,27387,1,0,0:0:0:0:
448,192,27574,1,0,0:0:0:0:
64,192,27762,1,0,0:0:0:0:
192,192,28137,1,0,0:0:0:0:
448,192,28137,1,0,0:0:0:0:
448,192,28512,1,0,0:0:0:0:
64,192,28512,1,0,0:0:0:0:
320,192,28699,1,0,0:0:0:0:
192,192,28699,1,0,0:0:0:0:
192,192,29074,1,0,0:0:0:0:
320,192,29074,1,0,0:0:0:0:
64,192,29262,1,0,0:0:0:0:
448,192,29262,1,0,0:0:0:0:
192,192,29824,1,0,0:0:0:0:
192,192,30199,1,0,0:0:0:0:
448,192,30387,1,0,0:0:0:0:
192,192,30574,1,0,0:0:0:0:
320,192,30762,1,0,0:0:0:0:
64,192,30949,1,0,0:0:0:0:
192,192,31137,1,0,0:0:0:0:
448,192,31137,1,0,0:0:0:0:
64,192,31512,1,0,0:0:0:0:
320,192,31512,1,0,0:0:0:0:
192,192,31887,1,0,0:0:0:0:
448,192,32262,1,0,0:0:0:0:
64,192,32262,1,0,0:0:0:0:
320,192,32637,1,0,0:0:0:0:
192,192,33012,1,0,0:0:0:0:
64,192,33012,1,0,0:0:0:0:
320,192,33387,1,0,0:0:0:0:
192,192,33574,1,0,0:0:0:0:
448,192,33762,1,0,0:0:0:0:
320,192,34137,1,0,0:0:0:0:
64,192,34137,1,0,0:0:0:0:
64,192,34512,1,0,0:0:0:0:
320,192,34512,1,0,0:0:0:0:
192,192,34699,1,0,0:0:0:0:
448,192,34699,1,0,0:0:0:0:
448,192,35074,1,0,0:0:0:0:
192,192,35074,1,0,0:0:0:0:
64,192,35262,1,0,0:0:0:0:
320,192,35262,1,0,0:0:0:0:
448,192,35824,1,0,0:0:0:0:
448,192,36199,1,0,0:0:0:0:
192,192,36387,1,0,0:0:0:0:
320,192,36574,1,0,0:0:0:0:
64,192,36762,1,0,0:0:0:0:
192,192,36949,1,0,0:0:0:0:
448,192,37137,1,0,0:0:0:0:
64,192,37137,1,0,0:0:0:0:
448,192,37512,1,0,0:0:0:0:
192,192,37512,1,0,0:0:0:0:
320,192,37887,1,0,0:0:0:0:
448,192,38262,1,0,0:0:0:0:
64,192,38262,1,0,0:0:0:0:
192,192,38637,1,0,0:0:0:0:
320,192,39012,1,0,0:0:0:0:
64,192,39012,1,0,0:0:0:0:
192,192,39387,1,0,0:0:0:0:
64,192,39574,1,0,0:0:0:0:
448,192,39762,1,0,0:0:0:0:
320,192,40137,1,0,0:0:0:0:
192,192,40137,1,0,0:0:0:0:
64,192,40512,1,0,0:0:0:0:
320,192,40512,1,0,0:0:0:0:
448,192,40699,1,0,0:0:0:0:
192,192,40699,1,0,0:0:0:0:
320,192,41074,1,0,0:0:0:0:
64,192,41074,1,0,0:0:0:0:
192,192,41262,1,0,0:0:0:0:
448,192,41262,1,0,0:0:0:0:
448,192,61137,5,0,0:0:0:0:
64,192,61137,1,0,0:0:0:0:
320,192,61324,1,0,0:0:0:0:
448,192,61512,1,0,0:0:0:0:
192,192,61512,1,0,0:0:0:0:
320,192,61699,1,0,0:0:0:0:
448,192,61887,1,0,0:0:0:0:
64,192,61887,1,0,0:0:0:0:
192,192,62262,1,0,0:0:0:0:
320,192,62262,1,0,0:0:0:0:
448,192,62637,128,0,63012:0:0:0:0:
64,192,62637,1,0,0:0:0:0:
192,192,63012,128,0,63387:0:0:0:0:
320,192,63012,1,0,0:0:0:0:
320,192,63387,128,0,63762:0:0:0:0:
448,192,63387,1,0,0:0:0:0:
64,192,63762,128,0,64137:0:0:0:0:
192,192,63762,1,0,0:0:0:0:
448,192,64137,1,0,0:0:0:0:
320,192,64137,1,0,0:0:0:0:
448,192,206637,5,0,0:0:0:0:
