osu file format v14

[General]
AudioFilename: Kimi o Nosete.mp3
AudioLeadIn: 1500
PreviewTime: 49944
Countdown: 0
SampleSet: Soft
StackLeniency: 0.3
Mode: 0
LetterboxInBreaks: 0
EpilepsyWarning: 1
WidescreenStoryboard: 1

[Editor]
Bookmarks: 171534
DistanceSpacing: 2
BeatDivisor: 4
GridSize: 4
TimelineZoom: 1

[Metadata]
Title:Kimi o Nosete
TitleUnicode:キミを乗せて
Artist:senya
ArtistUnicode:senya
Creator:-Mo-
Version:Catharsis
Source:艦隊これくしょん~艦これ~
Tags:smsh150 Yuuhei Catharsis 幽閉カタルシス Kantai Collection~KanColle~ Collection KanColle 艦隊これくしょん 艦これ Kamase-tora かませ虎 Deitarabotchi でいたらぼっち 深海より愛を込めて 冬の抜錨! 森永真由美 Mayumi Morinaga Korekushon Combined Fleet C86
BeatmapID:651596
BeatmapSetID:288997

[Difficulty]
HPDrainRate:6.5
CircleSize:4
OverallDifficulty:7.5
ApproachRate:9
SliderMultiplier:1.6
SliderTickRate:1

[Events]
//Background and Video events
0,0,"HarunaBG.jpg",0,0
//Break Periods
2,12734,23934
//Storyboard Layer 0 (Background)
//Storyboard Layer 1 (Fail)
//Storyboard Layer 2 (Pass)
//Storyboard Layer 3 (Foreground)
Sprite,Foreground,Centre,"SB/Highlight.png",354,118 F,0,159,534,0,1 S,0,159,534,0.375,5 F,0,534,909,1,0
Sprite,Foreground,Centre,"SB/Ring.png",320,240 M,0,50034,,131,407 F,2,50034,50784,1,0 S,1,50034,50784,0.2,1 M,0,62034,,301,239 F,2,62034,62784,1,0 S,1,62034,62784,0.2,1 M,0,123534,,312,104 F,2,123534,124284,1,0 S,1,123534,124284,0.2,1 M,0,135534,,367,295 F,2,135534,136284,1,0 S,1,135534,136284,0.2,1 M,0,147534,,557,130 F,2,147534,148284,1,0 S,1,147534,148284,0.2,1 M,0,159534,,456,315 F,2,159534,160284,1,0 S,1,159534,160284,0.2,1 M,0,171534,,498,94 F,2,171534,172284,1,0 S,1,171534,172284,0.2,1
//Storyboard Sound Samples

[TimingPoints]
534,375,4,2,3,50,1,0
534,-117.647058823529,4,2,3,50,0,0
6534,-100,4,2,3,75,0,0
11034,-100,4,2,1,90,0,0
24534,-100,4,2,1,75,0,0
25846,-100,4,2,1,20,0,0
26034,-100,4,2,1,75,0,0
50034,-100,4,2,1,90,0,1
61940,-100,4,2,1,90,0,0
62034,-100,4,2,1,90,0,1
74034,-100,4,2,1,75,0,0
75346,-100,4,2,1,20,0,0
75534,-100,4,2,1,75,0,0
78534,-117.647058823529,4,2,1,50,0,0
78909,-117.647058823529,4,2,0,50,0,0
79002,-117.647058823529,4,2,1,50,0,0
80409,-117.647058823529,4,2,0,50,0,0
80877,-117.647058823529,4,2,1,50,0,0
81534,-100,4,2,1,75,0,0
90534,-117.647058823529,4,2,1,50,0,0
92409,-117.647058823529,4,2,0,50,0,0
92502,-117.647058823529,4,2,1,50,0,0
93534,-100,4,2,1,75,0,0
97284,-100,4,2,1,50,0,0
99534,-117.647058823529,4,2,2,50,0,0
111534,-117.647058823529,4,2,1,50,0,0
122034,-100,4,2,1,90,0,0
123534,-86.9565217391304,4,2,1,100,0,1
135440,-86.9565217391304,4,2,1,100,0,0
135534,-86.9565217391304,4,2,1,100,0,1
147534,-86.9565217391304,4,2,1,100,0,0

[Colours]
Combo1 : 255,164,164
Combo2 : 43,64,255
Combo3 : 255,51,51
Combo4 : 156,227,255

[HitObjects]
290,54,534,6,0,P|224:58|179:107,1,136.000002593994,6|0,0:0|0:0,0:0:0:0:
175,242,1096,1,0,0:0:0:0:
175,242,1190,1,0,0:0:0:0:
175,242,1284,2,0,L|242:251,1,68.0000012969971,2|0,0:0|0:0,0:0:0:0:
354,185,1659,2,0,L|286:174,1,68.0000012969971
146,154,2034,6,0,L|213:163,2,68.0000012969971,2|0|0,0:0|0:0|0:0,0:0:0:0:
304,109,2596,2,0,L|287:174,1,68.0000012969971,0|2,0:0|0:0,0:0:0:0:
250,313,2971,2,0,L|266:247,1,68.0000012969971
304,109,3346,1,0,0:0:0:0:
308,104,3534,6,0,P|374:105|419:153,1,136.000002593994,2|0,0:0|0:0,0:0:0:0:
404,273,4096,1,0,0:0:0:0:
400,277,4190,1,0,0:0:0:0:
396,281,4284,2,0,B|383:306|383:306|343:301|319:333,2,102.000001945496,2|0|0,0:0|0:0|0:0,0:0:0:0:
328,178,5034,6,0,P|294:176|261:184,2,68.0000012969971,2|0|0,0:0|0:0|0:0,0:0:0:0:
259,275,5596,2,0,P|226:283|192:281,1,68.0000012969971,0|2,0:0|0:0,0:0:0:0:
101,204,5971,2,0,P|133:195|167:197,1,68.0000012969971
97,293,6346,1,0,0:0:0:0:
19,129,6534,6,0,P|52:59|127:38,1,160,2|0,0:0|0:0,0:0:0:0:
275,73,7096,1,0,0:0:0:0:
275,73,7190,1,0,0:0:0:0:
275,73,7284,2,0,B|312:85|312:85|283:143|308:205,1,160,2|0,0:0|0:0,0:0:0:0:
445,287,7846,1,0,0:0:0:0:
445,287,7940,1,0,0:0:0:0:
445,287,8034,6,0,L|453:207,1,80,2|0,0:0|0:0,0:0:0:0:
330,284,8409,2,0,L|338:363,1,80
221,278,8784,2,0,L|212:198,1,80,2|0,0:0|0:0,0:0:0:0:
86,211,9159,2,0,L|94:131,1,80
211,35,9534,5,2,0:0:0:0:
217,33,9721,2,0,P|257:36|293:52,1,80
328,208,10096,1,0,0:0:0:0:
328,208,10190,1,0,0:0:0:0:
328,208,10284,2,0,B|321:254|286:275|286:275|308:310,2,120,2|0|0,0:0|0:0|0:0,0:0:0:0:
256,192,11034,12,4,12534,0:0:0:0:
256,192,24534,12,0,25846,0:0:0:0:
359,160,26034,6,0,P|345:84|282:37,1,160,6|8,0:0|0:0,0:0:0:0:
144,88,26596,1,0,0:0:0:0:
140,92,26690,1,0,0:0:0:0:
136,96,26784,2,0,L|56:96,1,80,2|0,0:0|0:0,0:0:0:0:
152,188,27159,2,0,L|232:188,1,80,8|0,0:0|0:0,0:0:0:0:
416,104,27534,6,0,P|424:163|419:222,1,120,2|0,0:0|0:0,0:0:0:0:
391,257,27909,2,0,P|334:242|276:255,1,120,8|0,0:0|0:0,0:0:0:0:
235,276,28284,2,0,P|178:289|120:273,1,120,2|0,0:0|0:0,0:0:0:0:
88,244,28659,1,8,0:0:0:0:
38,121,28846,1,0,0:0:0:0:
199,128,29034,6,0,B|237:131|237:131|285:83|348:91,1,160,2|8,0:0|0:0,0:0:0:0:
419,222,29596,1,0,0:0:0:0:
419,222,29690,1,0,0:0:0:0:
419,222,29784,2,0,L|422:142,1,80,2|0,0:0|0:0,0:0:0:0:
487,13,30159,2,0,L|483:92,1,80,8|0,0:0|0:0,0:0:0:0:
340,168,30534,6,0,P|336:129|346:90,1,80,2|0,0:0|0:0,0:0:0:0:
413,239,30909,2,0,P|379:262|341:272,1,80,8|0,0:0|0:0,0:0:0:0:
199,199,31284,2,0,P|232:175|270:165,2,80,2|0|8,0:0|0:0|0:0,0:0:0:0:
205,326,31846,1,0,0:0:0:0:
383,235,32034,6,0,B|405:220|405:220|330:192|338:117,1,160,2|8,0:0|0:0,0:0:0:0:
464,67,32596,1,0,0:0:0:0:
464,67,32690,1,0,0:0:0:0:
464,67,32784,2,0,P|450:104|424:134,1,80,2|0,0:0|0:0,0:0:0:0:
285,159,33159,2,0,P|252:182|229:215,1,80,8|0,0:0|0:0,0:0:0:0:
163,363,33534,6,0,B|129:348|129:348|166:292|142:230,1,160,2|8,0:0|0:0,0:0:0:0:
74,111,34096,1,0,0:0:0:0:
70,107,34190,1,0,0:0:0:0:
66,103,34284,2,0,L|146:79,1,80,2|0,0:0|0:0,0:0:0:0:
290,98,34659,2,0,L|210:122,1,80,8|0,0:0|0:0,0:0:0:0:
66,204,35034,6,0,B|89:218|91:245|91:245|107:240|107:240|115:294|147:321,1,160,2|8,0:0|0:0,0:0:0:0:
272,349,35596,1,0,0:0:0:0:
234,226,35784,2,0,B|242:182|242:182|274:159|274:159|279:123,2,120,2|0|0,0:0|0:0|0:0,0:0:0:0:
346,346,36534,6,0,P|382:331|408:301,1,80,2|0,0:0|0:0,0:0:0:0:
484,128,36909,1,8,0:0:0:0:
446,213,37096,1,0,0:0:0:0:
442,217,37190,1,0,0:0:0:0:
438,221,37284,2,0,L|359:207,1,80,2|0,0:0|0:0,0:0:0:0:
259,111,37659,2,0,L|338:97,1,80,8|0,0:0|0:0,0:0:0:0:
282,235,38034,6,0,B|250:261|250:261|222:206|159:192,1,160,6|8,0:0|0:0,0:0:0:0:
48,239,38596,1,0,0:0:0:0:
44,243,38690,1,0,0:0:0:0:
40,247,38784,2,0,B|7:218|2:178,1,80,2|0,0:0|0:0,0:0:0:0:
159,192,39159,2,0,B|191:220|196:260,1,80,8|0,0:0|0:0,0:0:0:0:
304,144,39534,6,0,B|333:111|373:106,1,80,2|0,0:0|0:0,0:0:0:0:
343,211,39909,1,8,0:0:0:0:
253,85,40096,1,0,0:0:0:0:
151,202,40284,2,0,P|139:239|141:279,2,80,2|0|8,0:0|0:0|0:0,0:0:0:0:
286,192,40846,1,0,0:0:0:0:
230,344,41034,6,0,P|191:355|152:350,1,80,2|0,0:0|0:0,0:0:0:0:
286,192,41409,2,0,P|324:180|363:184,1,80,8|0,0:0|0:0,0:0:0:0:
182,240,41784,2,0,P|170:201|174:162,1,80,2|0,0:0|0:0,0:0:0:0:
334,296,42159,2,0,P|345:334|341:373,1,80,8|0,0:0|0:0,0:0:0:0:
255,194,42534,6,0,P|310:141|386:154,1,160,2|8,0:0|0:0,0:0:0:0:
318,62,43096,1,0,0:0:0:0:
335,220,43284,2,0,P|338:260|336:300,1,80,2|0,0:0|0:0,0:0:0:0:
255,194,43659,2,0,P|251:153|253:113,1,80,8|0,0:0|0:0,0:0:0:0:
186,277,44034,6,0,L|186:317,3,40,2|0|0|0,3:2|3:2|3:2|3:2,3:2:0:0:
162,249,44409,2,0,L|142:284,3,40,8|0|0|0,3:2|3:2|3:2|3:2,3:2:0:0:
205,192,44784,2,0,P|238:170|278:169,1,80,2|0,3:2|3:2,3:2:0:0:
409,199,45159,2,0,P|374:219|335:220,1,80,8|0,3:2|3:2,3:2:0:0:
338,91,45534,6,0,L|338:50,3,40,2|0|0|0,3:2|3:2|3:2|3:2,3:2:0:0:
373,79,45909,2,0,L|393:44,3,40,8|0|0|0,3:2|3:2|3:2|3:2,3:2:0:0:
429,124,46284,2,0,P|438:162|427:201,1,80,2|0,3:2|3:2,3:2:0:0:
356,316,46659,2,0,P|345:277|356:239,1,80,8|0,3:2|3:2,3:2:0:0:
373,79,47034,6,0,P|309:31|241:65,1,160,2|8,3:2|3:2,3:2:0:0:
166,183,47596,1,0,3:2:0:0:
162,187,47690,1,0,3:2:0:0:
158,191,47784,2,0,B|125:182|125:182|80:209|43:199,2,120,2|0|0,3:2|3:2|3:2,3:2:0:0:
288,254,48534,6,0,L|296:296,1,40,2|0,3:0|3:2,3:2:0:0:
412,280,48721,2,0,L|454:285,1,40,2|0,3:2|3:2,3:2:0:0:
439,155,48909,2,0,L|457:116,1,40,10|0,3:2|3:2,3:2:0:0:
313,128,49096,2,0,L|270:122,1,40,2|0,3:2|3:2,3:2:0:0:
210,156,49284,5,6,3:0:0:0:
189,182,49377,1,2,3:2:0:0:
176,211,49471,1,2,3:2:0:0:
170,242,49565,1,2,3:2:0:0:
164,273,49659,5,10,3:0:0:0:
147,299,49752,1,2,3:2:0:0:
124,322,49846,1,2,3:0:0:0:
98,340,49940,1,2,3:2:0:0:
67,351,50034,6,0,P|41:322|26:285,1,80,6|0,0:0|0:0,0:0:0:0:
195,354,50409,1,8,0:0:0:0:
346,251,50596,1,0,0:0:0:0:
350,247,50690,1,0,0:0:0:0:
354,243,50784,2,0,P|383:217|420:202,1,80,2|0,0:0|0:0,0:0:0:0:
302,170,51159,2,0,P|266:156|236:129,1,80,8|0,0:0|0:0,0:0:0:0:
87,52,51534,6,0,P|63:82|52:121,1,80,2|0,0:0|0:0,0:0:0:0:
36,264,51909,1,8,0:0:0:0:
159,190,52096,1,0,3:0:0:0:
163,186,52190,1,0,3:0:0:0:
167,182,52284,1,2,0:0:0:0:
322,217,52471,1,0,0:0:0:0:
167,182,52659,1,8,0:0:0:0:
280,62,52846,1,0,0:0:0:0:
423,129,53034,6,0,P|450:158|469:193,1,80,2|0,0:0|0:0,0:0:0:0:
445,335,53409,1,8,0:0:0:0:
340,237,53596,1,0,0:0:0:0:
336,233,53690,1,0,0:0:0:0:
332,229,53784,2,0,B|312:204|312:204|339:168|330:120,2,120,2|0|0,0:0|0:0|0:0,0:0:0:0:
266,357,54534,5,2,0:0:0:0:
218,139,54721,1,0,3:0:0:0:
216,133,54815,1,0,3:0:0:0:
214,127,54909,1,8,0:0:0:0:
71,210,55096,1,0,0:0:0:0:
210,290,55284,1,2,0:0:0:0:
71,210,55471,1,0,3:0:0:0:
210,290,55659,2,0,P|248:280|281:258,1,80,8|0,3:2|0:0,0:0:0:0:
355,77,56034,6,0,P|331:46|297:25,2,80,2|0|8,0:0|0:0|0:0,0:0:0:0:
244,192,56596,1,0,0:0:0:0:
240,196,56690,1,0,0:0:0:0:
236,200,56784,2,0,B|193:182|178:148|178:148|148:174,1,120,2|0,0:0|0:0,0:0:0:0:
133,243,57159,1,8,0:0:0:0:
204,41,57346,1,0,0:0:0:0:
436,68,57534,6,0,L|443:147,1,80,2|0,0:0|0:0,0:0:0:0:
321,128,57909,2,0,L|313:207,1,80,8|0,0:0|0:0,0:0:0:0:
191,256,58284,2,0,L|183:176,1,80,2|0,0:0|0:0,0:0:0:0:
76,316,58659,2,0,L|83:236,1,80,8|0,0:0|0:0,0:0:0:0:
104,37,59034,5,2,0:0:0:0:
96,116,59221,2,0,P|135:109|166:85,1,80,0|8,0:0|0:0,0:0:0:0:
308,15,59596,1,0,0:0:0:0:
312,11,59690,1,0,0:0:0:0:
316,7,59784,2,0,B|352:10|352:10|357:46|397:78,2,120,2|0|0,0:0|0:0|0:0,0:0:0:0:
233,105,60534,6,0,P|230:144|237:184,1,80,2|0,0:0|0:0,0:0:0:0:
259,296,60909,1,8,0:0:0:0:
67,337,61096,1,0,3:0:0:0:
63,341,61190,1,0,3:0:0:0:
59,345,61284,1,2,0:0:0:0:
129,150,61471,1,0,0:0:0:0:
176,373,61659,1,8,0:0:0:0:
44,226,61846,1,0,0:0:0:0:
237,183,62034,6,0,P|276:180|313:195,1,80,6|0,0:0|0:0,0:0:0:0:
259,296,62409,1,8,0:0:0:0:
223,114,62596,1,0,0:0:0:0:
221,108,62690,1,0,0:0:0:0:
219,102,62784,2,0,L|244:25,1,80,2|0,0:0|0:0,0:0:0:0:
328,145,63159,2,0,L|353:222,1,80,8|0,0:0|0:0,0:0:0:0:
425,84,63534,6,0,P|398:54|362:34,1,80,2|0,0:0|0:0,0:0:0:0:
203,45,63909,1,8,0:0:0:0:
328,145,64096,1,0,3:0:0:0:
332,149,64190,1,0,3:0:0:0:
336,153,64284,1,2,0:0:0:0:
288,0,64471,1,0,0:0:0:0:
336,153,64659,1,8,0:0:0:0:
227,270,64846,1,0,0:0:0:0:
336,153,65034,6,0,P|374:151|421:161,1,80,2|0,0:0|0:0,0:0:0:0:
375,299,65409,1,8,0:0:0:0:
243,153,65596,1,0,0:0:0:0:
239,149,65690,1,0,0:0:0:0:
235,145,65784,2,0,P|262:86|324:51,2,120,2|0|0,0:0|0:0|0:0,0:0:0:0:
311,249,66534,5,2,0:0:0:0:
420,93,66721,1,0,3:2:0:0:
424,89,66815,1,0,3:2:0:0:
428,85,66909,1,8,3:2:0:0:
235,145,67096,1,0,0:0:0:0:
428,85,67284,1,2,0:0:0:0:
311,249,67471,1,0,3:2:0:0:
311,42,67659,1,8,3:2:0:0:
432,210,67846,1,0,0:0:0:0:
235,145,68034,6,0,P|236:106|248:64,2,80,2|0|8,3:2|3:2|3:2,3:2:0:0:
148,248,68596,1,0,3:2:0:0:
144,252,68690,1,0,3:2:0:0:
140,256,68784,2,0,P|139:295|145:335,2,80,2|0|8,3:2|3:2|3:2,3:2:0:0:
81,123,69346,1,0,3:2:0:0:
77,119,69440,1,0,3:2:0:0:
73,115,69534,6,0,P|72:75|78:35,1,80,2|0,3:2|3:2,3:2:0:0:
140,256,69909,2,0,P|139:295|145:335,1,80,8|0,3:2|3:2,3:2:0:0:
238,123,70284,2,0,P|239:84|251:42,1,80,2|0,3:2|3:2,3:2:0:0:
320,262,70659,2,0,P|321:301|331:340,1,80,8|0,3:2|3:2,3:2:0:0:
408,113,71034,5,2,3:2:0:0:
416,192,71221,2,0,P|377:185|346:161,1,80,0|8,3:2|3:2,3:2:0:0:
275,40,71596,1,0,3:2:0:0:
271,36,71690,1,0,3:2:0:0:
267,32,71784,2,0,B|248:17|248:17|203:47|156:24,2,120,2|0|0,3:2|3:2|3:2,3:2:0:0:
271,152,72534,6,0,L|267:199,1,40,2|0,3:0|3:2,3:2:0:0:
182,250,72721,2,0,L|178:203,1,40,2|0,3:2|3:2,3:2:0:0:
265,284,72909,2,0,L|261:331,1,40,10|0,3:2|3:2,3:2:0:0:
176,382,73096,2,0,L|172:335,1,40,2|0,3:2|3:2,3:2:0:0:
254,212,73284,5,6,3:0:0:0:
284,204,73377,1,2,3:2:0:0:
315,208,73471,1,2,3:2:0:0:
345,221,73565,1,2,3:2:0:0:
369,243,73659,5,10,3:0:0:0:
398,249,73752,1,2,3:2:0:0:
430,244,73846,1,2,3:0:0:0:
459,229,73940,1,2,3:2:0:0:
256,192,74034,12,0,75346,0:0:0:0:
350,321,75534,6,0,P|277:291|240:223,1,160,6|8,0:0|0:0,0:0:0:0:
302,115,76096,1,0,0:0:0:0:
306,111,76190,1,0,0:0:0:0:
310,107,76284,2,0,P|273:93|233:92,1,80,2|0,0:0|0:0,0:0:0:0:
120,180,76659,2,0,P|80:179|42:165,1,80,8|0,0:0|0:0,0:0:0:0:
212,36,77034,6,0,P|211:94|187:154,1,120,2|0,0:0|0:0,0:0:0:0:
167,189,77409,2,0,P|176:247|205:299,1,120,8|0,0:0|0:0,0:0:0:0:
242,324,77784,2,0,P|299:312|363:323,1,120,2|0,0:0|0:0,0:0:0:0:
400,338,78159,1,8,0:0:0:0:
448,200,78346,1,0,0:0:0:0:
375,84,78534,6,0,B|338:70|338:70|321:104|291:123|291:123|295:185|256:205|256:205|240:177,1,238.00000453949,2|0,0:0|0:0,0:0:0:0:
210,115,79284,2,0,B|185:112|166:127|166:127|157:161|133:169,1,102.000001945496,2|0,0:0|0:0,0:0:0:0:
68,190,79659,2,0,B|60:217|63:243|63:243|78:266|99:274,1,102.000001945496,2|0,0:0|0:0,0:0:0:0:
167,287,80034,2,0,B|183:325|173:373|173:373|233:316|236:267|236:267|229:200|267:158|267:158|271:202|286:232,1,408.000007781983,2|8,0:0|0:0,0:0:0:0:
420,130,81534,6,0,B|425:95|425:95|378:60|303:73,1,160,2|8,0:0|0:0,0:0:0:0:
213,204,82096,1,0,0:0:0:0:
209,208,82190,1,0,0:0:0:0:
205,212,82284,2,0,B|208:250|232:285,1,80,2|0,0:0|0:0,0:0:0:0:
371,189,82659,2,0,B|337:173|293:175,1,80,8|0,0:0|0:0,0:0:0:0:
365,329,83034,6,0,B|396:341|396:341|440:303|443:228,1,160,2|8,0:0|0:0,0:0:0:0:
329,125,83596,1,0,0:0:0:0:
323,123,83690,1,0,0:0:0:0:
317,121,83784,2,0,B|279:130|249:160,1,80,2|0,0:0|0:0,0:0:0:0:
251,308,84159,2,0,B|287:297|318:268,1,80,8|0,0:0|0:0,0:0:0:0:
170,204,84534,6,0,B|150:225|150:225|172:247|172:247|137:295|156:341,1,160,2|8,0:0|0:0,0:0:0:0:
280,225,85096,1,0,0:0:0:0:
197,128,85284,2,0,B|164:111|164:111|133:149|92:142,2,120,2|0|0,0:0|0:0|0:0,0:0:0:0:
312,229,86034,6,0,P|320:267|309:305,1,80,2|0,0:0|0:0,0:0:0:0:
186,329,86409,1,8,0:0:0:0:
246,185,86596,1,0,0:0:0:0:
250,181,86690,1,0,0:0:0:0:
254,177,86784,2,0,P|277:145|310:124,1,80,2|0,0:0|0:0,0:0:0:0:
244,276,87159,2,0,P|220:307|186:329,1,80,8|0,0:0|0:0,0:0:0:0:
168,195,87534,6,0,P|236:156|314:166,1,160,6|8,0:0|0:0,0:0:0:0:
300,325,88096,1,0,0:0:0:0:
298,331,88190,1,0,0:0:0:0:
296,337,88284,2,0,B|268:305|268:305|268:267,1,80,2|0,0:0|0:0,0:0:0:0:
403,215,88659,2,0,B|389:255|389:255|356:273,1,80,8|0,0:0|0:0,0:0:0:0:
245,190,89034,5,2,0:0:0:0:
243,184,89221,2,0,B|284:175|284:175|317:194,1,80,0|8,0:0|0:0,0:0:0:0:
185,254,89596,1,0,0:0:0:0:
179,256,89784,2,0,B|152:229|152:229|153:145|153:145|125:118,1,160,2|8,0:0|0:0,0:0:0:0:
30,227,90346,1,0,0:0:0:0:
123,335,90534,6,0,B|159:324|163:278|163:278|179:256,1,102.000001945496,2|0,0:0|0:0,0:0:0:0:
227,206,90909,2,0,B|192:219|192:219|202:183|197:154,1,102.000001945496,2|0,0:0|0:0,0:0:0:0:
207,86,91284,2,0,B|244:74|244:74|267:103|293:112,1,102.000001945496,2|0,0:0|0:0,0:0:0:0:
356,143,91659,2,0,B|359:192|359:192|410:180,1,102.000001945496,2|0,0:0|0:0,0:0:0:0:
437,115,92034,2,0,B|395:117|356:143|356:143|359:192|359:192|330:228|279:215|279:215|292:191|309:179,1,272.000005187988,2|2,0:0|0:0,0:0:0:0:
441,111,92971,2,0,P|452:78|467:48,2,68.0000012969971,0|8|0,0:0|0:0|0:0,0:0:0:0:
446,292,93534,6,0,B|434:332|434:332|380:309|317:331,1,160,2|8,0:0|0:0,0:0:0:0:
185,362,94096,1,0,0:0:0:0:
179,364,94190,1,0,0:0:0:0:
173,366,94284,2,0,P|162:329|171:290,1,80,2|0,0:0|0:0,0:0:0:0:
344,252,94659,2,0,P|355:291|347:330,1,80,8|0,0:0|0:0,0:0:0:0:
245,209,95034,6,0,B|229:176|229:176|249:155|249:155|226:118|241:63,1,160,2|8,0:0|0:0,0:0:0:0:
426,21,95596,1,0,0:0:0:0:
432,19,95690,1,0,0:0:0:0:
438,17,95784,2,0,P|448:55|440:94,1,80,2|0,0:0|0:0,0:0:0:0:
328,236,96159,2,0,P|317:197|325:158,1,80,8|0,0:0|0:0,0:0:0:0:
360,68,96534,6,0,P|308:26|292:91,1,160,2|0,0:0|0:0,0:0:0:0:
256,192,97284,12,0,99159,0:0:0:0:
202,117,99534,6,0,B|164:135|164:135|139:175|158:225,1,136.000002593994,6|0,0:0|0:0,0:0:0:0:
195,321,100096,1,0,0:0:0:0:
199,325,100190,1,0,0:0:0:0:
203,329,100284,2,0,P|237:336|270:331,1,68.0000012969971,2|0,0:0|0:0,0:0:0:0:
362,243,100659,2,0,P|328:236|295:240,1,68.0000012969971
146,272,101034,6,0,B|112:229|140:169|140:169|139:113|112:78|112:78|83:109|96:138,1,272.000005187988,2|2,0:0|0:0,0:0:0:0:
213,219,101971,1,0,0:0:0:0:
285,103,102159,2,0,P|320:110|353:130,1,68.0000012969971
383,258,102534,6,0,B|379:290|379:290|347:337|288:328,1,136.000002593994,2|0,0:0|0:0,0:0:0:0:
187,261,103096,1,0,0:0:0:0:
183,257,103190,1,0,0:0:0:0:
179,253,103284,2,0,B|152:280|115:279|115:279|100:307,2,102.000001945496,2|0|0,0:0|0:0|0:0,0:0:0:0:
225,112,104034,6,0,B|192:75|143:82|143:82|118:123|59:131|59:131|39:122|28:108|28:108|46:94|66:93,1,272.000005187988,2|2,0:0|0:0,0:0:0:0:
143,203,104971,1,0,0:0:0:0:
45,298,105159,2,0,P|70:318|101:333,1,68.0000012969971
143,203,105534,6,0,B|151:163|151:163|201:171|237:132,1,136.000002593994,2|0,0:0|0:0,0:0:0:0:
267,265,106096,1,0,0:0:0:0:
269,271,106190,1,0,0:0:0:0:
271,277,106284,2,0,B|261:310|230:329|230:329|257:357|289:361,1,136.000002593994,2|0,0:0|0:0,0:0:0:0:
426,332,106846,1,0,0:0:0:0:
432,330,106940,1,0,0:0:0:0:
438,328,107034,6,0,L|447:260,1,68.0000012969971,2|0,0:0|0:0,0:0:0:0:
346,172,107409,2,0,L|355:239,1,68.0000012969971
255,236,107784,2,0,L|245:303,1,68.0000012969971,2|0,0:0|0:0,0:0:0:0:
164,205,108159,2,0,L|154:137,1,68.0000012969971
80,54,108534,5,2,0:0:0:0:
74,52,108721,2,0,L|64:127,1,68.0000012969971
78,223,109096,1,0,0:0:0:0:
80,229,109190,1,0,0:0:0:0:
82,235,109284,2,0,B|57:257|57:257|63:290|45:323,2,102.000001945496,2|0|0,0:0|0:0|0:0,0:0:0:0:
178,157,110034,6,0,B|212:150|245:165,1,68.0000012969971,2|0,0:0|0:0,0:0:0:0:
321,216,110409,1,0,0:0:0:0:
411,237,110596,1,0,0:0:0:0:
417,239,110690,1,0,0:0:0:0:
423,241,110784,1,2,0:0:0:0:
400,87,110971,1,0,0:0:0:0:
321,216,111159,1,0,0:0:0:0:
461,158,111346,1,0,0:0:0:0:
313,121,111534,6,0,B|290:120|270:127|270:127|269:168|229:207,1,136.000002593994,6|8,0:0|0:0,0:0:0:0:
99,250,112096,1,0,0:0:0:0:
93,252,112190,1,0,0:0:0:0:
87,254,112284,2,0,L|75:186,1,68.0000012969971,2|0,0:0|0:0,0:0:0:0:
187,265,112659,2,0,L|175:332,1,68.0000012969971,8|0,0:0|0:0,0:0:0:0:
280,245,113034,6,0,B|309:209|299:166|299:166|290:115|348:89|348:89|361:135|340:175,1,272.000005187988,2|2,0:0|0:0,0:0:0:0:
202,185,113971,1,0,0:0:0:0:
206,48,114159,2,0,P|245:33|285:33,1,68.0000012969971,8|0,0:0|0:0,0:0:0:0:
385,107,114534,6,0,B|384:140|351:161|351:161|319:133|286:141,1,136.000002593994,2|8,0:0|0:0,0:0:0:0:
155,183,115096,1,0,0:0:0:0:
149,185,115190,1,0,0:0:0:0:
143,187,115284,2,0,B|130:147|143:117|143:117|117:101,2,102.000001945496,2|0|0,0:0|0:0|0:0,0:0:0:0:
252,272,116034,6,0,B|298:274|327:229|327:229|340:276|388:300|436:290|436:259|421:233|386:228,1,272.000005187988,2|2,0:0|0:0,0:0:0:0:
252,186,116971,1,0,0:0:0:0:
165,291,117159,2,0,P|131:293|97:287,1,68.0000012969971,8|0,0:0|0:0,0:0:0:0:
103,124,117534,6,0,B|117:86|117:86|164:107|210:93,1,136.000002593994,2|8,3:2|3:2,3:2:0:0:
340,55,118096,1,0,3:2:0:0:
346,53,118190,1,0,3:2:0:0:
352,51,118284,2,0,B|402:62|427:105|427:105|452:71,1,136.000002593994,2|8,3:2|3:2,3:2:0:0:
427,195,118846,1,0,3:2:0:0:
425,201,118940,1,0,3:2:0:0:
423,207,119034,6,0,L|418:275,1,68.0000012969971,2|0,3:2|3:2,3:2:0:0:
312,289,119409,2,0,L|317:357,1,68.0000012969971,8|0,3:2|3:2,3:2:0:0:
221,227,119784,2,0,L|226:159,1,68.0000012969971,2|0,3:2|3:2,3:2:0:0:
133,103,120159,2,0,L|128:35,1,68.0000012969971,8|0,3:2|3:2,3:2:0:0:
43,138,120534,5,2,3:2:0:0:
39,142,120721,2,0,L|53:208,1,68.0000012969971,0|8,3:2|3:2,3:2:0:0:
119,286,121096,1,0,3:2:0:0:
119,286,121190,1,0,3:2:0:0:
119,286,121284,2,0,B|98:317|98:317|115:348|119:377,2,102.000001945496,2|0|0,3:2|3:2|3:2,3:2:0:0:
196,148,122034,6,0,L|204:104,1,40,2|0,3:0|3:2,3:2:0:0:
292,164,122221,2,0,L|284:124,1,40,2|0,3:2|3:2,3:2:0:0:
356,232,122409,2,0,L|364:272,1,40,10|0,3:2|3:2,3:2:0:0:
452,248,122596,2,0,L|444:287,1,40,2|0,3:2|3:2,3:2:0:0:
464,148,122784,5,6,3:0:0:0:
441,125,122877,1,2,3:2:0:0:
413,111,122971,1,2,3:2:0:0:
381,109,123065,1,2,3:2:0:0:
350,117,123159,5,10,3:0:0:0:
318,114,123252,1,2,3:2:0:0:
290,100,123346,1,2,3:0:0:0:
265,79,123440,1,2,3:2:0:0:
248,48,123534,6,0,P|204:24|148:28,1,92.0000017547608,6|0,0:0|0:0,0:0:0:0:
16,97,123909,1,8,0:0:0:0:
153,187,124096,1,0,0:0:0:0:
157,191,124190,1,0,0:0:0:0:
161,195,124284,2,0,L|172:286,1,92.0000017547608,2|0,0:0|0:0,0:0:0:0:
257,131,124659,2,0,L|268:39,1,92.0000017547608,8|0,0:0|0:0,0:0:0:0:
365,188,125034,6,0,P|321:235|283:252,1,92.0000017547608,2|0,0:0|0:0,0:0:0:0:
186,123,125409,1,8,0:0:0:0:
347,88,125596,1,0,3:0:0:0:
353,86,125690,1,0,3:0:0:0:
359,84,125784,1,2,0:0:0:0:
297,247,125971,1,0,0:0:0:0:
186,123,126159,1,8,0:0:0:0:
297,247,126346,1,0,0:0:0:0:
359,84,126534,6,0,P|339:41|305:10,1,92.0000017547608,2|0,0:0|0:0,0:0:0:0:
186,123,126909,1,8,0:0:0:0:
43,39,127096,1,0,0:0:0:0:
39,35,127190,1,0,0:0:0:0:
35,31,127284,2,0,B|11:52|11:52|39:99|15:156,2,138.000002632141,2|0|0,0:0|0:0|0:0,0:0:0:0:
126,211,128034,5,2,0:0:0:0:
159,19,128221,1,0,3:0:0:0:
161,13,128315,1,0,3:0:0:0:
163,7,128409,1,8,0:0:0:0:
46,98,128596,1,0,0:0:0:0:
126,211,128784,1,2,0:0:0:0:
239,132,128971,1,0,3:0:0:0:
46,98,129159,1,8,3:2:0:0:
239,132,129346,1,0,0:0:0:0:
181,318,129534,6,0,P|135:332|85:328,2,92.0000017547608,2|0|8,0:0|0:0|0:0,0:0:0:0:
313,202,130096,1,0,0:0:0:0:
317,198,130190,1,0,0:0:0:0:
321,194,130284,2,0,P|374:153|441:156,1,138.000002632141,2|0,0:0|0:0,0:0:0:0:
497,198,130659,1,8,0:0:0:0:
396,62,130846,1,0,0:0:0:0:
404,246,131034,6,0,L|407:337,1,92.0000017547608,2|0,0:0|0:0,0:0:0:0:
323,137,131409,2,0,L|326:46,1,92.0000017547608,8|0,0:0|0:0,0:0:0:0:
218,253,131784,2,0,L|221:344,1,92.0000017547608,2|0,0:0|0:0,0:0:0:0:
137,144,132159,2,0,L|140:53,1,92.0000017547608,8|0,0:0|0:0,0:0:0:0:
59,289,132534,5,2,0:0:0:0:
74,198,132721,2,0,P|115:217|143:255,1,92.0000017547608,0|8,0:0|0:0,0:0:0:0:
233,114,133096,1,0,0:0:0:0:
237,110,133190,1,0,0:0:0:0:
241,106,133284,2,0,B|262:69|262:69|319:50|319:50|339:21,2,138.000002632141,2|0|0,0:0|0:0|0:0,0:0:0:0:
220,271,134034,6,0,P|265:265|303:240,1,92.0000017547608,2|0,0:0|0:0,0:0:0:0:
349,149,134409,1,8,0:0:0:0:
504,229,134596,1,0,3:0:0:0:
504,229,134690,1,0,3:0:0:0:
504,229,134784,1,2,0:0:0:0:
358,324,134971,1,0,0:0:0:0:
449,144,135159,1,8,0:0:0:0:
458,319,135346,1,0,0:0:0:0:
303,239,135534,6,0,P|257:220|217:188,1,92.0000017547608,6|0,0:0|0:0,0:0:0:0:
160,41,135909,1,8,0:0:0:0:
65,176,136096,1,0,0:0:0:0:
63,182,136190,1,0,0:0:0:0:
61,188,136284,2,0,P|66:233|85:275,1,92.0000017547608,2|0,0:0|0:0,0:0:0:0:
184,128,136659,2,0,P|179:82|160:40,1,92.0000017547608,8|0,0:0|0:0,0:0:0:0:
153,243,137034,6,0,P|201:246|241:231,1,92.0000017547608,2|0,0:0|0:0,0:0:0:0:
350,105,137409,1,8,0:0:0:0:
184,128,137596,1,0,3:0:0:0:
178,130,137690,1,0,3:0:0:0:
172,132,137784,1,2,0:0:0:0:
215,318,137971,1,0,0:0:0:0:
172,132,138159,1,8,0:0:0:0:
350,105,138346,1,0,0:0:0:0:
380,295,138534,6,0,P|338:311|292:307,1,92.0000017547608,2|0,0:0|0:0,0:0:0:0:
178,189,138909,1,8,0:0:0:0:
297,99,139096,1,0,0:0:0:0:
303,97,139190,1,0,0:0:0:0:
309,95,139284,2,0,B|345:124|345:124|320:176|323:212,2,138.000002632141,2|0|0,0:0|0:0|0:0,0:0:0:0:
177,220,140034,5,2,0:0:0:0:
357,276,140221,1,0,3:0:0:0:
363,278,140315,1,0,3:0:0:0:
369,280,140409,1,8,0:0:0:0:
177,220,140596,1,0,0:0:0:0:
368,155,140784,1,2,0:0:0:0:
248,319,140971,1,0,3:0:0:0:
250,118,141159,1,8,3:2:0:0:
248,319,141346,1,0,0:0:0:0:
320,110,141534,6,0,P|329:64|324:19,2,92.0000017547608,2|0|8,3:2|3:2|3:2,3:2:0:0:
373,251,142096,1,0,3:2:0:0:
377,255,142190,1,0,3:2:0:0:
381,259,142284,2,0,P|371:304|376:349,2,92.0000017547608,2|0|8,3:2|3:2|3:2,3:2:0:0:
450,135,142846,1,0,3:2:0:0:
454,131,142940,1,0,3:2:0:0:
458,127,143034,6,0,P|467:81|462:36,1,92.0000017547608,2|0,3:2|3:2,3:2:0:0:
381,259,143409,2,0,P|371:304|376:349,1,92.0000017547608,8|0,3:2|3:2,3:2:0:0:
320,110,143784,2,0,P|329:64|324:19,1,92.0000017547608,2|0,3:2|3:2,3:2:0:0:
223,272,144159,2,0,P|213:317|218:362,1,92.0000017547608,8|0,3:2|3:2,3:2:0:0:
121,105,144534,5,2,3:2:0:0:
49,159,144721,2,0,P|84:187|129:194,1,92.0000017547608,0|8,3:2|3:2,3:2:0:0:
248,100,145096,1,0,3:2:0:0:
254,98,145190,1,0,3:2:0:0:
260,96,145284,2,0,B|295:71|330:79|330:79|364:88|391:69,2,138.000002632141,2|0|0,3:2|3:2|3:2,3:2:0:0:
152,152,146034,6,0,L|114:126,1,46.0000008773804,2|0,3:0|3:2,3:2:0:0:
44,221,146221,2,0,L|18:258,1,46.0000008773804,2|0,3:2|3:2,3:2:0:0:
112,320,146409,2,0,L|149:345,1,46.0000008773804,10|2,3:2|3:2,3:2:0:0:
222,258,146596,2,0,L|247:220,1,46.0000008773804,2|0,3:2|3:2,3:2:0:0:
232,151,146784,5,6,3:0:0:0:
266,135,146877,1,2,3:2:0:0:
302,127,146971,1,2,3:2:0:0:
338,129,147065,1,2,3:2:0:0:
373,140,147159,5,10,3:0:0:0:
410,137,147252,1,2,3:2:0:0:
443,125,147346,1,2,3:0:0:0:
475,106,147440,1,2,3:2:0:0:
493,74,147534,6,0,P|464:38|422:19,1,92.0000017547608,6|0,0:0|0:0,0:0:0:0:
276,84,147909,1,8,0:0:0:0:
414,104,148096,1,0,0:0:0:0:
276,84,148284,2,0,L|242:217,1,138.000002632141,2|0,0:0|0:0,0:0:0:0:
223,284,148659,1,8,0:0:0:0:
329,181,148846,1,0,0:0:0:0:
180,143,149034,5,2,0:0:0:0:
174,141,149221,2,0,P|129:149|94:178,1,92.0000017547608,2|8,0:0|0:0,0:0:0:0:
41,329,149596,1,0,0:0:0:0:
178,256,149784,1,2,0:0:0:0:
26,240,149971,1,0,3:2:0:0:
20,242,150065,1,0,3:2:0:0:
14,244,150159,2,0,P|20:289|41:329,1,92.0000017547608,8|0,0:0|0:0,0:0:0:0:
131,204,150534,6,0,L|157:115,1,92.0000017547608,2|0,0:0|0:0,0:0:0:0:
300,161,150909,1,8,0:0:0:0:
153,112,151096,1,0,0:0:0:0:
273,9,151284,2,0,P|331:43|344:109,1,138.000002632141,2|0,0:0|0:0,0:0:0:0:
300,161,151659,1,8,0:0:0:0:
210,54,151846,1,0,0:0:0:0:
406,26,152034,5,2,0:0:0:0:
412,24,152221,2,0,P|456:32|495:56,1,92.0000017547608,2|8,0:0|0:0,0:0:0:0:
483,205,152596,1,0,0:0:0:0:
368,113,152784,1,2,0:0:0:0:
400,261,152971,1,0,3:0:0:0:
402,267,153065,1,0,3:0:0:0:
404,273,153159,1,8,0:0:0:0:
497,126,153346,1,0,0:0:0:0:
455,341,153534,6,0,P|412:356|366:350,1,92.0000017547608,2|0,0:0|0:0,0:0:0:0:
268,188,153909,2,0,P|310:172|356:178,1,92.0000017547608,8|0,0:0|0:0,0:0:0:0:
258,354,154284,1,2,0:0:0:0:
167,214,154471,1,0,0:0:0:0:
320,270,154659,1,8,0:0:0:0:
163,317,154846,1,0,0:0:0:0:
268,188,155034,5,2,0:0:0:0:
272,184,155221,2,0,P|304:152|346:134,1,92.0000017547608,2|8,0:0|0:0,0:0:0:0:
374,306,155596,1,0,0:0:0:0:
214,261,155784,1,2,0:0:0:0:
252,99,155971,1,0,3:2:0:0:
254,93,156065,1,0,3:2:0:0:
256,87,156159,1,8,0:0:0:0:
214,261,156346,1,0,0:0:0:0:
398,224,156534,6,0,P|389:179|359:142,1,92.0000017547608,2|0,0:0|0:0,0:0:0:0:
330,337,156909,1,8,0:0:0:0:
464,263,157096,1,0,0:0:0:0:
309,216,157284,2,0,P|241:204|177:227,1,138.000002632141,2|0,0:0|0:0,0:0:0:0:
135,282,157659,1,8,0:0:0:0:
251,316,157846,1,0,0:0:0:0:
169,125,158034,5,2,0:0:0:0:
165,121,158221,2,0,P|126:96|80:89,1,92.0000017547608,2|8,0:0|0:0,0:0:0:0:
85,205,158596,1,0,0:0:0:0:
240,44,158784,1,2,0:0:0:0:
301,201,158971,1,0,3:0:0:0:
303,207,159065,1,0,3:0:0:0:
305,213,159159,1,8,0:0:0:0:
376,44,159346,1,0,0:0:0:0:
392,258,159534,6,0,P|376:301|342:332,1,92.0000017547608,6|0,0:0|0:0,0:0:0:0:
168,323,159909,1,8,0:0:0:0:
302,252,160096,1,0,0:0:0:0:
168,323,160284,2,0,L|131:191,1,138.000002632141,2|0,0:0|0:0,0:0:0:0:
139,121,160659,1,8,0:0:0:0:
245,222,160846,1,0,0:0:0:0:
291,364,161034,5,2,0:0:0:0:
293,370,161221,2,0,P|318:332|333:290,1,92.0000017547608,2|8,0:0|0:0,0:0:0:0:
468,343,161596,1,0,0:0:0:0:
359,200,161784,1,2,0:0:0:0:
223,313,161971,1,0,3:0:0:0:
219,317,162065,1,0,3:0:0:0:
215,321,162159,1,8,0:0:0:0:
403,280,162346,1,0,0:0:0:0:
332,85,162534,6,0,P|291:66|246:61,1,92.0000017547608,2|0,0:0|0:0,0:0:0:0:
134,142,162909,1,8,0:0:0:0:
264,178,163096,1,0,0:0:0:0:
173,39,163284,2,0,P|105:38|48:74,1,138.000002632141,2|0,0:0|0:0,0:0:0:0:
20,139,163659,1,8,0:0:0:0:
174,218,163846,1,0,0:0:0:0:
258,43,164034,5,2,0:0:0:0:
262,39,164221,2,0,P|280:80|286:126,1,92.0000017547608,2|8,0:0|0:0,0:0:0:0:
194,278,164596,1,0,0:0:0:0:
113,120,164784,1,2,0:0:0:0:
273,201,164971,1,0,3:0:0:0:
279,203,165065,1,0,3:0:0:0:
285,205,165159,1,8,0:0:0:0:
96,230,165346,1,0,0:0:0:0:
221,107,165534,6,0,P|222:62|214:16,2,92.0000017547608,2|0|8,3:2|3:2|3:2,3:2:0:0:
152,242,166096,1,0,3:2:0:0:
148,246,166190,1,0,3:2:0:0:
144,250,166284,2,0,P|143:295|151:341,2,92.0000017547608,2|0|8,3:2|3:2|3:2,3:2:0:0:
82,137,166846,1,0,3:2:0:0:
78,133,166940,1,0,3:2:0:0:
74,129,167034,6,0,P|75:84|67:38,1,92.0000017547608,2|0,3:2|3:2,3:2:0:0:
144,250,167409,2,0,P|143:295|151:341,1,92.0000017547608,8|0,3:2|3:2,3:2:0:0:
221,107,167784,2,0,P|222:62|214:16,1,92.0000017547608,2|0,3:2|3:2,3:2:0:0:
309,263,168159,2,0,P|307:308|315:354,1,92.0000017547608,8|0,3:2|3:2,3:2:0:0:
391,105,168534,5,2,3:2:0:0:
463,159,168721,2,0,P|428:187|383:194,1,92.0000017547608,0|8,3:2|3:2,3:2:0:0:
244,90,169096,1,0,3:2:0:0:
238,88,169190,1,0,3:2:0:0:
232,86,169284,2,0,B|190:71|138:96|138:96|142:49,2,138.000002632141,2|0|0,3:2|3:2|3:2,3:2:0:0:
300,200,170034,6,0,L|328:240,1,46.0000008773804,2|0,3:0|3:2,3:2:0:0:
266,324,170221,2,0,L|256:368,1,46.0000008773804,2|0,3:2|3:2,3:2:0:0:
142,291,170409,2,0,L|96:292,1,46.0000008773804,10|0,3:2|3:2,3:2:0:0:
176,167,170596,2,0,L|144:124,1,46.0000008773804,2|0,3:2|3:2,3:2:0:0:
234,214,170784,5,6,3:0:0:0:
266,199,170877,1,2,3:2:0:0:
291,172,170971,1,2,3:2:0:0:
303,138,171065,1,2,3:2:0:0:
315,103,171159,5,10,3:0:0:0:
336,73,171252,1,2,3:2:0:0:
365,51,171346,1,2,3:0:0:0:
399,37,171440,1,2,3:2:0:0:
434,38,171534,5,6,0:0:0:0:
