osu file format v14

[General]
AudioFilename: nitorin.mp3
AudioLeadIn: 1000
PreviewTime: 134610
Countdown: 0
SampleSet: Soft
StackLeniency: 0.7
Mode: 0
LetterboxInBreaks: 0
WidescreenStoryboard: 0

[Editor]
DistanceSpacing: 1.4
BeatDivisor: 4
GridSize: 32
TimelineZoom: 1.2

[Metadata]
Title:Kataomoi no Bigaku
TitleUnicode:片想いの美学
Artist:senya
ArtistUnicode:senya
Creator:Satellite
Version:Normal+
Source:東方Project
Tags:Touhou delis alyce nasya n_a_s_y_a dagger-gazel 芥川龍之介の河童 Akutagawa Ryuunosuke Kappa ~ Candid Friend 東方風神録 Mountain of Faith kamase-tora Autobahn yuuhei 東方PARTY BOX Comiket 88 C88 kawashiro nitori 河城 にとり
BeatmapID:799508
BeatmapSetID:363504

[Difficulty]
HPDrainRate:3.5
CircleSize:3.5
OverallDifficulty:4.5
ApproachRate:5.5
SliderMultiplier:1.2
SliderTickRate:1

[Events]
//Background and Video events
0,0,"nitori.jpg",0,0
//Break Periods
2,19710,27985
2,86910,95185
//Storyboard Layer 0 (Background)
//Storyboard Layer 1 (Fail)
//Storyboard Layer 2 (Pass)
//Storyboard Layer 3 (Foreground)
//Storyboard Sound Samples

[TimingPoints]
310,400,6,2,1,80,1,0
710,-100,4,2,1,70,0,0
1110,-100,4,2,1,60,0,0
1510,-100,4,2,1,80,0,0
1910,-100,4,2,1,70,0,0
2310,-100,4,2,1,60,0,0
2710,-100,4,2,1,70,0,0
3510,-100,4,2,1,60,0,0
3910,-100,4,2,1,70,0,0
4710,-100,4,2,1,60,0,0
5110,-100,4,2,1,80,0,0
5510,-100,4,2,1,70,0,0
5910,-100,4,2,1,60,0,0
6310,-100,4,2,1,80,0,0
6710,-100,4,2,1,70,0,0
7110,-100,4,2,1,60,0,0
7510,-100,4,2,1,70,0,0
8310,-100,4,2,1,60,0,0
8710,-100,4,2,1,70,0,0
9710,-100,4,2,1,10,0,0
9910,-100,4,2,1,80,0,0
10110,-100,4,2,1,60,0,0
10310,-100,4,2,1,70,0,0
10510,-100,4,2,1,60,0,0
10710,-100,4,2,1,70,0,0
10910,-100,4,2,1,60,0,0
11110,-100,4,2,1,70,0,0
11310,-100,4,2,1,50,0,0
11510,-100,4,2,1,70,0,0
11710,-100,4,2,1,60,0,0
11910,-100,4,2,1,70,0,0
12110,-100,4,2,1,50,0,0
12310,-100,4,2,1,80,0,0
12510,-100,4,2,1,60,0,0
13510,-100,4,2,1,80,0,0
13710,-100,4,2,1,60,0,0
14710,-100,4,2,1,80,0,0
14910,-100,4,2,1,60,0,0
15110,-100,4,2,1,70,0,0
15310,-100,4,2,1,60,0,0
15510,-100,4,2,1,70,0,0
15910,-100,4,2,1,80,0,0
16110,-100,4,2,1,60,0,0
16310,-100,4,2,1,70,0,0
16510,-100,4,2,1,60,0,0
16710,-100,4,2,1,70,0,0
17110,-100,4,2,1,80,0,0
17510,-100,4,2,1,60,0,0
17710,-100,4,2,1,70,0,0
17910,-100,4,2,1,80,0,0
18110,-100,4,2,1,60,0,0
18310,-100,4,2,1,80,0,0
18510,-100,4,2,1,60,0,0
18710,-100,4,2,1,70,0,0
18910,-100,4,2,1,80,0,0
19110,-100,4,2,1,90,0,0
19510,-100,4,2,1,70,0,0
29110,-100,4,2,1,80,0,0
29310,-100,4,2,1,60,0,0
30110,-100,4,2,1,80,0,0
30310,-100,4,2,1,60,0,0
30910,-100,4,2,1,80,0,0
31110,-100,4,2,1,60,0,0
31310,-100,4,2,1,80,0,0
31510,-100,4,2,1,60,0,0
32510,-100,4,2,1,80,0,0
32710,-100,4,2,1,60,0,0
33810,-100,4,2,1,10,0,0
33910,-100,4,2,1,80,0,0
34110,-100,4,2,1,60,0,0
34510,-100,4,2,1,80,0,0
34710,-100,4,2,1,60,0,0
35710,-100,4,2,1,80,0,0
35910,-100,4,2,1,60,0,0
36110,-100,4,2,1,80,0,0
36310,-100,4,2,1,60,0,0
38110,-100,4,2,1,80,0,0
38310,-100,4,2,1,60,0,0
38510,-100,4,2,1,90,0,0
38710,-100,4,2,1,80,0,0
38910,-100,4,2,1,60,0,0
39710,-100,4,2,1,80,0,0
39910,-100,4,2,1,60,0,0
40910,-100,4,2,1,80,0,0
41110,-100,4,2,1,60,0,0
42910,-100,4,2,1,80,0,0
43110,-100,4,2,1,60,0,0
43310,-100,4,2,1,80,0,0
43710,-100,4,2,1,60,0,0
44910,-100,4,2,1,80,0,0
45110,-100,4,2,1,60,0,0
45710,-100,4,2,1,80,0,0
46110,-100,4,2,1,60,0,0
46510,-100,4,2,1,80,0,0
46710,-100,4,2,1,60,0,0
47310,-100,4,2,1,70,0,0
47510,-100,4,2,1,60,0,0
47710,-100,4,2,1,90,0,0
47910,-100,4,2,1,70,0,0
48110,-100,4,2,1,60,0,0
48310,-100,4,2,1,90,0,0
48510,-100,4,2,1,80,0,0
48710,-100,4,2,1,60,0,0
48910,-100,4,2,1,80,0,0
49110,-100,4,2,1,60,0,0
49510,-100,4,2,1,70,0,0
49710,-100,4,2,1,80,0,0
49910,-100,4,2,1,60,0,0
50510,-100,4,2,1,80,0,0
50710,-100,4,2,1,60,0,0
51310,-100,4,2,1,80,0,0
51510,-100,4,2,1,60,0,0
52110,-100,4,2,1,80,0,0
52310,-100,4,2,1,60,0,0
52910,-100,4,2,1,80,0,0
53110,-100,4,2,1,70,0,0
53310,-100,4,2,1,60,0,0
53710,-100,4,2,1,80,0,0
53910,-100,4,2,1,60,0,0
54110,-100,4,2,1,80,0,0
54310,-100,4,2,1,60,0,0
55310,-100,4,2,1,80,0,0
55510,-100,4,2,1,60,0,0
55710,-100,4,2,1,70,0,0
55910,-100,4,2,1,60,0,0
56110,-100,4,2,1,80,0,0
56310,-100,4,2,1,60,0,0
56510,-100,4,2,1,90,0,0
56710,-100,4,2,1,70,0,0
56910,-100,4,2,1,60,0,0
57710,-100,4,2,1,80,0,0
57910,-100,4,2,1,60,0,0
65310,-100,4,2,1,80,0,0
65510,-100,4,2,1,60,0,0
65710,-100,4,2,1,80,0,0
65910,-100,4,2,1,60,0,0
66110,-100,4,2,1,70,0,0
66310,-100,4,2,1,80,0,0
67110,-100,4,2,1,100,0,0
67310,-100,4,2,1,80,0,0
67510,-100,4,2,1,80,0,1
67710,-100,4,2,1,60,0,0
68110,-100,4,2,1,80,0,0
68310,-100,4,2,1,60,0,0
68710,-100,4,2,1,70,0,0
68910,-100,4,2,1,80,0,0
69110,-100,4,2,1,60,0,0
69710,-100,4,2,1,80,0,0
69910,-100,4,2,1,70,0,0
70110,-100,4,2,1,60,0,0
71110,-100,4,2,1,70,0,0
71310,-100,4,2,1,80,0,0
71510,-100,4,2,1,60,0,0
72310,-100,4,2,1,80,0,0
72710,-100,4,2,1,60,0,0
73110,-100,4,2,1,80,0,0
73510,-100,4,2,1,70,0,0
74510,-100,4,2,1,80,0,0
75110,-100,4,2,1,70,0,0
75710,-100,4,2,1,90,0,0
75910,-100,4,2,1,70,0,0
76310,-100,4,2,1,80,0,0
76710,-100,4,2,1,90,0,0
77110,-100,4,2,1,80,0,0
77510,-100,4,2,1,60,0,0
77710,-100,4,2,1,80,0,0
77910,-100,4,2,1,60,0,0
78310,-100,4,2,1,80,0,0
78710,-100,4,2,1,70,0,0
79510,-100,4,2,1,80,0,0
79910,-100,4,2,1,70,0,0
80110,-100,4,2,1,80,0,0
80310,-100,4,2,1,70,0,0
80710,-100,4,2,1,80,0,0
81110,-100,4,2,1,70,0,0
81310,-100,4,2,1,80,0,0
81510,-100,4,2,1,70,0,0
81910,-100,4,2,1,90,0,0
82110,-100,4,2,1,70,0,0
82510,-100,4,2,1,80,0,0
82710,-100,4,2,1,60,0,0
83110,-100,4,2,1,80,0,0
83510,-100,4,2,1,60,0,0
83910,-100,4,2,1,70,0,0
84310,-100,4,2,1,80,0,0
84710,-100,4,2,1,60,0,0
86310,-100,4,2,1,100,0,0
86510,-100,4,2,1,70,0,0
86710,-100,4,2,1,85,0,0
96310,-100,4,2,1,80,0,0
96510,-100,4,2,1,60,0,0
97310,-100,4,2,1,80,0,0
97510,-100,4,2,1,60,0,0
98510,-100,4,2,1,80,0,0
98710,-100,4,2,1,60,0,0
100110,-100,4,2,1,80,0,0
100310,-100,4,2,1,60,0,0
100910,-100,4,2,1,80,0,0
101110,-100,4,2,1,60,0,0
102110,-100,4,2,1,80,0,0
102310,-100,4,2,1,60,0,0
103310,-100,4,2,1,80,0,0
103710,-100,4,2,1,60,0,0
104110,-100,4,2,1,80,0,0
104310,-100,4,2,1,60,0,0
105310,-100,4,2,1,80,0,0
105510,-100,4,2,1,70,0,0
105710,-100,4,2,1,90,0,0
105910,-100,4,2,1,80,0,0
106110,-100,4,2,1,60,0,0
106910,-100,4,2,1,80,0,0
107110,-100,4,2,1,60,0,0
108110,-100,4,2,1,80,0,0
108310,-100,4,2,1,60,0,0
109310,-100,4,2,1,80,0,0
109510,-100,4,2,1,60,0,0
110510,-100,4,2,1,80,0,0
110910,-100,4,2,1,60,0,0
111710,-100,4,2,1,80,0,0
111910,-100,4,2,1,60,0,0
112910,-100,4,2,1,80,0,0
113110,-100,4,2,1,60,0,0
114110,-100,4,2,1,80,0,0
114310,-100,4,2,1,60,0,0
114710,-100,4,2,1,70,0,0
115110,-100,4,2,1,80,0,0
115510,-100,4,2,1,80,0,0
115710,-100,4,2,1,70,0,0
116110,-100,4,2,1,80,0,0
116310,-100,4,2,1,60,0,0
116710,-100,4,2,1,70,0,0
116910,-100,4,2,1,80,0,0
117110,-100,4,2,1,60,0,0
117710,-100,4,2,1,80,0,0
117910,-100,4,2,1,70,0,0
118110,-100,4,2,1,60,0,0
119110,-100,4,2,1,70,0,0
119310,-100,4,2,1,80,0,0
119510,-100,4,2,1,60,0,0
120310,-100,4,2,1,70,0,0
120510,-100,4,2,1,80,0,0
120710,-100,4,2,1,60,0,0
120910,-100,4,2,1,80,0,0
121110,-100,4,2,1,60,0,0
121510,-100,4,2,1,70,0,0
121710,-100,4,2,1,80,0,0
122310,-100,4,2,1,60,0,0
122710,-100,4,2,1,80,0,0
122910,-100,4,2,1,60,0,0
123310,-100,4,2,1,80,0,0
123510,-100,4,2,1,60,0,0
123910,-100,4,2,1,70,0,0
124110,-100,4,2,1,80,0,0
124310,-100,4,2,1,60,0,0
124510,-100,4,2,1,80,0,0
124710,-100,4,2,1,60,0,0
124910,-100,4,2,1,70,0,0
125110,-100,4,2,1,80,0,0
125310,-100,4,2,1,60,0,0
132510,-100,4,2,1,80,0,0
132710,-100,4,2,1,60,0,0
132910,-100,4,2,1,80,0,0
133110,-100,4,2,1,70,0,0
133310,-100,4,2,1,80,0,0
133510,-100,4,2,1,90,0,0
134310,-100,4,2,1,100,0,0
134510,-100,4,2,1,70,0,0
134710,-100,4,2,1,80,0,1
134910,-100,4,2,1,60,0,0
135310,-100,4,2,1,80,0,0
135510,-100,4,2,1,70,0,0
135910,-100,4,2,1,80,0,0
136310,-100,4,2,1,70,0,0
136910,-100,4,2,1,80,0,0
137310,-100,4,2,1,70,0,0
137710,-100,4,2,1,80,0,0
137910,-100,4,2,1,70,0,0
138310,-100,4,2,1,80,0,0
138710,-100,4,2,1,70,0,0
138910,-100,4,2,1,80,0,0
139110,-100,4,2,1,70,0,0
139510,-100,4,2,1,80,0,0
139910,-100,4,2,1,70,0,0
140510,-100,4,2,1,80,0,0
140910,-100,4,2,1,70,0,0
141710,-100,4,2,1,80,0,0
142110,-100,4,2,1,70,0,0
142910,-100,4,2,1,80,0,0
143110,-100,4,2,1,70,0,0
143510,-100,4,2,1,80,0,0
143910,-100,4,2,1,90,0,0
144310,-100,4,2,1,80,0,0
144710,-100,4,2,1,70,0,0
145110,-100,4,2,1,80,0,0
145510,-100,4,2,1,70,0,0
146710,-100,4,2,1,80,0,0
147110,-100,4,2,1,70,0,0
147310,-100,4,2,1,80,0,0
147510,-100,4,2,1,70,0,0
147910,-100,4,2,1,80,0,0
148310,-100,4,2,1,70,0,0
148510,-100,4,2,1,80,0,0
148710,-100,4,2,1,70,0,0
149110,-100,4,2,1,80,0,0
149510,-100,4,2,1,70,0,0
149910,-100,4,2,1,80,0,0
150710,-100,4,2,1,70,0,0
151410,-100,4,2,1,10,0,0
151510,-100,4,2,1,80,0,0
151910,-100,4,2,1,70,0,0
152310,-100,4,2,1,80,0,0
152910,-100,4,2,1,90,0,0
153110,-100,4,2,1,80,0,0
153310,-100,4,2,1,90,0,0
153510,-100,4,2,1,100,0,0
153710,-100,4,2,1,80,0,0
153910,-100,4,2,1,90,0,1
154310,-100,4,2,1,70,0,1
154510,-100,4,2,1,85,0,1
154710,-100,4,2,1,70,0,1
155110,-100,4,2,1,90,0,1
155310,-100,4,2,1,70,0,1
155710,-100,4,2,1,85,0,1
156310,-100,4,2,1,90,0,1
156510,-100,4,2,1,70,0,1
157310,-100,4,2,1,85,0,1
157510,-100,4,2,1,90,0,1
157910,-100,4,2,1,70,0,1
158510,-100,4,2,1,85,0,1
158710,-100,4,2,1,90,0,1
158910,-100,4,2,1,70,0,1
159310,-100,4,2,1,85,0,1
159510,-100,4,2,1,70,0,1
159910,-100,4,2,1,90,0,1
160110,-100,4,2,1,85,0,1
160310,-100,4,2,1,70,0,1
160510,-100,4,2,1,85,0,1
160710,-100,4,2,1,70,0,1
161110,-100,4,2,1,90,0,1
161310,-100,4,2,1,70,0,1
161710,-100,4,2,1,85,0,1
161910,-100,4,2,1,80,0,1
162310,-100,4,2,1,85,0,1
162710,-100,4,2,1,90,0,1
163110,-100,4,2,1,100,0,1
163510,-100,4,2,1,90,0,1
163910,-100,4,2,1,70,0,1
164110,-100,4,2,1,90,0,1
164310,-100,4,2,1,70,0,1
164710,-100,4,2,1,90,0,1
164910,-100,4,2,1,70,0,1
165310,-100,4,2,1,90,0,1
165510,-100,4,2,1,70,0,1
165910,-100,4,2,1,90,0,1
166310,-100,4,2,1,70,0,1
166510,-100,4,2,1,90,0,1
166710,-100,4,2,1,70,0,1
167110,-100,4,2,1,90,0,1
167510,-100,4,2,1,70,0,1
167710,-100,4,2,1,90,0,1
167910,-100,4,2,1,70,0,1
168310,-100,4,2,1,90,0,1
168510,-100,4,2,1,70,0,1
168910,-100,4,2,1,90,0,1
169110,-100,4,2,1,70,0,1
169510,-100,4,2,1,90,0,1
169910,-100,4,2,1,70,0,1
170310,-100,4,2,1,80,0,1
170710,-100,4,2,1,90,0,1
171110,-100,4,2,1,70,0,1
171310,-100,4,2,1,90,0,1
171510,-100,4,2,1,70,0,1
171710,-100,4,2,1,90,0,1
171910,-100,4,2,1,70,0,1
172510,-100,4,2,1,80,0,1
173110,-100,4,2,1,60,0,0

[Colours]
Combo1 : 255,128,192
Combo2 : 0,128,255
Combo3 : 255,0,255
Combo4 : 128,128,255

[HitObjects]
171,320,310,6,0,P|135:315|68:264,2,120,2|2|2,0:0|0:0|0:0,0:0:0:0:
341,320,1510,2,0,P|377:315|444:264,2,120,2|2|2,0:0|0:0|0:0,0:0:0:0:
216,208,2710,2,0,P|250:121|296:210,1,240,2|2,0:0|0:0,0:0:0:0:
130,198,3910,2,0,P|131:139|274:48,1,240,2|2,0:0|0:0,0:0:0:0:
421,117,5110,6,0,L|413:240,1,120,2|2,0:0|0:0,0:0:0:0:
256,296,5910,1,2,0:0:0:0:
98,236,6310,2,0,L|91:117,2,120,2|2|2,0:0|0:0|0:0,0:0:0:0:
256,296,7510,2,0,L|256:52,1,240,2|2,0:0|0:0,0:0:0:0:
136,176,8710,2,0,L|384:176,1,240,2|0,0:0|0:0,0:0:0:0:
444,328,9910,6,0,P|412:328|380:332,1,60,4|2,0:0|0:0,0:0:0:0:
308,292,10310,2,0,P|276:304|188:312,1,120,8|8,0:0|0:0,0:0:0:0:
112,344,10910,1,2,0:0:0:0:
48,292,11110,2,0,L|44:232,1,60,2|2,0:0|0:0,0:0:0:0:
128,236,11510,2,0,L|124:176,1,60,8|2,0:0|0:0,0:0:0:0:
116,92,11910,1,8,0:0:0:0:
280,52,12310,6,0,P|252:96|184:128,2,120,2|8|8,0:0|0:0|0:0,0:0:0:0:
356,92,13310,1,2,0:0:0:0:
440,76,13510,2,0,L|444:144,1,60,2|2,0:0|0:0,0:0:0:0:
484,208,13910,2,0,L|480:276,1,60,8|2,0:0|0:0,0:0:0:0:
472,352,14310,1,8,0:0:0:0:
304,336,14710,6,0,P|328:308|420:312,2,120,2|8|8,0:0|0:0|0:0,0:0:0:0:
232,292,15710,1,2,0:0:0:0:
160,336,15910,2,0,L|92:332,1,60,2|2,0:0|0:0,0:0:0:0:
96,248,16310,2,0,L|155:251,1,60,8|2,0:0|0:0,0:0:0:0:
228,208,16710,2,0,P|232:176|232:148,1,60,8|2,0:0|0:0,0:0:0:0:
216,64,17110,1,2,0:0:0:0:
368,364,17910,2,0,P|364:332|364:304,1,60,8|2,0:0|0:0,0:0:0:0:
380,220,18310,5,2,0:0:0:0:
444,276,18510,1,2,0:0:0:0:
460,192,18710,2,0,P|464:160|464:132,1,60,8|2,0:0|0:0,0:0:0:0:
452,48,19110,1,12,0:0:0:0:
324,156,19510,1,14,0:0:0:0:
324,156,29110,6,0,P|232:152|200:144,1,120,4|8,0:0|0:0,0:0:0:0:
140,92,29710,1,2,0:0:0:0:
68,136,29910,2,0,L|64:208,1,60,8|2,0:0|0:0,0:0:0:0:
100,272,30310,2,0,L|96:344,2,60,0|2|8,0:0|0:0|0:0,0:0:0:0:
238,176,31110,2,0,L|242:248,1,60,8|2,0:0|0:0,0:0:0:0:
247,319,31510,6,0,P|314:320|370:344,1,120,0|8,0:0|0:0,0:0:0:0:
444,320,32110,1,2,0:0:0:0:
499,256,32310,2,0,L|498:196,1,60,8|2,0:0|0:0,0:0:0:0:
437,137,32710,2,0,L|314:143,1,120,0|8,0:0|0:0,0:0:0:0:
263,207,33310,1,2,0:0:0:0:
184,177,33510,2,0,P|177:146|176:112,1,60,8|2,0:0|0:0,0:0:0:0:
204,38,33910,6,0,P|178:65|88:88,1,120,0|8,0:0|0:0,0:0:0:0:
23,54,34510,1,2,0:0:0:0:
25,137,34710,2,0,L|27:198,1,60,8|2,0:0|0:0,0:0:0:0:
96,245,35110,2,0,L|94:368,2,120,0|8|8,0:0|0:0|0:0,0:0:0:0:
150,180,36110,1,2,0:0:0:0:
222,221,36310,6,0,P|272:224|295:224,1,60,0|2,0:0|0:0,0:0:0:0:
353,179,36710,2,0,P|403:176|426:176,1,60,8|2,0:0|0:0,0:0:0:0:
480,226,37110,1,10,0:0:0:0:
480,226,37510,2,0,L|477:287,1,60,0|2,0:0|0:0,0:0:0:0:
398,315,37910,2,0,L|400:255,2,60,8|2|8,0:0|0:0|0:0,0:0:0:0:
334,371,38510,1,2,0:0:0:0:
257,336,38710,6,0,P|220:330|133:347,2,120,4|8|8,0:0|0:0|0:0,0:0:0:0:
320,180,39910,2,0,P|357:174|444:191,2,120,0|8|8,0:0|0:0|0:0,0:0:0:0:
257,237,40910,1,2,0:0:0:0:
174,219,41110,2,0,P|165:188|164:160,1,60,0|2,0:0|0:0,0:0:0:0:
190,80,41510,1,8,0:0:0:0:
257,237,41910,1,8,0:0:0:0:
200,299,42110,1,2,0:0:0:0:
117,284,42310,6,0,L|56:282,1,60,0|2,0:0|0:0,0:0:0:0:
32,201,42710,2,0,L|91:202,1,60,8|2,0:0|0:0,0:0:0:0:
174,219,43110,1,8,0:0:0:0:
154,137,43310,1,2,0:0:0:0:
197,64,43510,6,0,P|232:64|260:69,1,60,4|2,0:0|0:0,0:0:0:0:
337,43,43910,2,0,P|384:55|454:47,1,120,8|8,0:0|0:0,0:0:0:0:
498,118,44510,1,2,0:0:0:0:
445,183,44710,2,0,P|438:214|435:245,1,60,0|2,0:0|0:0,0:0:0:0:
363,287,45110,2,0,P|336:273|245:266,1,120,8|8,0:0|0:0,0:0:0:0:
194,330,45710,1,2,0:0:0:0:
114,304,45910,6,0,B|95:280|95:280|89:186,2,120,4|8|8,0:0|0:0|0:0,0:0:0:0:
194,330,46910,1,2,0:0:0:0:
187,246,47110,2,0,L|184:186,1,60,0|2,0:0|0:0,0:0:0:0:
268,191,47510,2,0,L|265:131,1,60,8|2,0:0|0:0,0:0:0:0:
349,136,47910,2,0,L|346:76,1,60,8|2,0:0|0:0,0:0:0:0:
281,21,48310,6,0,L|219:27,1,60,4|2,0:0|0:0,0:0:0:0:
138,39,48710,2,0,P|113:66|104:151,1,120,8|8,0:0|0:0,0:0:0:0:
144,218,49310,1,2,0:0:0:0:
224,193,49510,2,0,L|222:258,1,60,0|2,0:0|0:0,0:0:0:0:
299,285,49910,2,0,L|302:161,1,120,8|8,0:0|0:0,0:0:0:0:
378,130,50510,1,2,0:0:0:0:
428,198,50710,6,0,P|436:229|434:257,1,60,4|2,0:0|0:0,0:0:0:0:
429,340,51110,2,0,P|398:331|374:315,1,60,8|2,0:0|0:0,0:0:0:0:
304,269,51510,2,0,P|326:246|352:234,1,60,8|2,0:0|0:0,0:0:0:0:
428,198,51910,6,0,P|436:167|434:139,1,60,4|2,0:0|0:0,0:0:0:0:
429,56,52310,2,0,P|398:64|374:80,1,60,8|2,0:0|0:0,0:0:0:0:
304,127,52710,2,0,P|326:149|352:161,1,60,8|2,0:0|0:0,0:0:0:0:
428,198,53110,6,0,P|436:229|430:316,1,120,4|8,0:0|0:0,0:0:0:0:
270,368,53910,2,0,L|211:360,1,60,8|2,0:0|0:0,0:0:0:0:
139,315,54310,6,0,L|18:326,2,120,4|8|8,0:0|0:0|0:0,0:0:0:0:
198,255,55310,1,2,0:0:0:0:
264,308,55510,2,0,L|270:368,1,60,4|2,0:0|0:0,0:0:0:0:
349,341,55910,2,0,L|343:281,1,60,8|2,0:0|0:0,0:0:0:0:
281,223,56310,1,8,0:0:0:0:
361,197,56510,1,2,0:0:0:0:
297,142,56710,2,0,L|311:20,2,120,4|8|8,0:0|0:0|0:0,0:0:0:0:
281,223,57710,1,2,0:0:0:0:
216,168,57910,6,0,P|171:153|93:165,1,120,4|8,0:0|0:0,0:0:0:0:
54,323,58710,2,0,P|84:331|117:331,1,60,8|2,0:0|0:0,0:0:0:0:
189,366,59110,2,0,P|230:355|313:357,1,120,0|8,0:0|0:0,0:0:0:0:
389,372,59710,1,0,0:0:0:0:
453,317,59910,2,0,P|463:288|466:255,1,60,8|0,0:0|0:0,0:0:0:0:
401,205,60310,6,0,L|277:210,1,120,0|8,0:0|0:0,0:0:0:0:
230,277,60910,1,0,0:0:0:0:
153,241,61110,2,0,L|91:244,1,60,8|0,0:0|0:0,0:0:0:0:
66,164,61510,2,0,L|190:159,1,120,0|8,0:0|0:0,0:0:0:0:
237,92,62110,1,0,0:0:0:0:
314,128,62310,2,0,L|376:125,1,60,8|0,0:0|0:0,0:0:0:0:
441,74,62710,5,0,0:0:0:0:
455,156,62910,1,0,0:0:0:0:
391,211,63110,2,0,P|357:228|327:233,1,60,8|0,0:0|0:0,0:0:0:0:
259,197,63510,2,0,P|229:204|203:218,1,60,8|0,0:0|0:0,0:0:0:0:
149,282,63910,2,0,L|143:144,2,120,0|8|8,0:0|0:0|0:0,0:0:0:0:
206,344,64910,1,0,0:0:0:0:
278,302,65110,6,0,L|283:241,1,60,0|2,0:0|0:0,0:0:0:0:
348,189,65510,2,0,L|343:128,1,60,0|2,0:0|0:0,0:0:0:0:
335,45,65910,1,0,0:0:0:0:
267,94,66110,1,2,0:0:0:0:
189,60,66310,1,4,0:0:0:0:
189,60,67110,5,12,0:0:0:0:
267,94,67310,1,2,0:0:0:0:
335,45,67510,6,0,P|376:46|434:99,1,120,4|8,0:0|0:0,0:0:0:0:
461,175,68110,1,2,0:0:0:0:
454,258,68310,2,0,L|448:326,1,60,8|2,0:0|0:0,0:0:0:0:
365,334,68710,2,0,L|377:214,1,120,4|8,0:0|0:0,0:0:0:0:
316,155,69310,1,2,0:0:0:0:
236,186,69510,2,0,L|172:183,1,60,8|2,0:0|0:0,0:0:0:0:
91,179,69910,6,0,P|99:218|166:268,1,120,4|8,0:0|0:0,0:0:0:0:
318,214,70710,2,0,L|315:154,1,60,8|2,0:0|0:0,0:0:0:0:
236,186,71110,2,0,L|240:308,1,120,4|8,0:0|0:0,0:0:0:0:
301,364,71710,1,2,0:0:0:0:
366,311,71910,2,0,L|426:315,1,60,8|2,0:0|0:0,0:0:0:0:
457,236,72310,6,0,L|333:227,1,120,4|8,0:0|0:0,0:0:0:0:
314,146,72910,1,2,0:0:0:0:
250,91,73110,2,0,L|188:95,1,60,8|2,0:0|0:0,0:0:0:0:
122,44,73510,5,4,0:0:0:0:
108,126,73710,1,2,0:0:0:0:
172,181,73910,2,0,P|206:198|236:203,1,60,8|2,0:0|0:0,0:0:0:0:
308,180,74310,1,8,0:0:0:0:
308,180,74710,2,0,L|312:239,1,60,4|0,0:0|0:0,0:0:0:0:
274,315,75110,2,0,L|211:325,1,60,8|2,0:0|0:0,0:0:0:0:
131,337,75510,1,8,0:0:0:0:
131,337,75910,6,0,P|108:301|114:217,1,120,4|8,0:0|0:0,0:0:0:0:
194,221,76510,1,2,0:0:0:0:
252,160,76710,2,0,L|330:166,1,60,4|2,0:0|0:0,0:0:0:0:
397,171,77110,6,0,P|407:217|392:289,1,120,4|8,0:0|0:0,0:0:0:0:
340,354,77710,1,2,0:0:0:0:
255,358,77910,2,0,L|191:354,1,60,8|2,0:0|0:0,0:0:0:0:
120,316,78310,2,0,P|112:283|111:257,1,60,4|2,0:0|0:0,0:0:0:0:
152,183,78710,1,8,0:0:0:0:
213,239,78910,1,2,0:0:0:0:
291,209,79110,2,0,P|299:176|300:150,1,60,8|2,0:0|0:0,0:0:0:0:
268,71,79510,5,4,0:0:0:0:
215,7,79710,1,2,0:0:0:0:
138,37,79910,1,8,0:0:0:0:
142,119,80110,1,2,0:0:0:0:
221,141,80310,2,0,P|229:169|232:203,1,60,8|2,0:0|0:0,0:0:0:0:
184,269,80710,5,4,0:0:0:0:
237,333,80910,1,2,0:0:0:0:
314,303,81110,1,8,0:0:0:0:
310,221,81310,1,2,0:0:0:0:
231,199,81510,2,0,P|223:171|220:137,1,60,8|2,0:0|0:0,0:0:0:0:
246,60,81910,6,0,L|367:47,1,120,4|8,0:0|0:0,0:0:0:0:
445,74,82510,1,2,0:0:0:0:
472,153,82710,2,0,L|466:213,1,60,8|2,0:0|0:0,0:0:0:0:
453,295,83110,1,4,0:0:0:0:
369,306,83310,1,2,0:0:0:0:
286,319,83510,2,0,L|220:325,1,60,8|2,0:0|0:0,0:0:0:0:
185,250,83910,2,0,L|244:244,1,60,4|2,0:0|0:0,0:0:0:0:
271,164,84310,6,0,L|151:174,2,120,4|8|8,0:0|0:0|0:0,0:0:0:0:
334,109,85310,1,2,0:0:0:0:
253,85,85510,2,0,L|189:91,1,60,8|2,0:0|0:0,0:0:0:0:
111,67,85910,2,0,L|117:131,1,60,8|2,0:0|0:0,0:0:0:0:
128,210,86310,1,12,0:0:0:0:
201,250,86510,1,2,0:0:0:0:
278,216,86710,1,4,0:0:0:0:
287,227,96310,6,0,P|288:266|283:292,1,60,4|2,0:0|0:0,0:0:0:0:
230,351,96710,2,0,P|199:332|114:328,1,120,8|8,0:0|0:0,0:0:0:0:
19,190,97510,2,0,L|23:126,1,60,0|2,0:0|0:0,0:0:0:0:
103,105,97910,2,0,L|99:164,1,60,8|2,0:0|0:0,0:0:0:0:
92,249,98310,1,8,0:0:0:0:
92,249,98710,6,0,L|217:257,2,120,0|8|8,0:0|0:0|0:0,0:0:0:0:
239,168,99910,2,0,P|286:202|301:260,1,120,0|8,0:0|0:0,0:0:0:0:
148,189,100710,2,0,P|146:152|154:126,1,60,8|2,0:0|0:0,0:0:0:0:
222,82,101110,6,0,P|284:89|346:92,1,120,0|8,0:0|0:0,0:0:0:0:
412,47,101710,1,2,0:0:0:0:
447,123,101910,2,0,P|450:153|450:182,1,60,8|2,0:0|0:0,0:0:0:0:
383,234,102310,2,0,B|405:260|434:265|434:265|430:294|449:321,2,120,0|8|8,0:0|0:0|0:0,0:0:0:0:
367,151,103310,1,2,0:0:0:0:
289,183,103510,6,0,L|216:185,1,60,0|2,0:0|0:0,0:0:0:0:
213,267,103910,2,0,L|272:265,1,60,8|2,0:0|0:0,0:0:0:0:
342,313,104310,1,8,0:0:0:0:
265,347,104510,1,2,0:0:0:0:
181,346,104710,5,0,0:0:0:0:
229,184,105110,1,8,0:0:0:0:
342,313,105510,1,10,0:0:0:0:
265,347,105710,1,2,0:0:0:0:
181,346,105910,6,0,L|118:342,1,60,4|2,0:0|0:0,0:0:0:0:
63,280,106310,2,0,P|52:232|61:155,1,120,8|8,0:0|0:0,0:0:0:0:
178,44,107110,2,0,P|186:86|193:107,1,60,0|2,0:0|0:0,0:0:0:0:
249,163,107510,2,0,L|312:168,1,60,8|2,0:0|0:0,0:0:0:0:
393,172,107910,1,8,0:0:0:0:
393,172,108310,6,0,P|404:220|395:297,1,120,0|8,0:0|0:0,0:0:0:0:
328,338,108910,1,2,0:0:0:0:
251,303,109110,2,0,L|246:244,1,60,8|2,0:0|0:0,0:0:0:0:
174,197,109510,2,0,L|181:73,2,120,0|8|8,0:0|0:0|0:0,0:0:0:0:
303,89,110710,6,0,L|373:83,1,60,4|2,0:0|0:0,0:0:0:0:
441,114,111110,2,0,P|456:151|459:233,1,120,8|8,0:0|0:0,0:0:0:0:
417,303,111710,1,2,0:0:0:0:
343,343,111910,2,0,L|281:339,1,60,0|2,0:0|0:0,0:0:0:0:
219,284,112310,2,0,L|157:288,1,60,8|2,0:0|0:0,0:0:0:0:
82,323,112710,1,8,0:0:0:0:
82,323,113110,6,0,P|67:286|64:204,1,120,0|8,0:0|0:0,0:0:0:0:
106,134,113710,1,2,0:0:0:0:
184,162,113910,2,0,L|259:166,1,60,8|2,0:0|0:0,0:0:0:0:
321,198,114310,2,0,B|363:199|363:199|394:178|394:178|434:179,2,120,0|8|8,0:0|0:0|0:0,0:0:0:0:
254,250,115310,1,2,0:0:0:0:
177,215,115510,6,0,P|162:177|173:94,2,120,4|8|8,0:0|0:0|0:0,0:0:0:0:
254,250,116510,1,2,0:0:0:0:
321,198,116710,2,0,L|387:200,1,60,0|2,0:0|0:0,0:0:0:0:
450,246,117110,2,0,L|448:309,1,60,8|2,0:0|0:0,0:0:0:0:
385,362,117510,1,8,0:0:0:0:
385,362,117910,6,0,P|337:352|312:350,1,60,0|2,0:0|0:0,0:0:0:0:
252,308,118310,2,0,P|216:322|125:326,1,120,8|8,0:0|0:0,0:0:0:0:
45,185,119110,2,0,L|49:124,1,60,0|2,0:0|0:0,0:0:0:0:
127,155,119510,2,0,L|131:94,1,60,8|2,0:0|0:0,0:0:0:0:
209,123,119910,1,8,0:0:0:0:
293,268,120310,6,0,L|374:273,1,60,0|2,0:0|0:0,0:0:0:0:
432,243,120710,2,0,L|440:181,1,60,8|2,0:0|0:0,0:0:0:0:
355,186,121110,2,0,L|363:124,1,60,8|2,0:0|0:0,0:0:0:0:
278,129,121510,2,0,L|292:8,2,120,0|8|8,0:0|0:0|0:0,0:0:0:0:
271,212,122510,1,2,0:0:0:0:
200,165,122710,6,0,P|150:145|80:155,1,120,0|8,0:0|0:0,0:0:0:0:
37,313,123510,2,0,P|75:321|99:322,1,60,8|2,0:0|0:0,0:0:0:0:
174,353,123910,2,0,P|219:348|294:355,1,120,0|8,0:0|0:0,0:0:0:0:
369,318,124510,1,2,0:0:0:0:
442,358,124710,2,0,P|452:328|451:299,1,60,8|2,0:0|0:0,0:0:0:0:
396,236,125110,6,0,P|363:236|316:164,1,120,4|8,0:0|0:0,0:0:0:0:
421,41,125910,2,0,P|417:75|403:104,1,60,8|0,0:0|0:0,0:0:0:0:
338,48,126310,2,0,L|212:53,1,120,0|8,0:0|0:0,0:0:0:0:
150,101,126910,1,0,0:0:0:0:
88,43,127110,1,8,0:0:0:0:
88,43,127510,6,0,P|71:77|89:157,1,120,0|8,0:0|0:0,0:0:0:0:
165,184,128110,1,0,0:0:0:0:
231,132,128310,2,0,L|290:135,1,60,8|0,0:0|0:0,0:0:0:0:
374,145,128710,2,0,P|391:179|373:259,1,120,0|8,0:0|0:0,0:0:0:0:
297,286,129310,1,0,0:0:0:0:
231,234,129510,2,0,L|172:237,1,60,8|0,0:0|0:0,0:0:0:0:
87,248,129910,6,0,P|70:282|88:362,2,120,0|8|8,0:0|0:0|0:0,0:0:0:0:
205,127,131110,2,0,P|222:93|204:13,2,120,0|8|8,0:0|0:0|0:0,0:0:0:0:
148,188,132110,1,2,0:0:0:0:
87,248,132310,2,0,P|74:276|70:308,1,60,0|2,0:0|0:0,0:0:0:0:
154,304,132710,2,0,P|164:332|184:358,1,60,0|2,0:0|0:0,0:0:0:0:
238,293,133110,1,0,0:0:0:0:
304,344,133310,1,2,0:0:0:0:
320,261,133510,1,4,0:0:0:0:
320,261,134310,5,12,0:0:0:0:
304,344,134510,1,2,0:0:0:0:
238,293,134710,6,0,P|232:262|272:186,1,120,4|8,0:0|0:0,0:0:0:0:
354,185,135310,1,2,0:0:0:0:
437,183,135510,2,0,P|428:149|412:123,1,60,8|2,0:0|0:0,0:0:0:0:
334,105,135910,2,0,P|283:107|217:84,1,120,4|8,0:0|0:0,0:0:0:0:
163,20,136510,1,2,0:0:0:0:
86,53,136710,2,0,L|81:117,1,60,8|2,0:0|0:0,0:0:0:0:
24,175,137110,6,0,L|29:239,1,60,4|2,0:0|0:0,0:0:0:0:
40,318,137510,2,0,P|91:316|157:339,1,120,8|8,0:0|0:0,0:0:0:0:
234,310,138110,1,2,0:0:0:0:
171,253,138310,2,0,P|168:221|169:190,1,60,4|2,0:0|0:0,0:0:0:0:
249,167,138710,2,0,P|252:199|251:230,1,60,8|2,0:0|0:0,0:0:0:0:
234,310,139110,1,8,0:0:0:0:
234,310,139510,6,0,L|353:317,1,120,4|8,0:0|0:0,0:0:0:0:
427,357,140110,1,2,0:0:0:0:
485,296,140310,2,0,P|490:256|490:231,1,60,8|2,0:0|0:0,0:0:0:0:
418,193,140710,2,0,L|277:200,2,120,4|8|8,0:0|0:0|0:0,0:0:0:0:
491,152,141710,1,2,0:0:0:0:
418,108,141910,6,0,L|351:111,1,60,4|2,0:0|0:0,0:0:0:0:
273,114,142310,2,0,P|266:82|264:52,1,60,8|0,0:0|0:0,0:0:0:0:
179,56,142710,2,0,L|112:59,1,60,8|2,0:0|0:0,0:0:0:0:
54,112,143110,6,0,P|41:175|57:235,1,120,4|8,0:0|0:0,0:0:0:0:
114,285,143710,1,2,0:0:0:0:
189,254,143910,2,0,L|192:193,1,60,4|2,0:0|0:0,0:0:0:0:
258,141,144310,6,0,P|299:150|365:105,1,120,4|8,0:0|0:0,0:0:0:0:
400,35,144910,1,2,0:0:0:0:
474,73,145110,2,0,P|478:103|476:136,1,60,8|2,0:0|0:0,0:0:0:0:
410,185,145510,2,0,P|369:176|303:221,1,120,4|8,0:0|0:0,0:0:0:0:
268,291,146110,1,2,0:0:0:0:
194,253,146310,2,0,P|189:222|192:190,1,60,8|2,0:0|0:0,0:0:0:0:
230,118,146710,5,4,0:0:0:0:
283,54,146910,1,2,0:0:0:0:
360,84,147110,1,8,0:0:0:0:
356,166,147310,1,2,0:0:0:0:
277,188,147510,2,0,P|269:216|266:250,1,60,8|2,0:0|0:0,0:0:0:0:
314,316,147910,5,4,0:0:0:0:
261,380,148110,1,2,0:0:0:0:
184,350,148310,1,8,0:0:0:0:
188,268,148510,1,2,0:0:0:0:
267,246,148710,2,0,P|275:218|278:184,1,60,8|2,0:0|0:0,0:0:0:0:
237,113,149110,6,0,L|114:103,1,120,4|8,0:0|0:0,0:0:0:0:
58,163,149710,1,2,0:0:0:0:
118,221,149910,2,0,L|179:228,1,60,4|2,0:0|0:0,0:0:0:0:
255,195,150310,2,0,P|261:231|256:258,1,60,4|2,0:0|0:0,0:0:0:0:
337,281,150710,2,0,L|398:288,1,60,8|2,0:0|0:0,0:0:0:0:
477,313,151110,2,0,P|480:283|474:254,1,60,4|2,0:0|0:0,0:0:0:0:
407,202,151510,6,0,P|424:146|419:80,2,120,4|8|8,0:0|0:0|0:0,0:0:0:0:
348,263,152510,1,2,0:0:0:0:
286,206,152710,2,0,P|254:207|222:215,1,60,4|2,0:0|0:0,0:0:0:0:
171,276,153110,2,0,P|139:275|107:267,1,60,8|2,0:0|0:0,0:0:0:0:
55,205,153510,2,0,L|51:143,1,60,12|2,0:0|0:0,0:0:0:0:
44,61,153910,6,0,L|165:54,1,120,4|8,0:0|0:0,0:0:0:0:
221,114,154510,1,2,0:0:0:0:
281,55,154710,2,0,L|363:50,1,60,8|2,0:0|0:0,0:0:0:0:
425,45,155110,2,0,P|441:84|434:165,1,120,4|8,0:0|0:0,0:0:0:0:
380,223,155710,1,2,0:0:0:0:
300,195,155910,2,0,P|268:192|231:201,1,60,8|2,0:0|0:0,0:0:0:0:
168,239,156310,6,0,P|190:265|276:272,2,120,4|8|8,0:0|0:0|0:0,0:0:0:0:
240,197,157310,1,2,0:0:0:0:
167,153,157510,2,0,P|135:158|110:173,1,60,4|2,0:0|0:0,0:0:0:0:
48,228,157910,2,0,L|53:290,1,60,8|2,0:0|0:0,0:0:0:0:
105,353,158310,1,8,0:0:0:0:
105,353,158710,6,0,P|165:331|221:338,1,120,4|8,0:0|0:0,0:0:0:0:
296,372,159310,1,2,0:0:0:0:
372,337,159510,2,0,P|377:301|375:273,1,60,8|2,0:0|0:0,0:0:0:0:
311,222,159910,2,0,P|276:234|214:179,2,120,4|8|8,0:0|0:0|0:0,0:0:0:0:
363,156,160910,1,2,0:0:0:0:
320,83,161110,2,0,L|261:78,1,60,4|2,0:0|0:0,0:0:0:0:
192,27,161510,2,0,P|141:26|72:55,1,120,8|8,0:0|0:0,0:0:0:0:
13,206,162310,6,0,P|9:240|9:276,1,60,4|2,0:0|0:0,0:0:0:0:
92,277,162710,2,0,P|113:303|138:329,1,60,8|2,0:0|0:0,0:0:0:0:
210,292,163110,2,0,P|244:296|280:296,1,60,4|2,0:0|0:0,0:0:0:0:
337,345,163510,6,0,P|321:312|317:226,1,120,4|8,0:0|0:0,0:0:0:0:
356,155,164110,1,2,0:0:0:0:
272,153,164310,2,0,L|208:151,1,60,8|2,0:0|0:0,0:0:0:0:
184,71,164710,2,0,L|306:75,1,120,4|8,0:0|0:0,0:0:0:0:
379,36,165310,1,2,0:0:0:0:
448,83,165510,2,0,P|456:133|455:157,1,60,8|2,0:0|0:0,0:0:0:0:
402,206,165910,5,4,0:0:0:0:
348,270,166110,1,2,0:0:0:0:
320,190,166310,1,8,0:0:0:0:
265,254,166510,1,2,0:0:0:0:
238,174,166710,1,8,0:0:0:0:
238,174,167110,5,4,0:0:0:0:
293,111,167310,1,2,0:0:0:0:
320,190,167510,1,8,0:0:0:0:
375,127,167710,1,2,0:0:0:0:
402,206,167910,1,8,0:0:0:0:
402,206,168310,6,0,P|386:244|308:276,1,120,4|8,0:0|0:0,0:0:0:0:
246,231,168910,1,2,0:0:0:0:
170,266,169110,2,0,L|167:328,1,60,4|2,0:0|0:0,0:0:0:0:
89,293,169510,2,0,L|91:233,1,60,4|2,0:0|0:0,0:0:0:0:
159,182,169910,2,0,L|156:122,1,60,8|2,0:0|0:0,0:0:0:0:
152,38,170310,1,4,0:0:0:0:
226,77,170510,1,2,0:0:0:0:
299,36,170710,6,0,P|310:71|270:150,2,120,4|8|8,0:0|0:0|0:0,0:0:0:0:
226,77,171710,1,2,0:0:0:0:
194,154,171910,2,0,P|211:192|226:209,1,60,4|2,0:0|0:0,0:0:0:0:
305,222,172310,2,0,L|381:228,1,60,8|2,0:0|0:0,0:0:0:0:
448,235,172710,2,0,P|466:258|476:286,2,60,8|2|6,0:0|0:0|0:0,0:0:0:0:
