osu file format v14

[General]
AudioFilename: touhou7.mp3
AudioLeadIn: 0
PreviewTime: 60871
Countdown: 0
SampleSet: Normal
StackLeniency: 0.7
Mode: 1
LetterboxInBreaks: 0
WidescreenStoryboard: 0

[Editor]
DistanceSpacing: 0.9
BeatDivisor: 4
GridSize: 8
TimelineZoom: 1

[Metadata]
Title:Iro wa Nioedo Chirinuru o(OPver.)
TitleUnicode:色は匂へど 散りぬるを(OPver.)
Artist:senya
ArtistUnicode:senya
Creator:Charlotte
Version:Oni
Source:Touhou
Tags:zun yuuhei satellite 幽閉サテライト Mayumi Morinaga 森永真由美 Iceon Kamase Tora かませ虎 Kaleidoscope 東方プロジェクト project Nardoxyribonucleic stu00608
BeatmapID:528649
BeatmapSetID:226789

[Difficulty]
HPDrainRate:6
CircleSize:4
OverallDifficulty:5
ApproachRate:7
SliderMultiplier:1.4
SliderTickRate:1

[Events]
//Background and Video events
0,0,"BG.jpg",0,0
//Break Periods
//Storyboard Layer 0 (Background)
//Storyboard Layer 1 (Fail)
//Storyboard Layer 2 (Pass)
//Storyboard Layer 3 (Foreground)
//Storyboard Sound Samples

[TimingPoints]
1740,434.782608695652,4,1,0,60,1,0
15653,434.782608695652,5,1,0,60,1,0
17826,434.782608695652,4,1,0,80,1,0
31739,-100,4,1,0,70,0,0
44782,-100,4,1,0,80,0,0
59347,-100,4,1,0,30,0,0
60652,-100,4,1,0,80,0,0
61304,-100,4,1,0,90,0,1
87391,-100,4,1,0,45,0,0
88696,-100,4,1,0,35,0,0
90000,-100,4,1,0,25,0,0
91305,-100,4,1,0,15,0,0
92609,-100,4,1,0,5,0,0

[HitObjects]
256,192,1305,5,0,0:0:0:0:
256,192,1522,1,0,0:0:0:0:
256,192,1740,1,8,0:0:0:0:
256,192,2174,1,8,0:0:0:0:
256,192,2609,1,0,0:0:0:0:
256,192,2826,1,0,0:0:0:0:
256,192,3044,1,8,0:0:0:0:
256,192,3261,1,0,0:0:0:0:
256,192,3479,1,8,0:0:0:0:
256,192,3913,1,0,0:0:0:0:
256,192,4566,1,8,0:0:0:0:
256,192,4783,1,0,0:0:0:0:
256,192,5000,1,0,0:0:0:0:
256,192,5218,1,8,0:0:0:0:
256,192,5653,1,8,0:0:0:0:
256,192,6087,1,8,0:0:0:0:
256,192,6305,1,0,0:0:0:0:
256,192,6413,1,0,0:0:0:0:
256,192,6522,1,0,0:0:0:0:
256,192,6739,1,0,0:0:0:0:
256,192,6957,1,8,0:0:0:0:
256,192,7392,1,0,0:0:0:0:
256,192,7609,1,8,0:0:0:0:
256,192,8044,1,8,0:0:0:0:
256,192,8153,1,8,0:0:0:0:
256,192,8261,1,0,0:0:0:0:
256,192,8479,1,0,0:0:0:0:
256,192,8696,1,8,0:0:0:0:
256,192,9131,1,0,0:0:0:0:
256,192,9348,1,0,0:0:0:0:
256,192,9566,1,8,0:0:0:0:
256,192,9783,1,0,0:0:0:0:
256,192,9892,1,0,0:0:0:0:
256,192,10000,1,8,0:0:0:0:
256,192,10218,1,0,0:0:0:0:
256,192,10435,1,8,0:0:0:0:
256,192,10870,1,0,0:0:0:0:
256,192,11087,1,0,0:0:0:0:
256,192,11305,1,8,0:0:0:0:
256,192,11522,1,0,0:0:0:0:
256,192,11739,1,8,0:0:0:0:
256,192,11957,1,8,0:0:0:0:
256,192,12174,1,0,0:0:0:0:
256,192,12609,1,0,0:0:0:0:
256,192,12826,1,8,0:0:0:0:
256,192,13044,1,0,0:0:0:0:
256,192,13479,1,8,0:0:0:0:
256,192,13696,1,0,0:0:0:0:
256,192,13913,12,0,17392,0:0:0:0:
256,192,17826,5,4,0:0:0:0:
256,192,18044,1,0,0:0:0:0:
256,192,18153,1,0,0:0:0:0:
256,192,18261,1,8,0:0:0:0:
256,192,18478,1,0,0:0:0:0:
256,192,18695,1,0,0:0:0:0:
256,192,18804,1,0,0:0:0:0:
256,192,18912,1,0,0:0:0:0:
256,192,19131,1,8,0:0:0:0:
256,192,19566,1,0,0:0:0:0:
256,192,19783,1,0,0:0:0:0:
256,192,19892,1,0,0:0:0:0:
256,192,20000,1,8,0:0:0:0:
256,192,20217,1,0,0:0:0:0:
256,192,20434,1,0,0:0:0:0:
256,192,20543,1,8,0:0:0:0:
256,192,20653,1,0,0:0:0:0:
256,192,20870,1,8,0:0:0:0:
256,192,21305,1,0,0:0:0:0:
256,192,21522,1,0,0:0:0:0:
256,192,21631,1,0,0:0:0:0:
256,192,21739,1,8,0:0:0:0:
256,192,21956,1,0,0:0:0:0:
256,192,22066,1,0,0:0:0:0:
256,192,22174,1,0,0:0:0:0:
256,192,22392,1,0,0:0:0:0:
256,192,22609,1,8,0:0:0:0:
256,192,22826,1,0,0:0:0:0:
256,192,23044,1,8,0:0:0:0:
256,192,23260,1,0,0:0:0:0:
256,192,23369,1,0,0:0:0:0:
256,192,23478,1,8,0:0:0:0:
256,192,23695,1,0,0:0:0:0:
256,192,23913,1,8,0:0:0:0:
256,192,24022,1,8,0:0:0:0:
256,192,24131,1,0,0:0:0:0:
256,192,24239,1,0,0:0:0:0:
256,192,24348,1,8,0:0:0:0:
256,192,24783,1,4,0:0:0:0:
256,192,25000,1,0,0:0:0:0:
256,192,25109,1,0,0:0:0:0:
256,192,25218,1,8,0:0:0:0:
256,192,25435,1,0,0:0:0:0:
256,192,25653,1,8,0:0:0:0:
256,192,25761,1,8,0:0:0:0:
256,192,25870,1,0,0:0:0:0:
256,192,26087,1,8,0:0:0:0:
256,192,26522,1,0,0:0:0:0:
256,192,26739,1,0,0:0:0:0:
256,192,26848,1,8,0:0:0:0:
256,192,26957,1,0,0:0:0:0:
256,192,27174,1,8,0:0:0:0:
256,192,27392,1,8,0:0:0:0:
256,192,27500,1,0,0:0:0:0:
256,192,27609,1,8,0:0:0:0:
256,192,27826,1,8,0:0:0:0:
256,192,28261,1,0,0:0:0:0:
256,192,28370,1,8,0:0:0:0:
256,192,28587,1,8,0:0:0:0:
256,192,28696,1,0,0:0:0:0:
256,192,28913,1,8,0:0:0:0:
256,192,29131,1,0,0:0:0:0:
256,192,29239,1,8,0:0:0:0:
256,192,29457,1,8,0:0:0:0:
256,192,29566,1,0,0:0:0:0:
256,192,29673,1,0,0:0:0:0:
256,192,29783,1,8,0:0:0:0:
256,192,30000,1,0,0:0:0:0:
256,192,30109,1,0,0:0:0:0:
256,192,30218,1,8,0:0:0:0:
256,192,30434,1,0,0:0:0:0:
256,192,30652,1,8,0:0:0:0:
256,192,30869,1,0,0:0:0:0:
256,192,30978,1,0,0:0:0:0:
256,192,31086,1,8,0:0:0:0:
256,192,31195,1,8,0:0:0:0:
256,192,31304,1,0,0:0:0:0:
256,192,31521,1,8,0:0:0:0:
256,192,31739,1,0,0:0:0:0:
256,192,32174,1,8,0:0:0:0:
256,192,32392,1,0,0:0:0:0:
256,192,32609,1,0,0:0:0:0:
256,192,32935,1,8,0:0:0:0:
256,192,33261,1,0,0:0:0:0:
256,192,33479,1,0,0:0:0:0:
256,192,33913,1,8,0:0:0:0:
256,192,34131,1,0,0:0:0:0:
256,192,34348,1,8,0:0:0:0:
256,192,34674,1,0,0:0:0:0:
256,192,35000,1,0,0:0:0:0:
256,192,35218,1,8,0:0:0:0:
256,192,36957,5,0,0:0:0:0:
256,192,37392,1,0,0:0:0:0:
256,192,37609,1,0,0:0:0:0:
256,192,37826,1,8,0:0:0:0:
256,192,38044,1,0,0:0:0:0:
256,192,38261,1,8,0:0:0:0:
256,192,38696,1,0,0:0:0:0:
256,192,39131,1,0,0:0:0:0:
256,192,39348,1,8,0:0:0:0:
256,192,39566,1,8,0:0:0:0:
256,192,39892,1,8,0:0:0:0:
256,192,40218,1,8,0:0:0:0:
256,192,40435,1,8,0:0:0:0:
256,192,40870,1,0,0:0:0:0:
256,192,41305,1,8,0:0:0:0:
256,192,41631,1,8,0:0:0:0:
256,192,41957,1,0,0:0:0:0:
256,192,42174,1,8,0:0:0:0:
256,192,42392,1,0,0:0:0:0:
256,192,42609,1,8,0:0:0:0:
256,192,43044,1,0,0:0:0:0:
256,192,43260,1,0,0:0:0:0:
256,192,43479,1,8,0:0:0:0:
256,192,43913,1,8,0:0:0:0:
256,192,44348,1,8,0:0:0:0:
256,192,44566,1,0,0:0:0:0:
256,192,44783,1,8,0:0:0:0:
256,192,45653,1,12,0:0:0:0:
256,192,45979,1,8,0:0:0:0:
256,192,46087,1,0,0:0:0:0:
256,192,46305,1,0,0:0:0:0:
256,192,46522,1,8,0:0:0:0:
256,192,46848,1,8,0:0:0:0:
256,192,46957,1,0,0:0:0:0:
256,192,47174,1,0,0:0:0:0:
256,192,47392,1,8,0:0:0:0:
256,192,47826,1,8,0:0:0:0:
256,192,48261,1,0,0:0:0:0:
256,192,48479,1,0,0:0:0:0:
256,192,48586,1,0,0:0:0:0:
256,192,48696,1,8,0:0:0:0:
256,192,48912,1,0,0:0:0:0:
256,192,49131,1,8,0:0:0:0:
256,192,49457,1,0,0:0:0:0:
256,192,49566,1,8,0:0:0:0:
256,192,49783,1,0,0:0:0:0:
256,192,50000,1,8,0:0:0:0:
256,192,50109,1,8,0:0:0:0:
256,192,50218,1,0,0:0:0:0:
256,192,50435,1,0,0:0:0:0:
256,192,50870,1,0,0:0:0:0:
256,192,51305,1,8,0:0:0:0:
256,192,51739,1,0,0:0:0:0:
256,192,51957,1,0,0:0:0:0:
256,192,52174,1,8,0:0:0:0:
256,192,52609,1,12,0:0:0:0:
256,192,52826,1,0,0:0:0:0:
256,192,52935,1,8,0:0:0:0:
256,192,53153,1,0,0:0:0:0:
256,192,53261,1,0,0:0:0:0:
256,192,53479,1,8,0:0:0:0:
256,192,53696,1,8,0:0:0:0:
256,192,53805,1,0,0:0:0:0:
256,192,54022,1,8,0:0:0:0:
256,192,54131,1,8,0:0:0:0:
256,192,54348,1,0,0:0:0:0:
256,192,54783,1,0,0:0:0:0:
256,192,55000,1,0,0:0:0:0:
256,192,55218,1,8,0:0:0:0:
256,192,55544,1,8,0:0:0:0:
256,192,55870,1,0,0:0:0:0:
256,192,55979,1,0,0:0:0:0:
256,192,56087,1,8,0:0:0:0:
256,192,56413,1,8,0:0:0:0:
256,192,56739,1,0,0:0:0:0:
256,192,56848,1,0,0:0:0:0:
256,192,56957,1,8,0:0:0:0:
256,192,57283,1,8,0:0:0:0:
256,192,57609,1,0,0:0:0:0:
256,192,57826,1,12,0:0:0:0:
256,192,58261,1,12,0:0:0:0:
256,192,58696,1,4,0:0:0:0:
256,192,59566,1,8,0:0:0:0:
256,192,60000,1,8,0:0:0:0:
256,192,60435,1,0,0:0:0:0:
256,192,60870,1,0,0:0:0:0:
256,192,60979,1,0,0:0:0:0:
256,192,61087,1,0,0:0:0:0:
256,192,61305,1,12,0:0:0:0:
256,192,61631,1,0,0:0:0:0:
256,192,61739,1,8,0:0:0:0:
256,192,61957,1,0,0:0:0:0:
256,192,62066,1,0,0:0:0:0:
256,192,62174,1,8,0:0:0:0:
256,192,62392,1,0,0:0:0:0:
256,192,62609,1,8,0:0:0:0:
256,192,62826,1,8,0:0:0:0:
256,192,63044,1,0,0:0:0:0:
256,192,63370,1,0,0:0:0:0:
256,192,63479,1,8,0:0:0:0:
256,192,63696,1,0,0:0:0:0:
256,192,63913,1,8,0:0:0:0:
256,192,64131,1,8,0:0:0:0:
256,192,64239,1,8,0:0:0:0:
256,192,64348,1,0,0:0:0:0:
256,192,64566,1,0,0:0:0:0:
256,192,64783,1,8,0:0:0:0:
256,192,65000,1,0,0:0:0:0:
256,192,65109,1,0,0:0:0:0:
256,192,65218,1,8,0:0:0:0:
256,192,65435,1,0,0:0:0:0:
256,192,65653,1,8,0:0:0:0:
256,192,65761,1,8,0:0:0:0:
256,192,65870,1,0,0:0:0:0:
256,192,66087,1,8,0:0:0:0:
256,192,66195,1,0,0:0:0:0:
256,192,66305,1,8,0:0:0:0:
256,192,66413,1,8,0:0:0:0:
256,192,66522,1,0,0:0:0:0:
256,192,66957,1,0,0:0:0:0:
256,192,67174,1,8,0:0:0:0:
256,192,67391,1,0,0:0:0:0:
256,192,67609,1,8,0:0:0:0:
256,192,67718,1,8,0:0:0:0:
256,192,67826,1,0,0:0:0:0:
256,192,68044,1,0,0:0:0:0:
256,192,68261,1,8,0:0:0:0:
256,192,68479,1,0,0:0:0:0:
256,192,68587,1,0,0:0:0:0:
256,192,68696,1,0,0:0:0:0:
256,192,68913,1,0,0:0:0:0:
256,192,69131,1,8,0:0:0:0:
256,192,69348,1,8,0:0:0:0:
256,192,69457,1,0,0:0:0:0:
256,192,69566,1,8,0:0:0:0:
256,192,69783,1,0,0:0:0:0:
256,192,70000,1,8,0:0:0:0:
256,192,70218,1,0,0:0:0:0:
256,192,70326,1,0,0:0:0:0:
256,192,70435,1,0,0:0:0:0:
256,192,70653,1,0,0:0:0:0:
256,192,70870,1,8,0:0:0:0:
256,192,71305,1,0,0:0:0:0:
256,192,71522,1,0,0:0:0:0:
256,192,71739,1,12,0:0:0:0:
256,192,72174,1,8,0:0:0:0:
256,192,72392,1,0,0:0:0:0:
256,192,72500,1,0,0:0:0:0:
256,192,72609,1,8,0:0:0:0:
256,192,72826,1,8,0:0:0:0:
256,192,73044,1,0,0:0:0:0:
256,192,73261,1,8,0:0:0:0:
256,192,73479,1,0,0:0:0:0:
256,192,73587,1,0,0:0:0:0:
256,192,73696,1,8,0:0:0:0:
256,192,73913,1,8,0:0:0:0:
256,192,74022,1,0,0:0:0:0:
256,192,74131,1,0,0:0:0:0:
256,192,74239,1,8,0:0:0:0:
256,192,74348,1,0,0:0:0:0:
256,192,74566,1,0,0:0:0:0:
256,192,74782,1,8,0:0:0:0:
256,192,74891,1,8,0:0:0:0:
256,192,75000,1,0,0:0:0:0:
256,192,75218,1,4,0:0:0:0:
256,192,75435,1,0,0:0:0:0:
256,192,75544,1,0,0:0:0:0:
256,192,75653,1,8,0:0:0:0:
256,192,75979,1,0,0:0:0:0:
256,192,76087,1,8,0:0:0:0:
256,192,76305,1,8,0:0:0:0:
256,192,76413,1,8,0:0:0:0:
256,192,76522,1,0,0:0:0:0:
256,192,76739,1,0,0:0:0:0:
256,192,76957,1,8,0:0:0:0:
256,192,77283,1,8,0:0:0:0:
256,192,77392,1,0,0:0:0:0:
256,192,77609,1,8,0:0:0:0:
256,192,77826,1,0,0:0:0:0:
256,192,78043,1,8,0:0:0:0:
256,192,78153,1,8,0:0:0:0:
256,192,78261,1,0,0:0:0:0:
256,192,78370,1,0,0:0:0:0:
256,192,78479,1,8,0:0:0:0:
256,192,78696,1,0,0:0:0:0:
256,192,78913,1,8,0:0:0:0:
256,192,79131,1,0,0:0:0:0:
256,192,79348,1,8,0:0:0:0:
256,192,79457,1,8,0:0:0:0:
256,192,79566,1,0,0:0:0:0:
256,192,79783,1,8,0:0:0:0:
256,192,80000,1,0,0:0:0:0:
256,192,80109,1,0,0:0:0:0:
256,192,80218,1,8,0:0:0:0:
256,192,80326,1,8,0:0:0:0:
256,192,80435,1,8,0:0:0:0:
256,192,80760,1,0,0:0:0:0:
256,192,80870,1,8,0:0:0:0:
256,192,81087,1,0,0:0:0:0:
256,192,81305,1,8,0:0:0:0:
256,192,81522,1,8,0:0:0:0:
256,192,81631,1,8,0:0:0:0:
256,192,81739,1,0,0:0:0:0:
256,192,81957,1,8,0:0:0:0:
256,192,82174,1,0,0:0:0:0:
256,192,82392,1,0,0:0:0:0:
256,192,82500,1,0,0:0:0:0:
256,192,82609,1,0,0:0:0:0:
256,192,82826,1,8,0:0:0:0:
256,192,83044,1,0,0:0:0:0:
256,192,83261,1,8,0:0:0:0:
256,192,83370,1,0,0:0:0:0:
256,192,83479,1,8,0:0:0:0:
256,192,83696,1,8,0:0:0:0:
256,192,83913,1,0,0:0:0:0:
256,192,84131,1,8,0:0:0:0:
256,192,84239,1,8,0:0:0:0:
256,192,84348,1,8,0:0:0:0:
256,192,84566,1,8,0:0:0:0:
256,192,84783,1,0,0:0:0:0:
256,192,85000,1,0,0:0:0:0:
256,192,85218,1,0,0:0:0:0:
256,192,85435,1,0,0:0:0:0:
256,192,85653,1,12,0:0:0:0:
256,192,86087,1,0,0:0:0:0:
256,192,86305,1,0,0:0:0:0:
256,192,86522,1,12,0:0:0:0:
256,192,86957,1,0,0:0:0:0:
256,192,87174,1,0,0:0:0:0:
256,192,87392,12,0,93478,0:0:0:0:
