osu file format v14

[General]
AudioFilename: Iro wa Jou e to Sasou.mp3
AudioLeadIn: 0
PreviewTime: 108675
Countdown: 0
SampleSet: Soft
StackLeniency: 0.7
Mode: 0
LetterboxInBreaks: 0
EpilepsyWarning: 1
WidescreenStoryboard: 1

[Editor]
DistanceSpacing: 1
BeatDivisor: 2
GridSize: 4
TimelineZoom: 1.7

[Metadata]
Title:Iro wa Jou e to Izanau
TitleUnicode:色は情へと誘う
Artist:senya
ArtistUnicode:senya
Creator:Momizi
Version:Normal
Source:東方Project
Tags:Greenwich in the sky The Whole World Sanzen Sekai Yuuhei Satellite deitarabotchi Kamase Tora Mayumi Morinaga Touhou 幽閉サテライト c84 大空魔術 ~ Magical Astronomy 天空のグリニッジ Spring Roll FreeSongs Mikagura Seisa マエリベリー·ハーン Maribel Hearn 宇佐見 蓮子 うさみ れんこ Usami Renko
BeatmapID:661086
BeatmapSetID:226670

[Difficulty]
HPDrainRate:3
CircleSize:3
OverallDifficulty:4
ApproachRate:5
SliderMultiplier:0.9
SliderTickRate:1

[Events]
//Background and Video events
0,0,"BG.jpg",0,0
//Break Periods
2,50075,58275
2,127775,136275
//Storyboard Layer 0 (Background)
//Storyboard Layer 1 (Fail)
//Storyboard Layer 2 (Pass)
//Storyboard Layer 3 (Foreground)
Sprite,Foreground,Centre,"NEW SB/title/beatmapMomizi1.png",320,240 V,0,36675,,0.5,0.5 F,0,36675,36825,0,1 M,1,36675,37075,230,335,170,370 M,0,37075,39075,170,370 V,0,38925,39075,0.5,0.5,0.5,0
Sprite,Foreground,Centre,"NEW SB/title/beatmapMomizi2.png",320,240 V,0,36675,,0.5,0.5 F,0,36675,36825,0,1 M,1,36675,37075,110,405,170,370 M,0,37075,39075,170,370 V,0,38925,39075,0.5,0.5,0.5,0
//Storyboard Sound Samples

[TimingPoints]
675,300,4,1,0,100,1,0
10275,-100,4,2,2,60,0,0
28275,-100,4,1,1,60,0,0
28875,-100,4,1,1,75,0,0
29475,-90.9090909090909,4,2,1,70,0,0
39075,-100,4,2,1,60,0,1
48675,-100,4,1,1,60,0,1
49875,-100,4,3,1,60,0,0
87075,-100,4,1,1,40,0,0
87375,-100,4,1,1,55,0,0
87675,-100,4,1,1,70,0,0
87975,-100,4,1,1,85,0,0
88275,-100,4,2,1,60,0,0
97425,-100,4,2,1,70,0,0
100275,-100,4,2,4,40,0,0
100350,-100,4,2,1,5,0,0
100875,-100,4,2,4,45,0,0
100950,-100,4,2,1,5,0,0
101475,-100,4,2,4,50,0,0
102375,-100,4,2,1,5,0,0
102675,-100,4,2,1,80,0,0
106275,-100,4,2,1,60,0,0
107475,-100,4,1,1,60,0,0
108675,-100,4,2,1,75,0,1
126675,-100,4,1,1,50,0,1
127275,-100,4,1,1,70,0,1
127875,-100,4,3,1,60,0,0
135975,-100,4,2,1,60,0,0
137475,-100,4,3,1,60,0,0
145875,-100,4,1,1,40,0,0
146475,-100,4,1,1,50,0,0
146775,-100,4,1,1,70,0,0
147075,-100,4,2,1,60,0,0
159075,-100,4,2,4,40,0,0
159150,-100,4,2,1,5,0,0
159675,-100,4,2,4,45,0,0
159750,-100,4,2,1,5,0,0
160275,-100,4,2,4,50,0,0
161175,-100,4,2,4,5,0,0
161475,-100,4,2,1,80,0,0
165075,-100,4,2,1,40,0,0
165375,-100,4,1,1,60,0,0
165675,-100,4,1,1,70,0,0
165975,-100,4,1,1,80,0,0
166275,-100,4,2,2,60,0,0
174675,-100,4,2,2,70,0,0
175875,-100,4,2,2,60,0,0
183075,-100,4,2,1,70,0,0
184875,-100,4,2,1,45,0,0
185475,-100,4,2,1,60,0,0
186675,-100,4,2,1,75,0,1
205875,-90.9090909090909,4,2,1,60,0,0
215475,-90.9090909090909,4,2,1,55,0,0
223875,-90.9090909090909,4,1,1,50,0,0
224175,-90.9090909090909,4,1,1,60,0,0
224475,-90.9090909090909,4,1,1,70,0,0

[Colours]
Combo1 : 250,250,20
Combo2 : 206,72,251
Combo3 : 34,202,251

[HitObjects]
412,152,10275,6,0,P|376:180|328:188,1,90,0|0,0:0|0:0,0:0:0:0:
244,184,10875,2,0,P|180:172|124:180,1,90,0|0,0:0|0:0,0:0:0:0:
120,256,11475,1,4,0:3:0:0:
180,324,11775,1,0,0:0:0:0:
268,328,12075,1,0,0:0:0:0:
440,272,12675,6,0,P|444:224|434:182,2,90
352,248,13575,1,0,0:0:0:0:
276,200,13875,2,0,P|256:152|256:112,2,90
128,304,15075,6,0,L|128:204,1,90,0|0,0:0|0:0,0:0:0:0:
108,132,15675,2,0,L|108:32,1,90,0|0,0:0|0:0,0:0:0:0:
196,32,16275,1,0,0:0:0:0:
252,100,16575,1,0,0:0:0:0:
312,32,16875,1,0,0:0:0:0:
448,152,17475,6,0,L|448:224,1,45,0|0,0:0|0:0,0:0:0:0:
412,228,17775,2,0,L|412:304,1,45,0|0,0:0|0:0,0:0:0:0:
372,292,18075,2,0,P|380:336|356:372,1,90,0|0,0:0|0:0,0:0:0:0:
268,360,18675,2,0,P|204:324|280:296,1,180,0|0,0:0|0:0,0:0:0:0:
92,340,19875,6,0,P|80:288|84:236,1,90,6|0,0:0|0:0,0:0:0:0:
112,168,20475,2,8,L|112:100,2,45,8|0|0,0:0|0:0|0:0,0:0:0:0:
200,188,21075,1,2,0:0:0:0:
288,192,21375,1,2,0:0:0:0:
376,172,21675,1,8,0:0:0:0:
460,12,22275,6,0,P|408:40|368:48,1,90,2|0,0:0|0:0,0:0:0:0:
292,68,22875,2,0,L|256:20,2,45,8|0|0,0:0|0:0|0:0,0:0:0:0:
288,160,23475,1,2,0:0:0:0:
268,248,23775,1,2,0:0:0:0:
212,320,24075,2,0,P|152:340|92:328,1,90,4|0,0:0|0:0,0:0:0:0:
80,260,24675,6,0,P|72:200|80:168,1,90,2|0,0:0|0:0,0:0:0:0:
152,124,25275,2,0,P|160:184|152:216,1,90,8|0,0:0|0:0,0:0:0:0:
244,168,25875,1,2,0:0:0:0:
268,80,26175,1,2,0:0:0:0:
348,36,26475,1,10,0:0:0:0:
432,196,27075,6,0,L|432:288,1,90,2|0,0:0|0:0,0:0:0:0:
348,324,27675,2,0,L|348:228,1,90,8|0,0:0|0:0,0:0:0:0:
260,256,28275,2,0,L|260:200,2,45,0|0|0,0:0|0:0|0:0,0:0:0:0:
180,296,28875,2,0,L|180:368,2,45,0|0|0,0:0|0:0|0:0,0:0:0:0:
84,316,29475,6,2,B|52:272|52:272|52:200,1,99.0000030212403,2|2,0:0|0:0,0:0:0:0:
136,172,30075,2,2,B|168:128|168:128|168:56,1,99.0000030212403,2|2,0:0|0:0,0:0:0:0:
260,48,30675,2,2,B|264:104|264:104|312:148,1,99.0000030212403,2|2,0:0|0:0,0:0:0:0:
392,144,31275,2,2,B|388:88|388:88|340:44,1,99.0000030212403,2|2,0:0|0:0,0:0:0:0:
452,32,31875,5,2,0:0:0:0:
476,128,32175,1,2,0:0:0:0:
472,228,32475,2,2,L|428:328,1,99.0000030212403,2|2,0:0|0:0,0:0:0:0:
344,280,33075,2,2,P|288:268|236:272,1,99.0000030212403,2|2,0:0|0:0,0:0:0:0:
164,324,33675,2,2,P|164:264|144:212,1,99.0000030212403,2|2,0:0|0:0,0:0:0:0:
60,192,34275,6,2,P|60:132|80:80,1,99.0000030212403,2|2,0:0|0:0,0:0:0:0:
156,44,34875,2,2,P|156:104|136:156,1,99.0000030212403,2|2,0:0|0:0,0:0:0:0:
240,108,35475,2,2,L|352:48,1,99.0000030212403,2|2,0:0|0:0,0:0:0:0:
332,160,36075,2,2,L|236:244,1,99.0000030212403,2|2,0:0|0:0,0:0:0:0:
160,248,36675,5,2,0:0:0:0:
228,320,36975,1,2,0:0:0:0:
320,288,37275,1,2,0:0:0:0:
412,328,37575,1,2,0:0:0:0:
456,240,37875,2,2,P|436:164|480:52,1,198.000006042481,2|2,0:0|0:0,0:0:0:0:
380,48,38775,1,2,0:0:0:0:
308,104,39075,6,0,L|308:160,1,45,6|0,0:0|0:0,0:0:0:0:
268,172,39375,2,0,L|268:240,1,45,10|0,0:0|0:0,0:0:0:0:
240,252,39675,1,2,0:0:0:0:
164,300,39975,1,10,0:0:0:0:
76,312,40275,1,6,0:0:0:0:
64,224,40575,1,14,0:0:0:0:
152,208,40875,1,6,0:0:0:0:
12,96,41475,6,0,L|82:93,1,45,2|0,0:0|0:0,0:0:0:0:
100,104,41775,2,0,L|170:101,1,45,10|0,0:0|0:0,0:0:0:0:
188,120,42075,1,2,0:0:0:0:
280,120,42375,1,10,0:0:0:0:
328,196,42675,2,2,L|444:192,1,90,6|14,0:0|0:0,0:0:0:0:
476,260,43275,1,6,0:0:0:0:
308,324,43875,6,2,B|256:340|256:340|192:340,1,90,2|10,0:0|0:0,0:0:0:0:
132,316,44475,2,2,B|80:300|80:300|16:300,1,90,2|10,0:0|0:0,0:0:0:0:
84,220,45075,1,6,0:0:0:0:
164,180,45375,1,14,0:0:0:0:
88,132,45675,1,6,0:0:0:0:
256,192,46275,6,2,P|280:136|276:84,1,90,2|10,0:0|0:0,0:0:0:0:
360,64,46875,2,0,L|364:112,1,45,2|0,0:0|3:0,0:0:0:0:
368,152,47175,1,10,0:0:0:0:
416,228,47475,1,6,0:0:0:0:
332,260,47775,1,14,0:0:0:0:
380,336,48075,1,2,0:0:0:0:
200,344,48675,6,0,L|136:352,2,45,0|0|0,0:0|0:0|0:0,0:0:0:0:
156,264,49275,2,0,L|92:272,2,45,0|0|0,0:0|0:0|1:1,0:0:0:0:
217,198,49875,5,12,0:0:0:0:
320,72,59475,6,0,P|368:76|424:68,1,90,12|0,0:0|0:0,0:0:0:0:
412,164,60075,2,0,P|368:160|308:168,1,90,8|0,0:2|0:0,0:0:0:0:
296,248,60675,1,8,0:0:0:0:
384,264,60975,1,8,0:0:0:0:
456,320,61275,2,0,L|516:296,2,45,8|0|0,0:2|0:0|0:0,0:0:0:0:
372,356,61875,5,8,0:0:0:0:
284,360,62175,1,0,0:0:0:0:
196,352,62475,1,8,0:2:0:0:
116,312,62775,2,0,P|132:240|96:120,1,180,0|8,0:0|0:0,0:0:0:0:
152,128,63525,1,0,0:0:0:0:
196,116,63675,2,0,L|196:56,2,45,8|0|0,0:2|0:0|0:0,0:0:0:0:
240,196,64275,5,8,0:0:0:0:
300,264,64575,1,0,0:0:0:0:
380,304,64875,2,0,P|424:256|436:220,1,90,8|0,0:2|0:0,0:0:0:0:
432,144,65475,1,8,0:0:0:0:
372,76,65775,1,8,0:0:0:0:
460,56,66075,1,8,0:2:0:0:
281,80,66675,6,0,L|165:96,1,90,8|0,0:0|0:0,0:0:0:0:
132,160,67275,1,8,0:2:0:0:
212,208,67575,2,0,L|280:208,1,45,0|8,0:0|0:0,0:0:0:0:
292,236,67875,1,8,0:0:0:0:
368,288,68175,1,8,0:0:0:0:
292,336,68475,1,8,0:0:0:0:
112,352,69075,6,0,L|112:240,1,90,4|0,0:2|0:0,0:0:0:0:
60,188,69675,2,0,L|60:120,2,45,8|0|0,0:2|0:0|0:0,0:0:0:0:
140,148,70275,1,8,0:0:0:0:
228,144,70575,1,8,0:0:0:0:
312,172,70875,2,0,P|376:184|436:180,1,90,8|0,0:2|0:0,0:0:0:0:
440,268,71475,6,0,P|420:308|416:352,1,90,4|0,0:2|0:0,0:0:0:0:
328,328,72075,1,8,0:2:0:0:
240,308,72375,2,0,L|184:312,1,45,0|8,0:0|0:0,0:0:0:0:
164,344,72675,2,0,L|68:352,1,90,8|8,0:0|0:0,0:0:0:0:
32,272,73275,2,0,L|128:264,1,90,8|0,0:2|0:0,0:0:0:0:
168,188,73875,6,0,L|72:168,1,90,4|0,0:2|0:0,0:0:0:0:
136,100,74475,2,0,L|204:92,1,45,8|0,0:2|0:0,0:0:0:0:
220,72,74775,2,0,L|288:64,1,45,0|8,0:0|0:0,0:0:0:0:
344,112,75225,2,0,L|408:104,1,45,0|8,0:0|0:0,0:0:0:0:
428,188,75675,2,0,L|304:203,1,90,8|0,0:2|0:0,0:0:0:0:
296,276,76275,6,0,L|248:284,2,45,0|0|8,0:0|0:0|0:0,0:0:0:0:
364,332,76875,2,0,P|324:360|284:364,1,90,8|0,0:2|0:0,0:0:0:0:
196,356,77475,1,0,0:0:0:0:
108,348,77775,1,8,0:0:0:0:
156,272,78075,2,0,L|56:256,1,90,8|0,0:2|0:0,0:0:0:0:
108,176,78675,6,0,P|144:176|184:124,1,90,4|0,0:2|0:0,0:0:0:0:
132,64,79275,2,0,P|96:64|64:72,2,45,8|0|0,0:2|0:0|0:0,0:0:0:0:
224,72,79875,1,8,0:0:0:0:
308,104,80175,1,8,0:0:0:0:
356,180,80475,2,0,P|368:228|368:288,1,90,8|0,0:2|0:0,0:0:0:0:
296,320,81075,6,0,P|284:272|284:212,1,90,4|0,0:2|0:0,0:0:0:0:
192,224,81675,2,0,L|172:276,1,45,8|0,0:2|0:0,0:0:0:0:
132,284,81975,2,0,L|88:312,1,45,0|8,0:0|0:0,0:0:0:0:
48,300,82275,1,8,0:0:0:0:
28,212,82575,1,8,0:0:0:0:
40,124,82875,2,0,P|76:80|112:48,1,90,8|0,0:2|0:0,0:0:0:0:
176,104,83475,6,0,P|244:112|272:104,1,90,4|0,0:2|0:0,0:0:0:0:
344,64,84075,2,0,L|344:16,2,45,8|0|0,0:2|0:0|0:0,0:0:0:0:
368,152,84675,1,0,0:0:0:0:
364,240,84975,1,8,0:0:0:0:
356,328,85275,2,0,L|300:336,1,45,8|0,0:2|0:0,0:0:0:0:
224,312,85725,5,8,0:0:0:0:
184,232,86025,2,0,L|160:176,1,45,0|8,0:0|0:0,0:0:0:0:
128,108,86475,1,8,0:2:0:0:
308,128,87075,6,0,L|308:172,2,45,0|0|0,0:0|0:0|0:0,0:0:0:0:
396,104,87675,2,0,L|396:48,2,45,0|0|0,0:0|0:0|0:0,0:0:0:0:
472,156,88275,6,2,L|432:268,1,90,2|10,0:0|0:0,0:0:0:0:
352,236,88875,2,2,L|312:348,1,90,2|10,0:0|0:0,0:0:0:0:
232,308,89475,2,2,L|232:184,1,90,2|8,0:0|0:0,0:0:0:0:
165,157,90075,2,0,L|156:91,2,45,2|0|8,0:0|0:0|0:0,0:0:0:0:
256,192,90675,12,2,91875,0:0:0:0:
184,168,93075,6,2,P|216:104|244:212,1,270,2|10,0:0|0:0,0:0:0:0:
172,256,94275,2,2,P|156:292|196:308,1,90,2|10,0:0|0:0,0:0:0:0:
284,296,94875,2,0,L|280:340,2,45,2|0|10,0:0|0:0|0:0,0:0:0:0:
368,268,95475,6,2,B|408:196|408:196|336:124|336:124|384:40,1,270,2|10,0:0|0:0,0:0:0:0:
288,44,96675,2,2,P|164:108|52:28,1,270,2|8,0:0|0:0,0:0:0:0:
16,124,97875,6,2,B|28:216|28:216|44:320|156:328,1,270,6|10,0:0|0:0,0:0:0:0:
196,252,99075,2,0,P|252:228|328:256,1,135,2|0,0:0|0:0,0:0:0:0:
364,260,99675,2,0,L|416:260,2,45,2|0|10,0:0|0:0|0:0,0:0:0:0:
388,172,100275,6,2,P|380:128|388:80,1,90,4|0,0:0|0:0,0:0:0:0:
296,92,100875,2,2,P|304:136|296:184,1,90,8|0,0:0|0:0,0:0:0:0:
208,184,101475,2,0,P|108:124|204:112,1,270,2|0,0:0|0:0,0:0:0:0:
256,192,102675,12,0,106275,0:0:0:0:
204,108,107475,6,0,L|128:108,2,45,0|0|0,0:0|0:0|0:0,0:0:0:0:
284,152,108075,2,0,L|356:152,2,45,0|0|0,0:0|0:0|0:0,0:0:0:0:
208,200,108675,5,6,0:0:0:0:
124,232,108975,1,10,0:0:0:0:
192,292,109275,2,0,L|260:292,2,45,2|0|10,0:0|0:0|0:0,0:0:0:0:
148,372,109875,1,6,0:0:0:0:
240,372,110175,1,10,0:0:0:0:
328,372,110475,2,0,P|380:340|424:328,1,90,6|8,0:0|0:0,0:0:0:0:
476,272,111075,6,0,L|476:212,1,45,2|0,0:0|0:0,0:0:0:0:
436,204,111375,2,0,L|436:152,1,45,10|0,0:0|0:0,0:0:0:0:
404,128,111675,1,2,0:0:0:0:
316,116,111975,1,10,0:0:0:0:
248,176,112275,1,6,0:0:0:0:
160,172,112575,1,14,0:0:0:0:
84,124,112875,2,0,P|120:88|176:80,1,90,6|8,0:0|0:0,0:0:0:0:
244,52,113475,6,2,L|340:24,1,90,2|10,0:0|0:0,0:0:0:0:
420,40,114075,2,10,L|500:88,1,90,2|10,0:0|0:0,0:0:0:0:
488,176,114675,1,6,0:0:0:0:
480,264,114975,1,10,0:0:0:0:
408,212,115275,1,6,0:0:0:0:
400,300,115575,1,10,0:0:0:0:
316,328,115875,6,0,L|256:328,1,45,2|0,0:0|0:0,0:0:0:0:
240,292,116175,2,0,L|180:292,1,45,10|0,0:0|0:0,0:0:0:0:
164,324,116475,1,2,0:0:0:0:
108,252,116775,1,10,0:0:0:0:
164,184,117075,1,6,0:0:0:0:
104,116,117375,1,14,0:0:0:0:
44,48,117675,2,0,P|88:32|172:44,1,90,6|10,0:0|0:0,0:0:0:0:
208,80,118275,6,2,P|252:120|284:128,1,90,6|10,0:0|0:0,0:0:0:0:
332,52,118875,2,10,B|388:48|424:64,1,90,2|10,0:0|0:0,0:0:0:0:
436,152,119475,1,6,0:0:0:0:
360,200,119775,1,10,0:0:0:0:
424,260,120075,2,0,B|416:308|416:308|384:352,1,90,6|8,0:0|0:0,0:0:0:0:
300,336,120675,5,2,0:0:0:0:
272,252,120975,1,10,0:0:0:0:
256,164,121275,2,0,L|244:92,2,45,2|0|10,0:0|0:0|0:0,0:0:0:0:
168,152,121875,1,6,0:0:0:0:
124,232,122175,1,14,0:0:0:0:
80,312,122475,2,10,L|20:216,1,90,6|10,0:0|0:0,0:0:0:0:
60,152,123075,5,2,0:0:0:0:
100,72,123375,1,10,0:0:0:0:
180,32,123675,2,10,P|248:36|272:48,1,90,2|10,0:0|0:0,0:0:0:0:
280,136,124275,1,6,0:0:0:0:
300,224,124575,1,10,0:0:0:0:
388,204,124875,1,6,0:0:0:0:
368,116,125175,1,10,0:0:0:0:
456,100,125475,6,2,P|472:156|472:208,1,90,2|10,0:0|0:0,0:0:0:0:
460,276,126075,2,10,P|424:328|388:348,1,90,2|8,0:0|0:0,0:0:0:0:
320,308,126675,2,0,L|252:308,2,45,0|0|0,0:0|0:0|0:0,0:0:0:0:
300,224,127275,2,0,L|232:224,2,45,0|0|0,0:0|0:0|0:0,0:0:0:0:
212,72,137475,6,0,P|156:68|112:76,1,90,4|0,0:2|0:0,0:0:0:0:
36,96,138075,2,0,L|36:164,1,45,8|0,0:0|0:0,0:0:0:0:
56,184,138375,2,0,L|56:252|56:248,1,45,0|0,0:0|0:0,0:0:0:0:
140,196,138825,2,0,L|140:248,1,45
228,236,139275,2,0,L|228:336,1,90,8|0,0:0|0:0,0:0:0:0:
312,300,139875,6,0,P|352:336|380:316,1,90,4|0,0:2|0:0,0:0:0:0:
400,236,140475,2,0,L|400:168,1,45,8|0,0:0|0:0,0:0:0:0:
436,164,140775,2,0,L|436:120,1,45,0|8,0:0|0:0,0:0:0:0:
356,76,141225,2,0,L|356:128,1,45
276,80,141675,2,0,L|276:184,1,90,8|0,0:0|0:0,0:0:0:0:
212,232,142275,6,0,L|164:148,1,90,4|0,0:2|0:0,0:0:0:0:
80,136,142875,2,0,L|84:184,1,45,8|0,0:0|0:0,0:0:0:0:
52,212,143175,2,0,L|56:260,1,45,0|8,0:0|0:0,0:0:0:0:
120,320,143625,2,0,L|176:320,1,45,0|8,0:0|0:0,0:0:0:0:
256,316,144075,1,8,0:0:0:0:
432,272,144675,6,0,L|432:332,2,45,8|0|0,0:0|0:0|0:0,0:0:0:0:
356,220,145275,2,0,L|364:112,1,90,8|0,0:0|0:0,0:0:0:0:
276,108,145875,2,0,L|252:152,2,45,0|0|0,0:0|0:0|0:0,0:0:0:0:
188,92,146475,2,0,L|164:40,2,45,0|0|0,0:0|0:0|0:0,0:0:0:0:
156,176,147075,6,2,P|168:220|160:268,1,90,6|10,0:0|0:0,0:0:0:0:
76,232,147675,2,2,P|64:188|72:140,1,90,2|10,0:0|0:0,0:0:0:0:
132,80,148275,2,2,B|184:60|184:60|208:32,1,90,2|10,0:0|0:0,0:0:0:0:
296,52,148875,2,0,P|328:52|364:60,2,45,2|0|10,0:0|0:0|0:0,0:0:0:0:
256,192,149475,12,2,150675,0:0:0:0:
412,56,151875,6,2,B|384:152|264:148,1,180,2|2,0:0|0:0,0:0:0:0:
184,148,152775,1,10,0:0:0:0:
100,180,153075,2,0,P|72:220|56:272,1,90,2|10,0:0|0:0,0:0:0:0:
144,284,153675,2,0,P|164:252|168:236,2,45,2|0|10,0:0|0:0|0:0,0:0:0:0:
232,300,154275,6,2,P|344:300|272:232,1,270,2|10,0:0|0:0,0:0:0:0:
212,168,155475,2,0,P|116:120|224:100,1,270,2|8,0:0|0:0,0:0:0:0:
304,104,156675,6,2,B|392:36|480:120,1,180,6|2,0:0|0:0,0:0:0:0:
480,200,157575,1,10,0:0:0:0:
420,268,157875,2,2,P|376:296|336:292,1,90,6|10,0:0|0:0,0:0:0:0:
252,272,158475,2,0,P|228:268|196:272,2,45,2|0|10,0:0|0:0|0:0,0:0:0:0:
208,352,159075,6,2,P|168:344|132:288,1,90,4|0,0:0|0:0,0:0:0:0:
56,264,159675,2,2,P|72:216|60:144,1,90,8|0,0:0|0:0,0:0:0:0:
120,100,160275,2,2,B|208:108|308:56|308:56|284:132,1,270,2|0,0:0|0:0,0:0:0:0:
256,192,161475,12,2,163875,0:0:0:0:
196,164,165075,6,0,L|248:184,2,45,0|0|0,1:0|1:0|0:0,0:0:0:0:
124,220,165675,2,0,L|84:188,2,45,0|0|0,0:0|0:0|0:0,0:0:0:0:
192,280,166275,6,0,P|264:280|284:292,1,90,6|0,0:0|0:0,0:0:0:0:
356,332,166875,2,0,P|396:276|400:224,1,90,8|0,0:0|0:0,0:0:0:0:
348,184,167475,1,2,0:0:0:0:
356,96,167775,1,2,0:0:0:0:
432,148,168075,1,8,0:0:0:0:
256,192,168675,6,0,P|208:184|168:156,1,90,2|0,0:0|0:0,0:0:0:0:
156,72,169275,2,0,P|204:80|244:108,1,90,8|0,0:0|0:0,0:0:0:0:
300,36,169875,1,2,0:0:0:0:
388,20,170175,1,2,0:0:0:0:
476,36,170475,1,8,0:0:0:0:
388,196,171075,6,0,P|316:200|284:184,1,90,2|0,0:0|0:0,0:0:0:0:
248,268,171675,2,0,P|184:280|136:304,1,90,8|0,0:0|0:0,0:0:0:0:
80,328,172275,1,2,0:0:0:0:
24,260,172575,1,2,0:0:0:0:
24,260,172875,2,0,L|20:148,1,90,8|0,0:0|0:0,0:0:0:0:
28,80,173475,6,0,P|80:44|124:40,1,90,2|0,0:0|0:0,0:0:0:0:
184,84,174075,2,0,P|232:80|276:52,1,90,8|0,0:0|0:0,0:0:0:0:
356,80,174675,1,2,0:0:0:0:
440,52,174975,1,2,0:0:0:0:
428,140,175275,2,0,P|416:192|428:236,1,90,8|0,0:0|2:0,0:0:0:0:
464,308,175875,6,0,L|360:312,1,90,6|0,0:0|0:0,0:0:0:0:
292,348,176475,2,0,L|188:352,1,90,8|0,0:0|0:0,0:0:0:0:
152,276,177075,1,2,0:0:0:0:
168,188,177375,1,2,0:0:0:0:
240,244,177675,1,8,0:0:0:0:
72,176,178275,6,0,L|88:68,1,90,2|0,0:0|0:0,0:0:0:0:
168,56,178875,2,0,L|248:120,1,90,8|0,0:0|0:0,0:0:0:0:
308,52,179475,1,2,0:0:0:0:
388,92,179775,1,2,0:0:0:0:
468,128,180075,2,0,L|472:260,1,90,8|0,0:0|0:0,0:0:0:0:
392,260,180675,6,0,P|332:236|308:236,1,90,2|0,0:0|0:0,0:0:0:0:
228,192,181275,2,0,P|180:192|136:168,1,90,8|0,0:0|0:0,0:0:0:0:
64,216,181875,1,2,0:0:0:0:
96,300,182175,1,2,0:0:0:0:
180,328,182475,1,8,0:0:0:0:
352,280,183075,6,0,L|352:188,1,90,0|0,0:0|0:0,0:0:0:0:
440,180,183675,2,0,L|440:64,1,90,0|0,0:0|0:0,0:0:0:0:
356,56,184275,1,0,0:0:0:0:
276,96,184575,1,0,0:0:0:0:
188,96,184875,1,0,0:0:0:0:
104,256,185475,6,0,L|136:296,2,45,0|0|0,0:0|0:0|0:0,0:0:0:0:
172,196,186075,2,0,L|116:156,2,45,8|0|0,3:3|0:0|1:1,0:0:0:0:
256,228,186675,6,0,L|316:228,1,45,6|0,0:0|0:0,0:0:0:0:
340,252,186975,2,0,L|400:252,1,45,10|0,0:0|0:0,0:0:0:0:
424,276,187275,2,0,L|480:276,2,45,2|0|10,0:0|0:0|0:0,0:0:0:0:
356,336,187875,1,6,0:0:0:0:
272,364,188175,1,14,0:0:0:0:
184,376,188475,2,0,P|124:380|76:364,1,90,6|8,0:0|0:0,0:0:0:0:
28,312,189075,6,2,P|88:288|112:288,1,90,2|10,0:0|0:0,0:0:0:0:
204,288,189675,2,2,P|256:284|304:244,1,90,2|10,0:0|0:0,0:0:0:0:
344,192,190275,1,6,0:0:0:0:
432,192,190575,1,14,0:0:0:0:
388,112,190875,2,0,B|340:108|340:108|296:88,1,90,6|8,0:0|0:0,0:0:0:0:
232,36,191475,6,0,L|188:72,1,45,2|0,0:0|0:0,0:0:0:0:
152,64,191775,2,0,L|112:96,1,45,10|0,0:0|0:0,0:0:0:0:
72,96,192075,1,2,0:0:0:0:
104,180,192375,1,10,0:0:0:0:
188,152,192675,2,0,P|200:200|184:264,1,90,6|14,0:0|0:0,0:0:0:0:
128,300,193275,2,0,P|160:340|208:356,1,90,6|10,0:0|0:0,0:0:0:0:
284,372,193875,6,2,P|336:368|372:344,1,90,2|10,0:0|0:0,0:0:0:0:
328,268,194475,2,10,P|264:272|236:264,1,90,2|10,0:0|0:0,0:0:0:0:
284,188,195075,1,6,0:0:0:0:
372,192,195375,1,14,0:0:0:0:
456,164,195675,2,0,P|412:116|364:96,1,90,6|10,0:0|0:0,0:0:0:0:
300,96,196275,6,2,L|200:96,1,90,6|10,0:0|0:0,0:0:0:0:
132,52,196875,2,2,L|32:52,1,90,2|10,0:0|0:0,0:0:0:0:
60,136,197475,1,6,0:0:0:0:
140,176,197775,1,14,0:0:0:0:
92,252,198075,2,0,P|112:324|152:352,1,90,6|10,0:0|0:0,0:0:0:0:
212,324,198675,6,2,P|232:272|232:228,1,90,2|10,0:0|0:0,0:0:0:0:
228,148,199275,2,2,P|232:100|260:48,1,90,2|10,0:0|0:0,0:0:0:0:
332,96,199875,1,6,0:0:0:0:
352,184,200175,1,14,0:0:0:0:
372,272,200475,2,2,L|292:344,1,90,6|10,0:0|0:0,0:0:0:0:
212,324,201075,6,2,L|96:372,1,90,2|10,0:0|0:0,0:0:0:0:
64,296,201675,2,2,L|179:248,1,90,2|10,0:0|0:0,0:0:0:0:
104,184,202275,1,6,0:0:0:0:
156,112,202575,1,14,0:0:0:0:
68,100,202875,1,6,0:0:0:0:
248,112,203475,6,2,P|312:104|336:96,1,90,2|10,0:0|0:0,0:0:0:0:
420,68,204075,2,0,L|420:24,2,45,2|2|10,0:0|0:0|0:0,0:0:0:0:
468,144,204675,2,0,L|516:112,2,45
460,232,205275,2,0,L|520:224,2,45,0|0|0,1:1|1:1|1:1,0:0:0:0:
404,316,205875,6,2,L|284:316,1,99.0000030212403,6|2,0:0|0:0,0:0:0:0:
252,232,206475,2,2,L|128:232,1,99.0000030212403,2|2,0:0|0:0,0:0:0:0:
100,148,207075,2,2,L|-28:148,1,99.0000030212403,2|2,0:0|0:0,0:0:0:0:
48,60,207675,2,2,L|164:60,1,99.0000030212403,2|2,0:0|0:0,0:0:0:0:
240,92,208275,6,2,B|272:144|272:144|320:160,1,99.0000030212403,2|2,0:0|0:0,0:0:0:0:
384,92,208875,2,2,B|432:116|432:116|456:164,1,99.0000030212403,2|2,0:0|0:0,0:0:0:0:
444,256,209475,2,2,P|416:308|368:320,1,99.0000030212403,2|2,0:0|0:0,0:0:0:0:
280,324,210075,2,2,P|208:328|176:344,1,99.0000030212403,2|2,0:0|0:0,0:0:0:0:
88,312,210675,5,2,0:0:0:0:
124,220,210975,1,2,0:0:0:0:
64,140,211275,2,0,L|104:48,1,99.0000030212403,2|2,0:0|0:0,0:0:0:0:
204,52,211875,1,2,0:0:0:0:
256,136,212175,1,2,0:0:0:0:
244,236,212475,2,2,L|280:332,1,99.0000030212403,2|2,0:0|0:0,0:0:0:0:
376,340,213075,6,2,P|360:284|368:224,1,99.0000030212403,2|2,0:0|0:0,0:0:0:0:
456,216,213675,2,2,P|464:168|456:116,1,99.0000030212403,2|2,0:0|0:0,0:0:0:0:
396,40,214275,2,2,P|344:28|280:32,1,99.0000030212403,2|2,0:0|0:0,0:0:0:0:
204,60,214875,2,2,P|140:76|96:76,1,99.0000030212403,2|2,0:0|0:0,0:0:0:0:
144,168,215475,5,6,0:0:0:0:
244,168,215775,1,10,0:0:0:0:
260,264,216075,2,8,L|176:336,1,99.0000030212403,10|10,0:0|0:0,0:0:0:0:
96,288,216675,1,2,0:0:0:0:
64,196,216975,1,10,0:0:0:0:
68,96,217275,1,2,0:0:0:0:
244,168,217875,6,0,B|276:212|276:212|328:220,1,99.0000030212403,2|10,0:0|0:0,0:0:0:0:
316,120,218475,2,0,B|284:75|284:75|232:67,1,99.0000030212403,10|10,0:0|0:0,0:0:0:0:
152,112,219075,1,2,0:0:0:0:
152,212,219375,1,10,0:0:0:0:
188,304,219675,2,0,L|280:344,1,99.0000030212403,2|10,0:0|0:0,0:0:0:0:
372,316,220275,5,2,0:0:0:0:
448,252,220575,1,10,0:0:0:0:
356,216,220875,1,10,0:0:0:0:
432,152,221175,1,10,0:0:0:0:
340,112,221475,2,0,P|280:108|236:128,2,99.0000030212403,2|10|2,0:0|0:0|0:0,0:0:0:0:
256,192,222675,12,4,225075,0:3:0:0:
