osu file format v14

[General]
AudioFilename: Iro wa Jou e to Sasou.mp3
AudioLeadIn: 0
PreviewTime: 108675
Countdown: 0
SampleSet: Soft
StackLeniency: 0.7
Mode: 0
LetterboxInBreaks: 0
EpilepsyWarning: 1
WidescreenStoryboard: 1

[Editor]
Bookmarks: 100275,166275
DistanceSpacing: 1.3
BeatDivisor: 4
GridSize: 4
TimelineZoom: 2.2

[Metadata]
Title:Iro wa Jou e to Izanau
TitleUnicode:色は情へと誘う
Artist:senya
ArtistUnicode:senya
Creator:Momizi
Version:Magical Astronomy
Source:東方Project
Tags:Greenwich in the sky The Whole World Sanzen Sekai Yuuhei Satellite deitarabotchi Kamase Tora Mayumi Morinaga Touhou 幽閉サテライト c84 大空魔術 ~ Magical Astronomy 天空のグリニッジ Spring Roll FreeSongs Mikagura Seisa マエリベリー·ハーン Maribel Hearn 宇佐見 蓮子 うさみ れんこ Usami Renko
BeatmapID:833432
BeatmapSetID:226670

[Difficulty]
HPDrainRate:5.5
CircleSize:4
OverallDifficulty:8.5
ApproachRate:9.5
SliderMultiplier:1.8
SliderTickRate:1

[Events]
//Background and Video events
0,0,"BG.jpg",0,0
//Break Periods
//Storyboard Layer 0 (Background)
//Storyboard Layer 1 (Fail)
//Storyboard Layer 2 (Pass)
//Storyboard Layer 3 (Foreground)
Sprite,Foreground,Centre,"NEW SB/title/beatmapMomizi1.png",320,240 V,0,36675,,0.5,0.5 F,0,36675,36825,0,1 M,1,36675,37075,230,335,170,370 M,0,37075,39075,170,370 V,0,38925,39075,0.5,0.5,0.5,0
Sprite,Foreground,Centre,"NEW SB/title/beatmapMomizi2.png",320,240 V,0,36675,,0.5,0.5 F,0,36675,36825,0,1 M,1,36675,37075,110,405,170,370 M,0,37075,39075,170,370 V,0,38925,39075,0.5,0.5,0.5,0
//Storyboard Sound Samples

[TimingPoints]
675,300,4,1,0,100,1,0
10275,-100,4,2,2,60,0,0
18675,-100,4,2,2,30,0,0
19875,-100,4,2,2,70,0,0
28275,-100,4,1,1,70,0,0
28875,-100,4,1,1,75,0,0
29475,-66.6666666666667,4,2,1,70,0,0
39075,-100,4,2,1,70,0,1
48675,-100,4,1,1,70,0,1
49875,-200,4,3,1,60,0,0
57375,-100,4,3,1,60,0,0
57675,-66.6666666666667,4,3,1,60,0,0
57975,-200,4,3,1,60,0,0
58875,-100,4,3,1,60,0,0
59475,-200,4,3,1,60,0,0
66975,-100,4,3,1,60,0,0
67275,-66.6666666666667,4,3,1,60,0,0
67575,-200,4,3,1,60,0,0
68475,-100,4,3,1,60,0,0
87075,-100,4,1,1,40,0,0
87375,-100,4,1,1,55,0,0
87675,-100,4,1,1,70,0,0
87975,-100,4,1,1,85,0,0
88275,-100,4,2,1,60,0,0
97425,-100,4,2,1,70,0,0
100275,-133.333333333333,4,2,4,40,0,0
100800,-133.333333333333,4,2,1,5,0,0
100875,-100,4,2,4,45,0,0
101400,-100,4,2,1,5,0,0
101475,-133.333333333333,4,2,4,50,0,0
102375,-133.333333333333,4,2,1,5,0,0
102675,-100,4,2,1,80,0,0
106275,-100,4,2,1,60,0,0
107475,-100,4,1,1,60,0,0
108675,-100,4,2,1,75,0,1
126675,-100,4,1,1,50,0,1
127275,-100,4,1,1,70,0,1
127875,-133.333333333333,4,3,1,60,0,0
135375,-100,4,3,1,60,0,0
135675,-66.6666666666667,4,3,1,60,0,0
135975,-100,4,2,1,60,0,0
137475,-66.6666666666667,4,3,1,60,0,0
138075,-100,4,3,1,60,0,0
139875,-66.6666666666667,4,3,1,60,0,0
140475,-100,4,3,1,60,0,0
142275,-66.6666666666667,4,3,1,60,0,0
142875,-100,4,3,1,60,0,0
145875,-100,4,1,1,40,0,0
146475,-100,4,1,1,50,0,0
146775,-100,4,1,1,70,0,0
147075,-100,4,2,1,60,0,0
159075,-133.333333333333,4,2,4,40,0,0
159600,-133.333333333333,4,2,1,5,0,0
159675,-100,4,2,4,45,0,0
160200,-100,4,2,1,5,0,0
160275,-133.333333333333,4,2,4,50,0,0
161175,-133.333333333333,4,2,4,5,0,0
161475,-100,4,2,1,80,0,0
165075,-100,4,2,1,40,0,0
165375,-100,4,1,1,60,0,0
165675,-100,4,1,1,70,0,0
165975,-100,4,1,1,80,0,0
166275,-133.333333333333,4,2,2,60,0,0
174675,-133.333333333333,4,2,2,70,0,0
175875,-133.333333333333,4,2,2,60,0,0
183075,-100,4,2,1,70,0,0
184875,-133.333333333333,4,2,1,45,0,0
185475,-100,4,2,1,60,0,0
186675,-100,4,2,1,75,0,1
205875,-66.6666666666667,4,2,1,70,0,0
215475,-100,4,2,1,55,0,0
223875,-100,4,1,1,50,0,0
224175,-100,4,1,1,60,0,0
224475,-100,4,1,1,70,0,0

[Colours]
Combo1 : 250,250,20
Combo2 : 206,72,251
Combo3 : 34,202,251

[HitObjects]
128,64,10275,6,0,L|144:168,1,90
268,236,10575,2,0,L|244:344,1,90
256,120,10875,1,0,0:0:0:0:
352,216,11025,1,0,0:0:0:0:
184,252,11175,1,0,0:0:0:0:
464,80,11475,6,0,B|464:144|464:144|496:208,2,135,4|0|0,0:3|0:0|0:0,0:0:0:0:
370,208,12075,2,0,B|400:272|400:272|400:352,2,135
288,112,12675,5,0,0:0:0:0:
288,112,12825,1,0,0:0:0:0:
160,112,12975,1,0,0:0:0:0:
160,112,13125,1,0,0:0:0:0:
80,208,13275,1,0,0:0:0:0:
144,316,13425,1,0,0:0:0:0:
272,316,13575,1,0,0:0:0:0:
408,128,13875,6,0,B|428:88|428:88|408:56|408:56|424:28|420:0,2,135
281,183,14475,2,0,P|327:254|241:315,1,180
40,100,15075,5,0,0:0:0:0:
120,196,15225,1,0,0:0:0:0:
128,320,15375,2,0,P|92:356|40:364,1,90
120,196,15675,2,0,P|112:152|128:104,2,90
418,193,16275,6,0,P|383:249|384:316,2,135
385,317,16874,2,0,P|450:312|504:376,2,135
120,196,17475,6,0,P|84:168|80:112,1,90
184,44,17775,1,0,0:0:0:0:
184,44,17925,1,0,0:0:0:0:
120,196,18075,2,0,P|68:220|12:204,1,90
184,44,18375,1,0,0:0:0:0:
456,193,18675,5,0,0:0:0:0:
241,110,18900,1,0,0:0:0:0:
456,193,19125,1,0,0:0:0:0:
265,192,19275,6,0,P|244:164|256:84,1,90
392,36,19575,2,0,P|413:64|401:144,1,90
265,192,19875,5,6,0:0:0:0:
415,117,20025,1,0,0:0:0:0:
265,192,20175,1,0,0:0:0:0:
456,193,20325,1,0,0:0:0:0:
265,192,20475,1,8,0:0:0:0:
265,192,20550,1,0,0:0:0:0:
265,192,20625,1,0,0:0:0:0:
456,280,20775,1,0,0:0:0:0:
192,256,20925,5,2,0:0:0:0:
192,256,21075,2,0,P|120:240|72:188,1,135,2|0,0:0|0:0,0:0:0:0:
265,192,21375,2,0,P|333:163|371:104,1,135,2|0,0:0|0:0,0:0:0:0:
196,120,21675,2,0,P|151:61|147:-9,2,135,8|0|0,0:0|0:0|0:0,0:0:0:0:
241,107,22200,1,0,0:0:0:0:
288,112,22275,6,0,L|368:64,1,90,2|0,0:0|0:0,0:0:0:0:
265,192,22575,2,0,L|364:176,1,90
455,104,22875,1,8,0:0:0:0:
503,216,23025,1,0,0:0:0:0:
455,328,23175,1,0,0:0:0:0:
256,320,23325,5,2,0:0:0:0:
256,320,23475,2,0,P|192:336|96:336,1,135,2|0,0:0|0:0,0:0:0:0:
180,295,23775,2,0,P|119:270|41:214,1,135,2|0,0:0|0:0,0:0:0:0:
134,231,24075,2,0,P|99:175|64:64,1,180,8|0,0:0|0:0,0:0:0:0:
304,64,24525,5,0,0:0:0:0:
320,71,24600,1,0,0:0:0:0:
336,78,24675,2,0,P|368:112|384:160,1,90,2|0,0:0|0:0,0:0:0:0:
256,236,24975,2,0,P|269:191|303:153,1,90
448,224,25275,1,8,0:0:0:0:
348,344,25425,1,0,0:0:0:0:
192,336,25575,1,0,0:0:0:0:
96,160,25725,5,2,0:0:0:0:
96,160,25875,1,2,0:0:0:0:
96,160,26175,1,2,0:0:0:0:
96,160,26475,1,10,0:0:0:0:
88,195,26550,1,0,0:0:0:0:
80,230,26625,6,0,L|59:327,1,90
201,162,26925,1,0,0:0:0:0:
216,129,27000,1,0,0:0:0:0:
243,105,27075,2,0,P|287:94|346:103,1,90,2|0,0:0|0:0,0:0:0:0:
384,304,27375,2,0,P|336:272|320:240,1,90
400,48,27675,1,8,0:0:0:0:
400,48,27750,1,0,0:0:0:0:
400,48,27825,1,0,0:0:0:0:
428,237,27975,1,0,0:0:0:0:
201,162,28275,5,0,0:0:0:0:
174,186,28350,1,0,0:0:0:0:
159,219,28425,1,0,0:0:0:0:
154,254,28500,1,0,0:0:0:0:
149,289,28575,1,0,0:0:0:0:
137,322,28650,1,0,0:0:0:0:
120,353,28725,1,0,0:0:0:0:
91,374,28800,1,0,0:0:0:0:
53,349,28875,5,0,0:0:0:0:
38,306,28950,1,0,0:0:0:0:
35,261,29025,1,0,0:0:0:0:
46,217,29100,1,0,0:0:0:0:
66,176,29175,1,0,0:0:0:0:
95,141,29250,1,0,0:0:0:0:
132,116,29325,1,0,0:0:0:0:
175,103,29400,1,0,0:0:0:0:
224,100,29475,6,0,B|320:128|320:128|304:80,1,135.000005149842,2|0,0:0|3:3,0:0:0:0:
436,32,29775,2,0,P|484:96|484:160,1,135.000005149842,2|0,0:0|3:3,0:0:0:0:
400,308,30075,2,0,P|352:244|352:180,1,135.000005149842,2|0,0:0|3:3,0:0:0:0:
476,332,30375,2,0,P|432:380|352:372,1,135.000005149842,2|0,0:0|3:3,0:0:0:0:
108,282,30675,6,0,P|174:271|240:288,1,135.000005149842,2|0,0:0|3:3,0:0:0:0:
40,340,30975,2,0,P|72:260|72:180,1,135.000005149842,2|0,0:0|3:3,0:0:0:0:
88,32,31275,2,0,P|104:116|148:183,1,135.000005149842,2|0,0:0|3:3,0:0:0:0:
340,76,31575,2,0,P|268:64|204:84,1,135.000005149842,2|0,0:0|3:0,0:0:0:0:
416,120,31875,5,2,0:0:0:0:
368,248,32025,1,0,3:3:0:0:
208,160,32175,1,2,0:0:0:0:
216,296,32325,1,0,3:3:0:0:
48,344,32475,2,0,L|144:230,1,135.000005149842,2|0,0:0|3:3,0:0:0:0:
368,224,32775,2,0,L|272:338,1,135.000005149842,2|0,0:0|3:3,0:0:0:0:
80,192,33075,6,0,L|80:48,1,135.000005149842,2|0,0:0|3:3,0:0:0:0:
368,224,33375,2,0,L|368:359,1,135.000005149842,2|0,0:0|3:3,0:0:0:0:
208,160,33675,2,0,L|208:16,1,135.000005149842,2|0,0:0|3:3,0:0:0:0:
496,192,33975,2,0,L|496:327,1,135.000005149842,2|0,0:0|3:3,0:0:0:0:
336,112,34275,5,2,0:0:0:0:
496,192,34425,1,0,3:0:0:0:
304,192,34575,1,2,0:0:0:0:
464,112,34725,1,0,3:0:0:0:
416,246,34875,2,0,P|348:238|301:185,1,135.000005149842,2|0,0:0|0:0,0:0:0:0:
288,320,35175,2,0,P|224:336|144:320,1,135.000005149842,2|0,0:0|3:3,0:0:0:0:
32,240,35475,6,0,P|96:256|176:240,1,135.000005149842,2|0,0:0|3:3,0:0:0:0:
368,208,35775,2,0,P|304:224|224:208,1,135.000005149842,2|0,0:0|3:3,0:0:0:0:
0,144,36075,2,0,P|64:160|144:144,1,135.000005149842,2|0,0:0|3:3,0:0:0:0:
400,96,36375,2,0,P|336:112|256:96,1,135.000005149842,2|0,0:0|3:3,0:0:0:0:
116,15,36675,6,0,L|132:159,1,135.000005149842,2|0,0:0|3:3,0:0:0:0:
283,235,36975,2,0,L|267:91,1,135.000005149842,2|0,0:0|3:3,0:0:0:0:
40,0,37275,2,0,L|56:144,1,135.000005149842,2|0,0:0|3:3,0:0:0:0:
359,250,37575,2,0,L|343:106,1,135.000005149842,2|0,0:0|3:3,0:0:0:0:
16,192,37875,5,2,0:0:0:0:
176,272,38025,1,0,3:0:0:0:
204,172,38175,1,2,0:0:0:0:
64,288,38325,1,0,3:0:0:0:
96,96,38475,2,0,L|112:240,1,135.000005149842,2|0,0:0|3:3,0:0:0:0:
320,112,38775,2,0,L|304:256,1,135.000005149842,2|0,0:0|3:3,0:0:0:0:
184,104,39075,6,0,L|240:32,1,90,6|0,0:0|0:0,0:0:0:0:
404,111,39375,2,0,P|348:99|308:123,1,90,10|0,0:0|0:0,0:0:0:0:
223,196,39675,1,2,0:0:0:0:
339,287,39825,1,0,0:0:0:0:
193,281,39975,1,10,0:0:0:0:
313,200,40125,1,0,0:0:0:0:
264,336,40275,6,0,P|216:360|128:352,1,135,6|0,0:0|0:0,0:0:0:0:
96,320,40575,2,0,P|48:304|0:312,1,90,14|0,0:0|0:0,0:0:0:0:
0,189,40875,2,0,P|72:181|128:133,1,135,6|0,0:0|0:0,0:0:0:0:
137,91,41175,2,0,P|185:75|233:83,1,90,14|0,0:0|0:0,0:0:0:0:
296,184,41475,5,2,0:0:0:0:
223,79,41625,1,0,0:0:0:0:
176,272,41775,2,0,P|240:264|272:248,1,90,10|0,0:0|0:0,0:0:0:0:
321,99,42075,2,0,P|297:155|297:195,1,90,2|0,0:0|0:0,0:0:0:0:
424,304,42375,1,10,0:0:0:0:
368,216,42525,1,0,0:0:0:0:
248,328,42675,6,0,P|312:344|384:328,1,135,6|0,0:0|0:0,0:0:0:0:
424,304,42975,2,0,P|472:288|512:296,1,90,14|0,0:0|0:0,0:0:0:0:
368,216,43275,2,2,P|280:240|176:216,1,180,6|10,0:0|0:0,0:0:0:0:
80,176,43725,1,0,0:0:0:0:
80,176,43800,1,0,0:0:0:0:
80,176,43875,6,0,L|64:280,1,90,2|0,0:0|0:0,0:0:0:0:
192,136,44175,2,0,L|168:48,1,90,10|0,0:0|0:0,0:0:0:0:
32,44,44475,1,2,0:0:0:0:
112,108,44625,1,0,0:0:0:0:
252,80,44775,1,10,0:0:0:0:
368,120,44925,1,0,0:0:0:0:
211,146,45075,6,0,L|67:178,1,135,6|0,0:0|0:0,0:0:0:0:
24,192,45375,2,0,L|136:216,1,90,14|0,0:0|0:0,0:0:0:0:
240,240,45675,2,0,L|384:272,1,135,6|0,0:0|0:0,0:0:0:0:
427,286,45975,2,0,L|315:310,1,90,14|0,0:0|0:0,0:0:0:0:
208,328,46275,5,2,0:0:0:0:
112,344,46425,1,0,0:0:0:0:
168,176,46575,1,10,0:0:0:0:
240,240,46725,1,0,0:0:0:0:
68,196,46875,1,2,0:0:0:0:
14,117,47025,1,0,3:0:0:0:
187,82,47175,1,10,0:0:0:0:
168,176,47325,1,0,3:0:0:0:
14,117,47475,6,0,B|56:24|56:24|64:64,1,135,6|0,0:0|0:0,0:0:0:0:
72,112,47775,2,0,P|104:152|152:168,1,90,14|0,0:0|0:0,0:0:0:0:
274,70,48075,2,0,P|218:70|178:86,1,90,2|0,0:0|0:0,0:0:0:0:
368,136,48375,2,0,P|424:136|464:120,1,90,10|0,0:0|0:0,0:0:0:0:
288,53,48675,5,0,0:0:0:0:
274,70,48750,1,0,0:0:0:0:
263,94,48825,1,0,0:0:0:0:
261,125,48900,1,0,0:0:0:0:
276,157,48975,5,0,0:0:0:0:
294,193,49050,1,0,0:0:0:0:
294,237,49125,1,0,0:0:0:0:
271,280,49200,1,0,0:0:0:0:
219,288,49275,2,0,L|157:273,1,45
56,236,49425,2,0,L|120:220,1,45,0|0,0:0|1:1,0:0:0:0:
140,384,49575,2,0,P|124:336|124:288,1,90,0|0,1:1|0:0,0:0:0:0:
168,128,49875,6,0,P|168:88|144:56,1,67.5,12|0,0:0|0:0,0:0:0:0:
95,110,50175,2,0,P|64:120|32:112,1,67.5
224,40,50475,2,0,P|264:32|296:48,1,67.5,8|0,0:2|0:0,0:0:0:0:
312,64,50775,1,0,0:0:0:0:
360,232,50925,1,8,0:0:0:0:
352,248,51075,1,8,0:0:0:0:
352,248,51375,5,8,0:0:0:0:
189,246,51525,1,0,0:0:0:0:
426,308,51675,1,8,0:2:0:0:
271,285,51825,1,0,0:0:0:0:
426,308,51975,1,0,0:0:0:0:
426,308,52275,6,0,L|424:240,1,67.5,8|0,0:0|0:0,0:0:0:0:
496,284,52575,2,0,L|508:208,1,67.5,0|0,0:0|0:3,0:3:0:0:
352,248,52875,2,0,L|344:168,1,67.5,8|0,0:2|0:3,0:3:0:0:
368,156,53175,1,0,0:0:0:0:
200,64,53325,1,8,0:0:0:0:
183,81,53475,1,8,0:0:0:0:
183,81,53775,5,8,0:0:0:0:
109,253,53925,1,0,0:0:0:0:
269,153,54075,1,8,0:2:0:0:
81,139,54225,1,0,0:0:0:0:
225,260,54375,1,0,0:0:0:0:
225,260,54675,6,0,B|176:236|152:252,1,67.5,8|0,0:0|0:0,0:0:0:0:
96,212,54975,2,0,B|132:184|136:148,1,67.5
269,153,55275,2,0,B|278:206|305:216,1,67.5,8|0,0:2|0:0,0:0:0:0:
332,216,55575,1,0,0:0:0:0:
464,80,55725,1,8,0:0:0:0:
462,102,55875,1,8,0:0:0:0:
462,102,56175,5,8,0:0:0:0:
373,117,56325,1,0,0:0:0:0:
217,57,56475,1,8,0:2:0:0:
306,52,56625,1,0,0:0:0:0:
145,124,56775,1,0,0:0:0:0:
145,124,57075,6,0,P|148:160|188:168,1,67.5,8|0,0:0|0:0,0:0:0:0:
248,184,57375,6,0,P|176:216|192:264,1,135
216,320,57675,6,0,P|176:264|112:344,1,202.500007724762,8|0,0:2|0:0,0:0:0:0:
16,336,57975,5,0,0:0:0:0:
0,208,58125,1,8,0:0:0:0:
96,48,58275,1,8,0:0:0:0:
80,184,58425,1,0,0:0:0:0:
96,48,58575,1,8,0:0:0:0:
96,48,58875,6,0,L|216:76,1,90,8|0,0:2|0:0,0:0:0:0:
337,104,59175,1,0,0:0:0:0:
472,336,59475,6,12,L|400:344,1,67.5,12|0,0:0|0:0,0:0:0:0:
296,304,59775,2,0,L|216:296,1,67.5
48,352,60075,2,0,L|128:344,1,67.5,8|0,0:2|0:0,0:0:0:0:
152,344,60375,1,0,0:0:0:0:
88,160,60525,1,8,0:0:0:0:
80,184,60675,1,8,0:0:0:0:
80,184,60975,5,8,0:0:0:0:
168,176,61125,1,0,0:0:0:0:
320,120,61275,1,8,0:2:0:0:
232,112,61425,1,0,0:0:0:0:
376,192,61575,1,0,0:0:0:0:
376,192,61875,6,0,L|462:187,1,67.5,8|0,0:0|0:0,0:0:0:0:
308,194,62175,2,0,L|394:189,1,67.5
232,112,62475,2,0,B|316:116,1,67.5,8|0,0:2|0:0,0:0:0:0:
332,104,62775,1,0,0:0:0:0:
96,72,62925,1,8,0:0:0:0:
104,96,63075,1,8,0:0:0:0:
104,96,63375,5,8,0:0:0:0:
256,160,63525,1,0,0:0:0:0:
152,184,63675,1,8,0:2:0:0:
324,204,63825,1,0,0:0:0:0:
64,240,63975,1,0,0:0:0:0:
64,240,64275,6,0,L|144:256,1,67.5,8|0,0:0|0:0,0:0:0:0:
152,184,64575,2,0,L|224:168,1,67.5
352,200,64875,2,0,L|432:192,1,67.5,8|0,0:2|0:0,0:0:0:0:
453,189,65175,1,0,0:0:0:0:
344,40,65325,1,8,0:0:0:0:
336,64,65475,1,8,0:0:0:0:
336,64,65775,5,8,0:0:0:0:
352,200,65925,1,0,0:0:0:0:
256,160,66075,1,8,0:2:0:0:
240,288,66225,1,0,0:0:0:0:
152,112,66375,1,0,0:0:0:0:
152,112,66675,6,0,L|220:108,1,67.5,8|0,0:0|0:0,0:0:0:0:
284,131,66975,6,0,L|148:115,1,135
96,56,67275,6,0,L|296:136,1,202.500007724762,8|0,0:2|0:0,0:0:0:0:
360,164,67575,5,0,0:0:0:0:
216,204,67725,1,8,0:0:0:0:
464,240,67875,1,8,0:0:0:0:
300,232,68025,1,0,0:0:0:0:
464,240,68175,1,8,0:0:0:0:
464,240,68475,6,0,B|488:276|488:276|480:344,1,90,8|0,0:0|0:0,0:0:0:0:
344,356,68775,1,0,0:0:0:0:
96,56,69075,5,4,0:2:0:0:
136,176,69225,1,0,0:0:0:0:
164,16,69375,1,0,0:0:0:0:
164,16,69675,5,8,0:2:0:0:
136,176,69825,1,0,0:0:0:0:
184,48,69975,1,0,0:0:0:0:
170,209,70125,1,8,0:0:0:0:
212,68,70275,2,0,P|268:92|312:32,1,135,8|0,0:0|0:0,0:0:0:0:
320,0,70575,2,0,L|344:104,1,90,8|0,0:0|0:0,0:0:0:0:
468,184,70875,2,0,L|472:80,1,90,8|0,0:2|0:0,0:0:0:0:
420,256,71175,2,0,L|416:360,1,90,2|0,0:0|0:0,0:0:0:0:
364,192,71475,5,4,0:2:0:0:
246,237,71625,1,0,0:0:0:0:
128,192,71775,1,0,0:0:0:0:
128,192,72075,6,0,P|144:248|128:288,1,90,8|0,0:2|0:0,0:0:0:0:
48,156,72375,1,0,0:0:0:0:
160,88,72525,1,8,0:0:0:0:
246,237,72675,2,0,L|240:136,1,90,8|0,0:0|0:0,0:0:0:0:
232,348,72975,2,0,L|236:252,1,90,8|0,0:0|0:0,0:0:0:0:
392,224,73275,2,0,P|440:236|500:220,1,90,8|0,0:2|0:0,0:0:0:0:
323,252,73575,2,0,P|275:264|215:248,1,90,2|0,0:0|0:0,0:0:0:0:
88,184,73875,5,4,0:2:0:0:
120,328,74025,1,0,0:0:0:0:
160,176,74175,1,0,0:0:0:0:
160,176,74475,5,8,0:2:0:0:
232,168,74625,1,0,0:0:0:0:
304,160,74775,1,0,0:0:0:0:
376,152,74925,1,8,0:0:0:0:
376,152,75225,5,0,0:0:0:0:
304,144,75375,1,8,0:0:0:0:
304,144,75675,5,8,0:2:0:0:
88,184,76125,5,8,0:0:0:0:
88,184,76425,5,0,0:0:0:0:
160,192,76575,1,8,0:0:0:0:
160,192,76875,5,8,0:2:0:0:
384,208,77325,5,8,0:0:0:0:
384,208,77625,5,0,0:0:0:0:
456,216,77775,1,8,0:0:0:0:
316,244,78075,5,8,0:2:0:0:
172,264,78375,1,0,0:0:0:0:
28,284,78675,5,4,0:2:0:0:
172,264,78825,1,0,0:0:0:0:
0,212,78975,1,0,0:0:0:0:
0,212,79275,5,8,0:2:0:0:
12,132,79425,1,0,0:0:0:0:
152,116,79575,1,0,0:0:0:0:
188,188,79725,1,8,0:0:0:0:
300,276,79875,1,8,0:0:0:0:
307,195,80025,1,0,0:0:0:0:
256,348,80175,2,0,P|312:360|364:332,1,90,8|0,0:0|0:0,0:0:0:0:
188,292,80475,2,0,L|88:292,1,90,8|0,0:2|0:0,0:0:0:0:
300,276,80775,2,0,L|408:276,1,90,2|0,0:3|0:0,0:0:0:0:
172,216,81075,5,4,0:2:0:0:
80,128,81225,1,0,0:0:0:0:
200,84,81375,1,0,0:0:0:0:
200,84,81675,6,0,P|248:120|304:80,1,135,8|0,0:2|0:0,0:0:0:0:
312,40,81975,1,0,0:0:0:0:
392,172,82125,1,8,0:0:0:0:
240,196,82275,1,8,0:0:0:0:
412,184,82425,1,8,0:0:0:0:
220,212,82575,2,0,P|204:252|204:308,1,90,8|0,0:0|0:0,0:0:0:0:
412,184,82875,2,0,L|416:76,1,90,8|0,0:2|0:0,0:0:0:0:
360,276,83175,2,0,L|356:384,1,90,2|0,0:0|0:0,0:0:0:0:
176,340,83475,5,4,0:2:0:0:
96,244,83625,1,0,0:0:0:0:
220,212,83775,1,0,0:0:0:0:
220,212,84075,5,8,0:2:0:0:
292,220,84225,1,0,0:0:0:0:
364,228,84375,1,0,0:0:0:0:
436,236,84525,1,8,0:0:0:0:
436,236,84825,5,0,0:0:0:0:
364,248,84975,1,8,0:0:0:0:
364,248,85275,5,8,0:2:0:0:
152,280,85725,5,8,0:0:0:0:
152,280,86025,5,0,0:0:0:0:
80,292,86175,1,8,0:0:0:0:
80,292,86475,5,8,0:2:0:0:
272,96,86775,6,0,P|272:40|256:8,1,90,0|0,3:0|0:0,0:0:0:0:
394,88,87075,1,0,0:0:0:0:
366,111,87150,1,0,0:0:0:0:
347,142,87225,1,0,0:0:0:0:
341,177,87300,1,0,0:0:0:0:
340,217,87375,5,0,0:0:0:0:
351,255,87450,1,0,0:0:0:0:
370,290,87525,1,0,0:0:0:0:
399,318,87600,1,0,0:0:0:0:
440,335,87675,5,0,0:0:0:0:
415,297,87750,1,0,0:0:0:0:
370,290,87825,1,0,0:0:0:0:
327,306,87900,1,0,0:0:0:0:
278,330,87975,5,0,0:0:0:0:
226,346,88050,1,0,0:0:0:0:
172,344,88125,1,0,0:0:0:0:
119,330,88200,1,0,0:0:0:0:
80,292,88275,6,0,L|67:179,1,90,6|0,0:0|0:0,0:0:0:0:
272,96,88575,2,0,L|260:220,1,90,10|0,0:0|0:0,0:0:0:0:
56,76,88875,2,0,P|104:116|156:112,1,90,2|0,0:0|0:0,0:0:0:0:
302,87,89175,2,0,P|286:39|238:7,1,90,10|0,0:0|0:0,0:0:0:0:
400,64,89475,6,0,P|416:160|480:240,1,180,2|8,0:0|0:0,0:0:0:0:
496,112,89925,1,0,0:0:0:0:
352,208,90075,2,0,P|304:224|256:224,1,90,2|0,0:0|0:0,0:0:0:0:
214,104,90375,2,0,P|262:88|310:88,1,90,10|0,0:0|0:0,0:0:0:0:
216,332,90675,5,2,0:0:0:0:
68,196,90825,1,0,0:0:0:0:
64,188,90975,1,10,0:0:0:0:
216,344,91125,5,0,0:0:0:0:
303,121,91275,1,2,0:0:0:0:
303,111,91425,1,0,0:0:0:0:
216,356,91575,5,10,0:0:0:0:
184,192,91725,1,0,0:0:0:0:
376,156,91875,5,2,0:0:0:0:
168,116,92025,1,0,0:0:0:0:
152,112,92175,1,10,0:0:0:0:
396,156,92325,5,0,0:0:0:0:
136,108,92475,1,2,0:0:0:0:
119,108,92625,1,0,0:0:0:0:
416,156,92775,5,10,0:0:0:0:
104,112,92925,1,0,0:0:0:0:
32,336,93075,6,0,P|72:308|96:260,1,90,2|0,0:0|0:0,0:0:0:0:
148,332,93375,2,0,P|168:287|165:234,1,90,10|0,0:0|0:0,0:0:0:0:
248,268,93675,2,0,P|243:219|214:174,1,90,2|0,0:0|0:0,0:0:0:0:
304,164,93975,2,0,P|276:124|228:100,1,90,10|0,0:0|0:0,0:0:0:0:
371,229,94275,6,0,P|330:153|371:75,1,180,2|10,0:0|0:0,0:0:0:0:
448,248,94725,1,0,0:0:0:0:
340,348,94875,2,0,P|276:360|244:352,1,90,2|0,0:0|0:0,0:0:0:0:
168,160,95175,2,0,P|196:218|196:251,1,90,10|0,0:0|0:0,0:0:0:0:
48,352,95475,5,2,0:0:0:0:
32,112,95625,1,0,0:0:0:0:
136,312,95775,1,10,0:0:0:0:
163,61,95925,1,0,0:0:0:0:
224,288,96075,1,2,0:0:0:0:
297,33,96225,1,0,0:0:0:0:
336,272,96375,1,10,0:0:0:0:
440,24,96525,1,0,0:0:0:0:
464,296,96675,5,2,0:0:0:0:
265,176,96825,1,0,0:0:0:0:
448,152,96975,1,10,0:0:0:0:
464,296,97125,1,0,0:0:0:0:
265,176,97275,1,2,0:0:0:0:
440,24,97425,1,0,0:0:0:0:
336,272,97575,1,8,0:0:0:0:
311,320,97650,1,0,0:0:0:0:
259,337,97725,1,0,0:0:0:0:
205,333,97800,1,0,0:0:0:0:
166,302,97875,6,0,L|166:194,1,90,6|0,0:0|0:0,0:0:0:0:
32,352,98175,2,0,L|32:240,1,90,10|0,0:0|0:0,0:0:0:0:
144,192,98475,2,0,L|144:84,1,90,2|0,0:0|0:0,0:0:0:0:
10,242,98775,2,0,L|10:130,1,90,10|0,0:0|0:0,0:0:0:0:
240,47,99075,6,0,P|256:143|240:223,1,180,2|10,0:0|0:0,0:0:0:0:
144,192,99525,1,0,0:0:0:0:
325,163,99675,1,2,0:0:0:0:
352,348,99825,1,0,0:0:0:0:
164,372,99975,1,10,0:0:0:0:
368,104,100275,6,0,P|320:136|160:76,1,236.250009012223,4|0,0:0|0:0,0:0:0:0:
124,48,100875,6,0,P|172:96|56:272,1,315,8|0,0:0|0:0,0:0:0:0:
20,280,101475,6,0,B|140:248|172:336|172:336|252:292|284:228|284:228|364:212,1,405.000015449525,2|0,0:0|0:0,0:0:0:0:
24,175,102675,5,2,0:0:0:0:
96,247,102975,1,2,0:0:0:0:
192,176,103275,1,2,0:0:0:0:
304,264,103575,1,2,0:0:0:0:
472,87,103875,5,2,0:0:0:0:
400,159,104175,1,2,0:0:0:0:
304,88,104475,1,2,0:0:0:0:
192,176,104775,1,2,0:0:0:0:
24,175,105075,5,2,0:0:0:0:
96,247,105225,1,2,0:0:0:0:
192,176,105375,1,2,0:0:0:0:
304,264,105525,1,2,0:0:0:0:
472,87,105675,1,2,0:0:0:0:
400,159,105825,1,2,0:0:0:0:
304,88,105975,1,2,0:0:0:0:
192,176,106125,1,2,0:0:0:0:
128,64,106275,5,0,0:0:0:0:
136,66,106350,1,0,0:0:0:0:
144,68,106425,1,0,0:0:0:0:
152,70,106500,1,0,0:0:0:0:
164,74,106575,1,0,0:0:0:0:
180,80,106650,1,0,0:0:0:0:
195,88,106725,1,0,0:0:0:0:
213,100,106800,1,0,0:0:0:0:
228,116,106875,1,0,0:0:0:0:
242,138,106950,1,0,0:0:0:0:
248,164,107025,1,0,0:0:0:0:
248,190,107100,1,0,0:0:0:0:
245,216,107175,2,0,L|224:256,3,45
136,296,107475,5,0,0:0:0:0:
88,301,107550,1,0,0:0:0:0:
44,283,107625,1,0,0:0:0:0:
15,245,107700,1,0,0:0:0:0:
8,198,107775,1,0,0:0:0:0:
25,154,107850,1,0,0:0:0:0:
61,124,107925,1,0,0:0:0:0:
108,115,108000,1,0,0:0:0:0:
161,126,108075,2,0,L|192:176,1,45
240,288,108225,2,0,L|240:240,1,45
336,144,108375,2,0,P|320:192|320:240,1,90
464,344,108675,6,0,P|464:288|448:232,1,90,14|0,0:0|0:0,0:0:0:0:
282,134,108975,1,2,0:0:0:0:
240,288,109125,1,8,0:0:0:0:
396,243,109275,1,2,0:0:0:0:
242,98,109425,1,0,0:0:0:0:
240,288,109575,1,10,0:0:0:0:
407,188,109725,1,0,0:0:0:0:
192,80,109875,5,14,0:0:0:0:
64,144,110025,1,0,0:0:0:0:
64,144,110100,1,0,0:0:0:0:
64,144,110175,1,10,0:0:0:0:
242,98,110325,1,0,0:0:0:0:
64,144,110475,1,14,0:0:0:0:
192,208,110625,1,0,0:0:0:0:
192,208,110700,1,0,0:0:0:0:
192,208,110775,1,10,0:0:0:0:
14,162,110925,1,0,0:0:0:0:
72,288,111075,6,0,L|120:384,1,90,10|0,0:0|0:0,0:0:0:0:
248,368,111375,2,0,L|288:287,1,90,2|8,0:0|0:0,0:0:0:0:
96,208,111675,1,2,0:0:0:0:
272,208,111825,1,0,0:0:0:0:
88,200,111975,1,10,0:0:0:0:
280,200,112125,1,0,0:0:0:0:
80,192,112275,6,0,B|48:88|48:88|80:112,1,135,14|0,0:0|0:0,0:0:0:0:
136,128,112575,2,0,P|200:136|224:128,1,90,14|0,0:0|0:0,0:0:0:0:
392,60,112875,2,2,P|296:36|216:60,1,180,6|10,0:0|0:0,0:0:0:0:
104,216,113325,1,0,0:0:0:0:
96,232,113400,1,0,0:0:0:0:
88,248,113475,6,0,L|184:256,1,90,10|0,0:0|0:0,0:0:0:0:
296,336,113775,2,0,L|392:328,1,90,2|8,0:0|0:0,0:0:0:0:
177,328,114075,2,0,L|88:336,1,90,2|0,0:0|0:0,0:0:0:0:
384,256,114375,2,0,L|295:249,1,90,10|0,0:0|0:0,0:0:0:0:
104,216,114675,5,14,0:0:0:0:
56,88,114825,1,0,0:0:0:0:
225,88,114975,1,10,0:0:0:0:
225,88,115050,1,0,0:0:0:0:
225,88,115125,1,0,0:0:0:0:
104,216,115275,1,14,0:0:0:0:
233,64,115425,1,0,0:0:0:0:
233,64,115500,1,0,0:0:0:0:
233,64,115575,1,10,0:0:0:0:
48,64,115725,1,0,0:0:0:0:
336,152,115875,6,0,P|384:160|440:144,1,90,10|0,0:0|0:0,0:0:0:0:
176,152,116175,2,0,P|128:160|72:144,1,90,2|8,0:0|0:0,0:0:0:0:
376,80,116475,1,2,0:0:0:0:
176,152,116625,1,0,0:0:0:0:
336,152,116775,1,10,0:0:0:0:
136,80,116925,1,0,0:0:0:0:
296,224,117075,6,0,P|344:256|296:312,1,135,14|0,0:0|0:0,0:0:0:0:
312,376,117375,2,0,P|288:336|240:336,1,90,14|0,0:0|0:0,0:0:0:0:
112,360,117675,2,0,P|136:272|40:240,1,180,6|10,0:0|0:0,0:0:0:0:
16,328,118125,1,0,0:0:0:0:
70,231,118275,6,0,L|52:124,1,90,14|0,0:0|0:0,0:0:0:0:
150,168,118575,2,0,L|132:61,1,90,2|8,0:0|0:0,0:0:0:0:
248,216,118875,2,0,L|230:109,1,90,2|0,0:0|0:0,0:0:0:0:
328,153,119175,2,0,L|310:46,1,90,10|0,0:0|0:0,0:0:0:0:
432,208,119475,5,14,0:0:0:0:
344,344,119625,1,0,0:0:0:0:
344,344,119700,1,0,0:0:0:0:
344,344,119775,1,10,0:0:0:0:
248,216,119925,1,0,0:0:0:0:
168,360,120075,1,14,0:0:0:0:
70,231,120225,1,0,0:0:0:0:
70,231,120300,1,0,0:0:0:0:
70,231,120375,1,10,0:0:0:0:
248,216,120525,1,0,0:0:0:0:
408,104,120675,6,0,L|504:88,1,90,10|0,0:0|0:0,0:0:0:0:
296,80,120975,2,0,L|184:72,1,90,2|8,0:0|0:0,0:0:0:0:
32,160,121275,1,2,0:0:0:0:
152,144,121425,1,0,0:0:0:0:
56,64,121575,1,10,0:0:0:0:
70,231,121725,1,0,0:0:0:0:
248,216,121875,6,0,P|304:208|384:216,1,135,14|0,0:0|0:0,0:0:0:0:
440,248,122175,2,0,P|384:248|336:264,1,90,14|0,0:0|0:0,0:0:0:0:
224,296,122475,2,0,P|304:288|408:312,1,180,6|10,0:0|0:0,0:0:0:0:
296,360,122925,1,0,0:0:0:0:
120,304,123075,5,10,0:0:0:0:
70,231,123225,1,0,0:0:0:0:
248,216,123375,1,2,0:0:0:0:
224,296,123525,1,8,0:0:0:0:
70,231,123675,1,2,0:0:0:0:
248,216,123825,1,0,0:0:0:0:
120,304,123975,1,10,0:0:0:0:
88,144,124125,1,0,0:0:0:0:
248,216,124275,5,14,0:0:0:0:
384,120,124425,1,0,0:0:0:0:
388,84,124500,1,0,0:0:0:0:
392,48,124575,1,10,0:0:0:0:
224,48,124725,1,0,0:0:0:0:
248,216,124875,5,14,0:0:0:0:
416,120,125025,1,0,0:0:0:0:
420,75,125100,1,0,0:0:0:0:
425,31,125175,1,10,0:0:0:0:
218,31,125325,1,0,0:0:0:0:
248,216,125475,5,10,0:0:0:0:
440,284,125625,1,0,0:0:0:0:
217,300,125775,1,2,0:0:0:0:
384,208,125925,1,8,0:0:0:0:
140,145,126075,1,2,0:0:0:0:
336,100,126225,1,0,0:0:0:0:
384,208,126375,1,8,0:0:0:0:
240,80,126525,1,0,0:0:0:0:
248,216,126675,5,0,0:0:0:0:
241,232,126750,1,0,0:0:0:0:
235,249,126825,1,0,0:0:0:0:
229,266,126900,1,0,0:0:0:0:
223,283,126975,1,0,0:0:0:0:
217,300,127050,1,0,0:0:0:0:
211,317,127125,1,0,0:0:0:0:
205,334,127200,1,0,0:0:0:0:
198,350,127275,5,0,0:0:0:0:
187,315,127350,1,0,0:0:0:0:
176,280,127425,1,0,0:0:0:0:
165,245,127500,1,0,0:0:0:0:
155,210,127575,1,0,0:0:0:0:
144,175,127650,1,0,0:0:0:0:
134,140,127725,1,0,0:0:0:0:
124,105,127800,1,0,0:0:0:0:
89,94,127875,6,0,P|176:100|211:86,1,101.250003862381,12|0,0:0|0:0,0:0:0:0:
266,50,128175,2,0,P|282:94|345:132,1,101.250003862381
410,226,128475,2,0,P|402:176|416:128,1,101.250003862381,8|0,0:2|0:0,0:0:0:0:
464,112,128775,1,0,0:0:0:0:
288,224,128925,1,8,0:0:0:0:
304,320,129075,1,8,0:0:0:0:
304,320,129375,5,8,0:0:0:0:
288,224,129525,1,0,0:0:0:0:
196,282,129675,1,8,0:2:0:0:
160,192,129825,1,0,0:0:0:0:
196,282,129975,1,0,0:0:0:0:
244,82,130275,6,0,P|292:74|340:98,1,101.250003862381,8|0,0:0|0:0,0:0:0:0:
396,218,130575,2,0,P|378:263|334:293,1,101.250003862381
159,191,130875,2,0,P|166:241|196:282,1,101.250003862381,8|0,0:2|0:0,0:0:0:0:
280,192,131175,1,0,0:0:0:0:
152,104,131325,1,8,0:0:0:0:
176,16,131475,1,8,0:0:0:0:
32,208,131775,5,8,0:0:0:0:
40,296,131925,1,0,0:0:0:0:
152,104,132075,1,8,0:2:0:0:
128,192,132225,1,0,0:0:0:0:
152,104,132375,1,0,0:0:0:0:
253,336,132675,6,0,P|297:312|328:272,1,101.250003862381,8|0,0:0|0:0,0:0:0:0:
395,223,132975,2,0,P|403:272|389:321,1,101.250003862381
473,213,133275,2,0,P|449:169|409:140,1,101.250003862381,8|0,0:2|0:0,0:0:0:0:
392,64,133575,1,0,0:0:0:0:
276,176,133725,1,8,0:0:0:0:
280,76,133875,1,8,0:0:0:0:
276,176,134175,5,8,0:0:0:0:
280,76,134325,1,0,0:0:0:0:
152,104,134475,1,8,0:2:0:0:
131,2,134625,1,0,0:0:0:0:
152,104,134775,1,8,0:0:0:0:
96,304,135075,6,0,P|136:328|160:288,1,101.250003862381,8|0,0:0|0:0,0:0:0:0:
176,240,135375,6,0,P|208:200|248:256,1,135
264,320,135675,6,0,P|336:336|332:232,1,202.500007724762,8|0,0:2|0:0,0:0:0:0:
484,192,135975,1,0,0:0:0:0:
464,316,136125,1,8,0:3:0:0:
416,128,136275,5,8,3:3:0:0:
376,152,136350,1,0,3:0:0:0:
336,136,136425,1,0,3:0:0:0:
296,160,136500,1,0,3:0:0:0:
256,144,136575,1,0,1:0:0:0:
216,168,136650,1,0,1:0:0:0:
176,152,136725,1,0,1:0:0:0:
136,176,136800,1,0,1:0:0:0:
96,160,136875,2,0,P|92:92|136:152,1,180,0|8,1:0|0:0,0:0:0:0:
464,316,137475,6,0,B|388:344|388:344|296:304|296:304|196:312,1,270.000010299683,4|0,0:2|0:0,0:0:0:0:
80,48,138075,5,8,0:2:0:0:
208,48,138225,1,0,0:0:0:0:
68,72,138375,1,0,0:0:0:0:
221,72,138525,1,8,0:0:0:0:
4,112,138675,2,0,P|-8:56|8:24,1,90,8|0,0:0|0:0,0:0:0:0:
283,27,138975,2,0,P|297:69|284:112,1,90,8|0,0:0|0:0,0:0:0:0:
160,264,139275,2,0,L|256:272,1,90,8|0,0:2|0:0,0:0:0:0:
92,216,139575,2,0,L|-4:208,1,90,2|0,0:0|0:0,0:0:0:0:
196,336,139875,6,0,B|244:332|248:272|248:272|308:332|356:340|356:340|408:312,1,270.000010299683
399,316,140475,5,8,0:2:0:0:
272,316,140625,1,0,0:0:0:0:
412,292,140775,1,0,0:0:0:0:
259,292,140925,1,8,0:0:0:0:
476,252,141075,2,0,P|488:308|472:340,1,90,8|0,0:0|0:0,0:0:0:0:
196,336,141375,2,0,P|181:294|195:251,1,90,8|0,0:0|0:0,0:0:0:0:
272,116,141675,2,0,L|168:108,1,90,8|0,0:2|0:0,0:0:0:0:
376,104,141975,2,0,L|480:112,1,90,2|0,0:0|0:0,0:0:0:0:
496,280,142275,6,0,B|424:320|424:320|336:280|336:280|240:328,1,270.000010299683,4|0,0:2|0:0,0:0:0:0:
96,304,142875,5,8,0:0:0:0:
112,233,143025,1,0,0:0:0:0:
129,163,143175,1,0,0:0:0:0:
149,93,143325,1,8,0:0:0:0:
149,93,143625,5,0,0:0:0:0:
170,161,143775,1,8,0:0:0:0:
170,161,144075,5,8,0:0:0:0:
212,277,144525,5,0,0:0:0:0:
282,290,144675,1,8,0:0:0:0:
352,302,144825,1,0,0:0:0:0:
422,315,144975,1,0,0:0:0:0:
422,315,145275,5,8,0:0:0:0:
424,56,145575,2,0,P|440:104|480:112,1,90
320,56,145875,5,0,0:0:0:0:
312,81,145950,1,0,0:0:0:0:
299,104,146025,1,0,0:0:0:0:
280,123,146100,1,0,0:0:0:0:
255,134,146175,1,0,0:0:0:0:
228,136,146250,1,0,0:0:0:0:
203,124,146325,1,0,0:0:0:0:
185,103,146400,1,0,0:0:0:0:
145,80,146475,5,0,0:0:0:0:
141,115,146550,1,0,0:0:0:0:
147,150,146625,1,0,0:0:0:0:
168,178,146700,1,0,0:0:0:0:
202,206,146775,5,0,0:0:0:0:
252,225,146850,1,0,0:0:0:0:
305,227,146925,1,0,0:0:0:0:
357,216,147000,1,0,0:0:0:0:
400,184,147075,6,0,P|415:129|417:87,1,90,6|0,0:0|0:0,0:0:0:0:
432,296,147375,2,0,P|417:351|415:393,1,90,10|0,0:0|0:0,0:0:0:0:
264,360,147675,2,0,L|256:256,1,90,2|0,0:0|0:0,0:0:0:0:
72,280,147975,2,0,L|120:360,1,90,10|0,0:0|0:0,0:0:0:0:
96,168,148275,6,0,P|96:104|0:128,1,180,2|10,0:0|0:0,0:0:0:0:
160,224,148725,1,0,0:0:0:0:
248,224,148875,1,2,0:0:0:0:
336,200,149025,1,0,0:0:0:0:
392,128,149175,2,0,P|400:88|400:32,1,90,10|0,0:0|0:0,0:0:0:0:
112,68,149475,5,2,0:0:0:0:
148,259,149625,1,0,0:0:0:0:
300,130,149775,1,10,0:0:0:0:
300,130,149925,1,0,0:0:0:0:
135,282,150075,5,2,0:0:0:0:
91,52,150225,1,0,0:0:0:0:
317,126,150375,1,10,0:0:0:0:
317,126,150525,1,0,0:0:0:0:
36,228,150675,5,2,0:0:0:0:
148,259,150825,1,0,0:0:0:0:
260,228,150975,1,10,0:0:0:0:
376,232,151125,1,0,0:0:0:0:
12,228,151275,5,2,0:0:0:0:
152,288,151425,1,0,0:0:0:0:
276,196,151575,1,10,0:0:0:0:
424,232,151725,1,0,0:0:0:0:
294,311,151875,6,0,L|254:215,1,90,2|0,0:0|0:0,0:0:0:0:
91,149,152175,2,0,L|99:53,1,90,10|0,0:0|0:0,0:0:0:0:
302,319,152475,2,0,L|262:223,1,90,2|0,0:0|0:0,0:0:0:0:
83,141,152775,2,0,L|91:45,1,90,10|0,0:0|0:0,0:0:0:0:
260,166,153075,6,0,P|214:222|200:152,1,180,2|10,0:0|0:0,0:0:0:0:
232,72,153525,1,0,0:0:0:0:
311,114,153675,1,2,0:0:0:0:
400,113,153825,1,0,0:0:0:0:
473,60,153975,2,0,L|472:160,1,90,10|0,0:0|0:0,0:0:0:0:
302,319,154275,5,2,0:0:0:0:
63,287,154425,1,0,0:0:0:0:
302,287,154575,1,10,0:0:0:0:
63,319,154725,1,0,0:0:0:0:
324,321,154875,5,2,0:0:0:0:
39,283,155025,1,0,0:0:0:0:
324,283,155175,1,10,0:0:0:0:
39,321,155325,1,0,0:0:0:0:
304,208,155475,5,2,0:0:0:0:
324,88,155625,1,0,0:0:0:0:
112,174,155775,1,10,0:0:0:0:
92,54,155925,1,0,0:0:0:0:
344,200,156075,5,2,0:0:0:0:
364,80,156225,1,0,0:0:0:0:
72,192,156375,1,8,3:2:0:0:
46,144,156450,1,0,3:0:0:0:
52,90,156525,1,0,3:0:0:0:
92,54,156600,1,0,0:0:0:0:
148,44,156675,6,0,L|148:148,1,90,6|0,0:0|0:0,0:0:0:0:
296,351,156975,2,0,L|296:261,1,90,10|0,0:0|0:0,0:0:0:0:
288,46,157275,2,0,L|288:150,1,90,2|0,0:0|0:0,0:0:0:0:
436,353,157575,2,0,L|436:263,1,90,10|0,0:0|0:0,0:0:0:0:
231,205,157875,6,0,P|199:277|105:256,1,180,6|10,0:0|0:0,0:0:0:0:
272,192,158325,1,0,0:0:0:0:
174,345,158475,1,2,0:0:0:0:
18,253,158625,1,0,0:0:0:0:
115,93,158775,1,10,0:0:0:0:
472,232,159075,6,0,P|441:186|446:272,1,236.250009012223,4|0,0:0|0:0,0:0:0:0:
399,302,159675,6,0,P|370:186|427:238,1,315,8|0,0:0|0:0,0:0:0:0:
445,171,160275,6,0,P|301:107|390:244,1,405.000015449525,2|0,0:0|0:0,0:0:0:0:
320,32,161475,5,2,0:0:0:0:
160,64,161775,1,2,0:0:0:0:
352,128,162075,1,2,0:0:0:0:
128,160,162375,1,2,0:0:0:0:
320,224,162675,5,2,0:0:0:0:
160,256,162975,1,2,0:0:0:0:
352,320,163275,1,2,0:0:0:0:
128,352,163575,1,2,0:0:0:0:
320,32,163875,5,2,0:0:0:0:
160,64,164025,1,2,0:0:0:0:
352,128,164175,1,2,0:0:0:0:
128,160,164325,1,2,0:0:0:0:
320,224,164475,1,2,0:0:0:0:
160,256,164625,1,2,0:0:0:0:
352,320,164775,1,2,0:0:0:0:
128,352,164925,1,2,0:0:0:0:
124,123,165075,5,0,1:0:0:0:
124,123,165150,1,0,1:0:0:0:
124,123,165225,1,0,1:0:0:0:
124,123,165300,1,0,1:0:0:0:
124,123,165375,5,0,0:0:0:0:
148,149,165450,1,0,0:0:0:0:
168,178,165525,1,0,0:0:0:0:
180,211,165600,1,0,0:0:0:0:
181,255,165675,5,0,0:0:0:0:
167,297,165750,1,0,0:0:0:0:
131,324,165825,1,0,0:0:0:0:
86,322,165900,1,0,0:0:0:0:
33,310,165975,5,0,0:0:0:0:
75,343,166050,1,0,0:0:0:0:
128,352,166125,1,0,0:0:0:0:
181,352,166200,1,0,0:0:0:0:
233,338,166275,6,0,P|261:298|276:254,1,67.5000025749208,6|0,0:0|0:0,0:0:0:0:
384,256,166575,2,0,P|377:216|350:169,1,67.5000025749208
256,144,166875,1,8,0:0:0:0:
366,191,167025,1,0,0:0:0:0:
424,72,167175,2,0,B|352:64,1,67.5000025749208
256,144,167475,6,0,L|144:152,1,101.250003862381,2|0,0:0|0:0,0:0:0:0:
96,104,167775,2,0,P|112:144|64:200,1,101.250003862381,2|0,0:0|0:0,0:0:0:0:
16,224,168075,2,0,P|8:280|56:304,1,101.250003862381,8|0,0:0|0:0,0:0:0:0:
114,299,168375,2,0,B|194:291,1,67.5000025749208
204,308,168600,1,0,0:0:0:0:
226,323,168675,6,0,B|306:315,1,67.5000025749208
440,272,168975,2,0,P|464:232|464:200,1,67.5000025749208
344,224,169275,1,8,0:0:0:0:
224,200,169425,1,0,0:0:0:0:
376,152,169575,2,0,L|448:136,1,67.5000025749208
329,59,169875,6,0,P|281:67|225:43,1,101.250003862381,2|0,0:0|0:0,0:0:0:0:
154,41,170175,2,0,P|184:78|192:139,1,101.250003862381,2|0,0:0|0:0,0:0:0:0:
224,200,170475,2,0,P|241:154|289:117,1,101.250003862381,8|0,0:0|0:0,0:0:0:0:
360,104,170775,1,0,0:0:0:0:
440,192,170925,1,0,0:0:0:0:
439,205,171000,1,0,0:0:0:0:
438,218,171075,6,0,P|392:240|360:240,1,67.5000025749208,2|0,0:0|0:0,0:0:0:0:
256,208,171375,1,0,0:0:0:0:
376,152,171525,1,0,0:0:0:0:
316,292,171675,1,8,0:0:0:0:
316,292,171750,1,0,0:0:0:0:
316,292,171825,1,0,0:0:0:0:
160,264,171975,2,0,L|148:188,1,67.5000025749208
80,84,172275,6,0,L|68:196,1,101.250003862381,2|0,0:0|0:0,0:0:0:0:
12,232,172575,2,0,L|20:332,1,101.250003862381,2|0,0:0|0:0,0:0:0:0:
96,344,172875,2,0,P|148:336|212:352,1,101.250003862381,8|0,0:0|0:0,0:0:0:0:
272,352,173175,2,0,P|320:364|352:356,1,67.5000025749208
364,356,173400,1,0,0:0:0:0:
392,352,173475,5,2,0:0:0:0:
456,248,173625,1,0,0:0:0:0:
492,344,173775,1,0,0:0:0:0:
356,256,173925,1,0,0:0:0:0:
500,164,174075,1,8,0:0:0:0:
500,164,174150,1,0,0:0:0:0:
500,164,174225,1,0,0:0:0:0:
380,176,174375,2,0,P|324:176|304:168,1,67.5000025749208
172,116,174675,6,0,P|128:116|72:148,1,101.250003862381,2|0,0:0|0:0,0:0:0:0:
150,189,174975,2,0,P|172:227|227:259,1,101.250003862381,2|0,0:0|0:0,0:0:0:0:
221,171,175275,2,0,P|243:132|243:68,1,101.250003862381,8|0,0:0|0:0,0:0:0:0:
245,76,175575,1,0,2:0:0:0:
104,44,175725,1,0,2:0:0:0:
104,44,175800,1,0,2:0:0:0:
104,44,175875,6,0,L|20:56,1,67.5000025749208,6|0,0:0|0:0,0:0:0:0:
172,116,176175,1,0,0:0:0:0:
55,145,176325,1,0,0:0:0:0:
221,171,176475,1,8,0:0:0:0:
221,171,176550,1,0,0:0:0:0:
221,171,176625,1,0,0:0:0:0:
216,48,176775,2,0,P|256:40|284:56,1,67.5000025749208
324,164,177075,6,0,B|344:232|344:232|380:248,1,101.250003862381,2|0,0:0|0:0,0:0:0:0:
444,268,177375,2,0,L|340:320,1,101.250003862381,2|0,0:0|0:0,0:0:0:0:
280,336,177675,2,0,P|228:324|176:336,1,101.250003862381,8|0,0:0|0:0,0:0:0:0:
108,352,177975,2,0,P|68:360|32:348,1,67.5000025749208
28,232,178275,5,2,0:0:0:0:
129,124,178425,1,0,0:0:0:0:
40,141,178575,1,0,0:0:0:0:
172,205,178725,1,0,0:0:0:0:
28,232,178875,1,8,0:0:0:0:
28,232,178950,1,0,0:0:0:0:
28,232,179025,1,0,0:0:0:0:
129,124,179175,2,0,P|188:120|216:136,1,67.5000025749208
344,168,179475,6,0,P|396:180|448:168,1,101.250003862381,2|0,0:0|0:0,0:0:0:0:
494,87,179775,2,0,P|457:126|442:177,1,101.250003862381,2|0,0:0|0:0,0:0:0:0:
489,257,180075,2,0,P|473:205|437:166,1,101.250003862381,8|0,0:0|0:0,0:0:0:0:
442,170,180375,1,0,0:0:0:0:
320,164,180525,1,0,0:0:0:0:
320,164,180600,1,0,0:0:0:0:
320,164,180675,6,0,L|236:164,1,67.5000025749208,2|0,0:0|0:0,0:0:0:0:
132,136,180975,1,0,0:0:0:0:
240,80,181125,1,0,0:0:0:0:
208,232,181275,1,8,0:0:0:0:
56,144,181425,1,0,0:0:0:0:
240,80,181575,2,0,L|328:76,1,67.5000025749208
440,72,181875,6,0,P|476:96|452:164,1,101.250003862381,2|0,0:0|0:0,0:0:0:0:
416,200,182175,2,0,P|388:244|412:288,1,101.250003862381,2|0,0:0|0:0,0:0:0:0:
444,348,182475,2,0,L|332:320,1,101.250003862381,8|0,0:0|0:0,0:0:0:0:
280,288,182775,2,0,L|204:280,1,67.5000025749208
51,230,183075,6,0,P|45:173|65:129,1,90
196,152,183375,2,0,P|140:192|116:184,1,90
216,76,183675,2,0,L|312:56,1,90
436,120,183975,2,0,L|344:128,1,90
196,152,184275,2,0,P|200:92|132:128,2,135
112,216,184875,6,0,B|168:160|256:160|256:160|224:216,1,202.500007724762
233,297,185475,5,0,0:0:0:0:
253,279,185550,1,0,0:0:0:0:
273,261,185625,1,0,0:0:0:0:
293,243,185700,1,0,0:0:0:0:
313,225,185775,1,0,0:0:0:0:
333,207,185850,1,0,0:0:0:0:
353,189,185925,1,0,0:0:0:0:
373,171,186000,1,0,0:0:0:0:
393,153,186075,2,0,L|464:144,1,45,8|0,3:3|0:0,0:0:0:0:
312,88,186225,2,0,L|256:72,1,45
448,24,186375,2,0,P|424:64|376:88,1,90,0|0,1:1|0:0,0:0:0:0:
152,127,186675,5,14,0:0:0:0:
293,243,186825,1,0,0:0:0:0:
86,210,186975,1,2,0:0:0:0:
256,143,187125,1,8,0:0:0:0:
224,320,187275,1,2,0:0:0:0:
152,127,187425,1,0,0:0:0:0:
120,304,187575,1,10,0:0:0:0:
256,143,187725,1,0,0:0:0:0:
62,128,187875,6,0,L|160:126,1,90,14|0,0:0|0:0,0:0:0:0:
256,143,188100,1,0,0:0:0:0:
256,143,188175,2,0,L|354:141,1,90,14|0,0:0|0:0,0:0:0:0:
86,210,188475,2,0,L|184:208,1,90,14|0,0:0|0:0,0:0:0:0:
280,225,188700,1,0,0:0:0:0:
280,225,188775,2,0,L|378:223,1,90,14|0,0:0|0:0,0:0:0:0:
464,272,189075,5,10,0:0:0:0:
352,312,189225,1,0,0:0:0:0:
240,272,189375,1,2,0:0:0:0:
120,304,189525,1,8,0:0:0:0:
8,264,189675,5,2,0:0:0:0:
120,320,189825,1,0,0:0:0:0:
240,244,189975,1,10,0:0:0:0:
352,336,190125,1,0,0:0:0:0:
464,272,190275,6,0,L|472:176,1,90,14|0,0:0|0:0,0:0:0:0:
312,216,190500,1,0,0:0:0:0:
312,216,190575,2,0,L|288:104,1,90,14|0,0:0|0:0,0:0:0:0:
404,52,190875,2,0,P|324:100|232:68,1,180,6|10,0:0|0:0,0:0:0:0:
124,20,191325,1,0,0:0:0:0:
24,128,191475,5,10,0:0:0:0:
192,200,191625,1,0,0:0:0:0:
72,232,191775,1,2,0:0:0:0:
176,88,191925,1,8,0:0:0:0:
240,312,192075,1,2,0:0:0:0:
24,128,192225,1,0,0:0:0:0:
320,144,192375,1,10,0:0:0:0:
72,232,192525,1,0,0:0:0:0:
240,312,192675,6,0,P|296:320|344:312,1,90,14|0,0:0|0:0,0:0:0:0:
424,288,192900,1,0,0:0:0:0:
424,288,192975,2,0,P|472:258|503:221,1,90,14|0,0:0|0:0,0:0:0:0:
192,200,193275,2,0,P|248:208|296:200,1,90,14|0,0:0|0:0,0:0:0:0:
376,176,193500,1,0,0:0:0:0:
376,176,193575,2,0,P|424:146|455:109,1,90,14|0,0:0|0:0,0:0:0:0:
72,232,193875,5,10,0:0:0:0:
150,325,194025,1,0,0:0:0:0:
243,245,194175,1,2,0:0:0:0:
165,152,194325,1,8,0:0:0:0:
150,325,194475,5,2,0:0:0:0:
331,325,194625,1,0,0:0:0:0:
328,140,194775,1,10,0:0:0:0:
147,140,194925,1,0,0:0:0:0:
331,325,195075,6,0,L|464:336,1,90,14|0,0:0|0:0,0:0:0:0:
408,256,195300,1,0,0:0:0:0:
408,256,195375,2,0,P|376:224|392:176,1,90,14|0,0:0|0:0,0:0:0:0:
478,107,195675,2,0,P|426:157|314:125,1,180,6|10,0:0|0:0,0:0:0:0:
88,72,196125,1,0,0:0:0:0:
88,72,196200,1,0,0:0:0:0:
88,72,196275,5,14,0:0:0:0:
197,282,196425,1,0,0:0:0:0:
41,235,196575,1,2,0:0:0:0:
251,124,196725,1,8,0:0:0:0:
90,36,196875,1,2,0:0:0:0:
197,297,197025,1,0,0:0:0:0:
17,225,197175,1,10,0:0:0:0:
278,115,197325,1,0,0:0:0:0:
200,312,197475,6,0,P|263:330|313:330,1,90,14|0,0:0|0:0,0:0:0:0:
273,108,197700,1,0,0:0:0:0:
272,107,197775,2,0,P|229:91|185:86,1,90,14|0,0:0|0:0,0:0:0:0:
353,239,198075,2,0,P|368:196|373:152,1,90,14|0,0:0|0:0,0:0:0:0:
121,179,198300,1,0,0:0:0:0:
121,179,198375,2,0,P|106:222|101:266,1,90,14|0,0:0|0:0,0:0:0:0:
336,40,198675,5,10,0:0:0:0:
464,168,198825,1,0,0:0:0:0:
440,72,198975,1,2,0:0:0:0:
256,72,199125,1,8,0:0:0:0:
320,256,199275,1,2,0:0:0:0:
336,40,199425,1,0,0:0:0:0:
128,112,199575,1,10,0:0:0:0:
320,256,199725,1,0,0:0:0:0:
80,344,199875,6,0,L|56:256,1,90,14|0,0:0|0:0,0:0:0:0:
128,112,200100,1,0,0:0:0:0:
128,112,200175,2,0,L|140:232,1,90,14|0,0:0|0:0,0:0:0:0:
287,329,200475,2,0,P|361:318|319:255,1,180,6|10,0:0|0:0,0:0:0:0:
319,255,200925,1,0,0:0:0:0:
416,136,201075,5,10,0:0:0:0:
224,96,201225,1,0,0:0:0:0:
288,168,201375,1,2,0:0:0:0:
416,40,201525,1,8,0:0:0:0:
152,24,201675,1,2,0:0:0:0:
416,136,201825,1,0,0:0:0:0:
128,112,201975,1,10,0:0:0:0:
416,40,202125,1,0,0:0:0:0:
40,80,202275,6,0,L|56:168,1,90,14|0,0:0|0:0,0:0:0:0:
128,112,202500,1,0,0:0:0:0:
128,112,202575,2,0,L|144:200,1,90,14|0,0:0|0:0,0:0:0:0:
416,136,202875,2,0,L|400:224,1,90,14|0,0:0|0:0,0:0:0:0:
328,168,203100,1,0,0:0:0:0:
328,168,203175,2,0,L|312:256,1,90,14|0,0:0|0:0,0:0:0:0:
56,274,203475,5,10,0:0:0:0:
240,232,203625,1,0,0:0:0:0:
99,360,203775,1,2,0:0:0:0:
117,187,203925,1,8,0:0:0:0:
248,335,204075,1,2,0:0:0:0:
48,126,204225,1,0,0:0:0:0:
334,221,204375,1,10,0:0:0:0:
99,360,204525,1,0,0:0:0:0:
136,128,204675,5,0,0:0:0:0:
161,137,204750,1,0,0:0:0:0:
187,141,204825,1,0,0:0:0:0:
213,138,204900,1,0,0:0:0:0:
238,129,204975,1,0,0:0:0:0:
257,110,205050,1,0,0:0:0:0:
269,85,205125,1,0,0:0:0:0:
271,58,205200,1,0,0:0:0:0:
262,32,205275,5,0,1:1:0:0:
280,80,205350,1,0,1:1:0:0:
296,136,205425,1,0,1:1:0:0:
312,192,205500,1,0,1:1:0:0:
328,248,205575,1,0,1:1:0:0:
344,304,205650,1,0,1:1:0:0:
360,360,205725,1,0,1:1:0:0:
376,312,205800,1,0,1:1:0:0:
397,262,205875,6,0,L|440:120,1,135.000005149842,6|0,0:0|3:0,0:0:0:0:
172,9,206175,2,0,L|212:137,1,135.000005149842,2|0,0:0|3:0,0:0:0:0:
272,321,206475,2,0,L|315:179,1,135.000005149842,2|0,0:0|3:0,0:0:0:0:
47,68,206775,2,0,L|87:196,1,135.000005149842,2|0,0:0|3:0,0:0:0:0:
442,191,207075,6,0,P|375:177|309:192,1,135.000005149842,2|0,0:0|3:0,0:0:0:0:
70,192,207375,2,0,P|137:207|203:192,1,135.000005149842,2|0,0:0|3:0,0:0:0:0:
444,60,207675,2,0,P|428:124|444:196,1,135.000005149842,2|0,0:0|3:0,0:0:0:0:
68,323,207975,2,0,P|84:260|68:188,1,135.000005149842,2|0,0:0|3:0,0:0:0:0:
200,216,208275,5,2,0:0:0:0:
184,296,208425,1,0,3:0:0:0:
312,168,208575,1,2,0:0:0:0:
328,88,208725,1,0,3:0:0:0:
184,88,208875,5,2,0:0:0:0:
200,168,209025,1,0,3:0:0:0:
328,296,209175,1,2,0:0:0:0:
312,216,209325,1,0,3:0:0:0:
112,40,209475,6,0,P|136:112|120:184,1,135.000005149842,2|0,0:0|3:0,0:0:0:0:
400,39,209775,2,0,P|376:102|385:169,1,135.000005149842,2|0,0:0|3:0,0:0:0:0:
384,344,210075,2,0,P|408:272|392:199,1,135.000005149842,2|0,0:0|3:0,0:0:0:0:
112,214,210375,2,0,P|104:281|128:344,1,135.000005149842,2|0,0:0|3:0,0:0:0:0:
458,161,210675,6,0,L|391:22,1,135.000005149842,2|0,0:0|3:0,0:0:0:0:
424,312,210975,2,0,L|357:173,1,135.000005149842,2|0,0:0|3:0,0:0:0:0:
54,161,211275,2,0,L|121:22,1,135.000005149842,2|0,0:0|3:0,0:0:0:0:
88,312,211575,2,0,L|155:173,1,135.000005149842,2|0,0:0|3:0,0:0:0:0:
304,49,211875,5,2,0:0:0:0:
304,49,212025,1,0,3:0:0:0:
296,260,212175,1,2,0:0:0:0:
296,260,212325,1,0,3:0:0:0:
184,120,212475,1,2,0:0:0:0:
184,120,212625,1,0,3:0:0:0:
378,166,212775,1,2,0:0:0:0:
378,166,212925,1,0,3:0:0:0:
96,168,213075,6,0,L|96:312,1,135.000005149842,2|0,0:0|3:0,0:0:0:0:
304,184,213375,2,0,L|304:49,1,135.000005149842,2|0,0:0|3:0,0:0:0:0:
192,248,213675,2,0,L|192:383,1,135.000005149842,2|0,0:0|3:0,0:0:0:0:
448,199,213975,2,0,L|448:64,1,135.000005149842,2|0,0:0|3:0,0:0:0:0:
378,326,214275,5,2,0:0:0:0:
378,166,214425,1,0,3:0:0:0:
304,209,214575,1,2,0:0:0:0:
304,49,214725,1,0,3:0:0:0:
224,320,214875,1,2,0:0:0:0:
224,160,215025,1,0,3:0:0:0:
120,224,215175,1,2,0:0:0:0:
120,64,215325,1,0,3:0:0:0:
56,320,215475,6,0,P|40:272|48:208,1,90,6|0,0:0|0:0,0:0:0:0:
64,184,215700,1,0,0:0:0:0:
108,150,215775,2,0,P|124:102|116:54,1,90,10|0,0:0|0:0,0:0:0:0:
16,104,216075,1,10,0:0:0:0:
200,104,216225,1,0,0:0:0:0:
0,84,216375,1,10,0:0:0:0:
224,20,216525,1,0,0:0:0:0:
352,148,216675,6,0,P|288:172|216:156,1,135,2|0,0:0|0:0,0:0:0:0:
192,196,216975,2,0,P|240:228|288:228,1,90,10|0,0:0|0:0,0:0:0:0:
444,216,217275,2,0,P|468:148|448:56,1,135,2|0,0:0|0:0,0:0:0:0:
500,56,217575,2,0,P|496:100|516:160,1,90,10|0,0:0|0:0,0:0:0:0:
464,296,217875,5,2,0:0:0:0:
336,380,218025,1,0,0:0:0:0:
200,312,218175,2,0,P|136:320|104:336,1,90,10|0,0:0|0:0,0:0:0:0:
284,312,218475,1,10,0:0:0:0:
344,172,218625,1,0,0:0:0:0:
192,196,218775,2,0,P|240:212|292:196,1,90
108,24,219075,6,0,B|100:88|100:88|132:120|108:160,1,135,2|0,0:0|0:0,0:0:0:0:
156,116,219375,2,0,P|156:76|204:92,1,90,10|0,0:0|0:0,0:0:0:0:
344,172,219675,2,2,B|344:116|344:116|376:76|376:76|352:44|376:-4,1,180,2|10,0:0|0:0,0:0:0:0:
164,268,220275,6,0,P|164:324|172:356,1,90,2|0,0:0|0:0,0:0:0:0:
48,348,220575,2,0,P|48:292|40:260,1,90,10|0,0:0|0:0,0:0:0:0:
192,196,220875,1,10,0:0:0:0:
20,188,221025,1,0,0:0:0:0:
208,188,221175,1,10,0:0:0:0:
8,176,221325,1,0,0:0:0:0:
232,84,221475,6,0,P|304:104|356:72,1,135,2|0,0:0|0:0,0:0:0:0:
392,32,221775,2,0,P|392:64|416:36,1,90,10|0,0:0|0:0,0:0:0:0:
336,196,222075,2,0,P|316:268|347:320,1,135,2|0,0:0|0:0,0:0:0:0:
387,356,222375,2,0,P|355:356|383:380,1,90,10|0,0:0|0:0,0:0:0:0:
256,192,222675,12,0,223725,0:0:0:0:
115,179,223875,5,0,0:0:0:0:
146,196,223950,1,0,0:0:0:0:
180,205,224025,1,0,0:0:0:0:
215,210,224100,1,0,0:0:0:0:
260,210,224175,5,0,0:0:0:0:
304,203,224250,1,0,0:0:0:0:
347,190,224325,1,0,0:0:0:0:
386,168,224400,1,0,0:0:0:0:
435,145,224475,5,0,0:0:0:0:
399,185,224550,1,0,0:0:0:0:
351,210,224625,1,0,0:0:0:0:
298,222,224700,1,0,0:0:0:0:
244,228,224775,1,0,0:0:0:0:
190,225,224850,1,0,0:0:0:0:
139,205,224925,1,0,0:0:0:0:
95,173,225000,1,0,0:0:0:0:
64,128,225075,5,4,0:3:0:0:
