osu file format v14

[General]
AudioFilename: Iro wa Jou e to Sasou.mp3
AudioLeadIn: 0
PreviewTime: 108675
Countdown: 0
SampleSet: Normal
StackLeniency: 0.7
Mode: 0
LetterboxInBreaks: 0
EpilepsyWarning: 1
WidescreenStoryboard: 1

[Editor]
DistanceSpacing: 1.7
BeatDivisor: 4
GridSize: 4
TimelineZoom: 2.2

[Metadata]
Title:Iro wa Jou e to Izanau
TitleUnicode:色は情へと誘う
Artist:senya
ArtistUnicode:senya
Creator:Momizi
Version:Insane
Source:東方Project
Tags:Greenwich in the sky The Whole World Sanzen Sekai Yuuhei Satellite deitarabotchi Kamase Tora Mayumi Morinaga Touhou 幽閉サテライト c84 大空魔術 ~ Magical Astronomy 天空のグリニッジ Spring Roll FreeSongs Mikagura Seisa マエリベリー·ハーン Maribel Hearn 宇佐見 蓮子 うさみ れんこ Usami Renko
BeatmapID:862642
BeatmapSetID:226670

[Difficulty]
HPDrainRate:6
CircleSize:4
OverallDifficulty:7
ApproachRate:9
SliderMultiplier:1.6
SliderTickRate:1

[Events]
//Background and Video events
0,0,"BG.jpg",0,0
//Break Periods
2,128075,136875
//Storyboard Layer 0 (Background)
//Storyboard Layer 1 (Fail)
//Storyboard Layer 2 (Pass)
//Storyboard Layer 3 (Foreground)
Sprite,Foreground,Centre,"NEW SB/title/beatmapMomizi1.png",320,240 V,0,36675,,0.5,0.5 F,0,36675,36825,0,1 M,1,36675,37075,230,335,170,370 M,0,37075,39075,170,370 V,0,38925,39075,0.5,0.5,0.5,0
Sprite,Foreground,Centre,"NEW SB/title/beatmapMomizi2.png",320,240 V,0,36675,,0.5,0.5 F,0,36675,36825,0,1 M,1,36675,37075,110,405,170,370 M,0,37075,39075,170,370 V,0,38925,39075,0.5,0.5,0.5,0
//Storyboard Sound Samples

[TimingPoints]
675,300,4,1,0,100,1,0
10275,-100,4,2,2,60,0,0
28275,-100,4,1,1,60,0,0
28875,-100,4,1,1,75,0,0
29475,-76.9230769230769,4,2,1,70,0,0
39075,-100,4,2,1,60,0,1
48675,-100,4,1,1,60,0,1
49875,-133.333333333333,4,3,1,60,0,0
57075,-200,4,3,1,60,0,0
57675,-100,4,3,1,60,0,0
59475,-133.333333333333,4,3,1,60,0,0
66675,-200,4,3,1,60,0,0
67275,-100,4,3,1,60,0,0
68475,-100,4,3,1,60,0,0
87075,-100,4,1,1,40,0,0
87375,-100,4,1,1,55,0,0
87675,-100,4,1,1,70,0,0
87975,-100,4,1,1,85,0,0
88275,-100,4,2,1,60,0,0
97425,-100,4,2,1,70,0,0
100275,-133.333333333333,4,2,4,40,0,0
100350,-133.333333333333,4,2,1,5,0,0
100725,-133.333333333333,4,2,1,5,0,0
100875,-133.333333333333,4,2,4,45,0,0
100950,-100,4,2,1,5,0,0
101325,-100,4,2,1,5,0,0
101475,-133.333333333333,4,2,4,50,0,0
102075,-133.333333333333,4,2,1,5,0,0
102675,-100,4,2,1,80,0,0
106275,-100,4,2,1,60,0,0
107475,-100,4,1,1,60,0,0
108675,-100,4,2,1,75,0,1
126675,-100,4,1,1,50,0,1
127275,-100,4,1,1,70,0,1
127875,-133.333333333333,4,3,1,60,0,0
135975,-133.333333333333,4,2,1,60,0,0
137475,-100,4,3,1,60,0,0
145875,-100,4,1,1,40,0,0
146475,-100,4,1,1,50,0,0
146775,-100,4,1,1,70,0,0
147075,-100,4,2,1,60,0,0
159075,-133.333333333333,4,2,4,40,0,0
159150,-133.333333333333,4,2,1,5,0,0
159525,-133.333333333333,4,2,1,5,0,0
159675,-133.333333333333,4,2,4,45,0,0
159750,-133.333333333333,4,2,1,5,0,0
160125,-100,4,2,1,5,0,0
160275,-133.333333333333,4,2,4,50,0,0
160875,-133.333333333333,4,2,4,5,0,0
161475,-100,4,2,1,80,0,0
165075,-100,4,2,1,40,0,0
165375,-100,4,1,1,60,0,0
165675,-100,4,1,1,70,0,0
165975,-100,4,1,1,80,0,0
166275,-100,4,2,2,60,0,0
167475,-100,4,2,2,60,0,0
168675,-100,4,2,2,60,0,0
169725,-100,4,2,2,60,0,0
171075,-100,4,2,2,60,0,0
172275,-100,4,2,2,60,0,0
173475,-100,4,2,2,60,0,0
174675,-100,4,2,2,70,0,0
175875,-100,4,2,2,60,0,0
177075,-100,4,2,2,60,0,0
178275,-100,4,2,2,60,0,0
181875,-100,4,2,2,60,0,0
183075,-100,4,2,1,70,0,0
184875,-100,4,2,1,45,0,0
185475,-100,4,2,1,60,0,0
186675,-100,4,2,1,75,0,1
205875,-76.9230769230769,4,2,1,60,0,0
215475,-100,4,2,1,55,0,0
223875,-100,4,1,1,50,0,0
224175,-100,4,1,1,60,0,0
224475,-100,4,1,1,70,0,0
225075,-100,4,1,1,70,0,0

[Colours]
Combo1 : 250,250,20
Combo2 : 206,72,251
Combo3 : 34,202,251

[HitObjects]
384,304,10275,6,0,P|408:240|392:208,1,80,0|0,0:0|0:0,0:0:0:0:
296,176,10575,2,0,P|320:232|352:232,1,80
376,120,10875,2,0,P|384:80|352:48,2,80,0|0|0,0:0|0:0|0:0,0:0:0:0:
200,200,11475,2,0,B|152:216|152:216|104:200|64:208,2,120,4|0|0,0:3|0:0|0:0,0:0:0:0:
296,176,12075,2,0,B|344:160|344:160|392:176|432:168,2,120,0|0|0,0:0|0:0|0:0,0:0:0:0:
256,264,12675,5,0,0:0:0:0:
256,264,12825,1,0,0:0:0:0:
152,328,12975,2,0,P|104:336|56:320,1,80,0|0,0:0|0:0,0:0:0:0:
32,184,13275,1,0,0:0:0:0:
120,224,13425,1,0,0:0:0:0:
32,168,13575,2,0,P|56:120|112:120,1,80,0|0,0:0|0:0,0:0:0:0:
200,120,13875,2,0,B|264:136|264:136|328:120,2,120,0|0|0,0:0|0:0|0:0,0:0:0:0:
300,52,14475,2,0,P|356:60|380:160,1,160,0|0,0:0|0:0,0:0:0:0:
385,148,15075,6,0,P|384:196|412:232,1,80,0|0,0:0|0:0,0:0:0:0:
504,284,15375,2,0,P|440:288|408:320,1,80,0|0,0:0|0:0,0:0:0:0:
332,348,15675,1,0,0:0:0:0:
228,324,15825,1,0,0:0:0:0:
296,172,15975,2,0,P|312:212|284:260,1,80
200,252,16275,2,0,B|152:252|152:252|120:264|120:264|80:264,2,120,0|0|0,0:0|0:0|0:0,0:0:0:0:
136,172,16875,2,0,B|88:172|88:172|56:184|56:184|16:184,2,120,0|0|0,0:0|0:0|0:0,0:0:0:0:
196,88,17475,5,0,0:0:0:0:
292,48,17625,1,0,0:0:0:0:
372,116,17775,2,0,P|336:136|296:128,1,80,0|0,0:0|0:0,0:0:0:0:
392,44,18075,2,0,P|440:76|448:112,2,80
352,300,18675,2,0,B|384:324|384:324|436:308|468:328,2,120,0|0|0,0:0|0:0|0:0,0:0:0:0:
240,260,19275,2,0,L|240:156,1,80,0|0,0:0|0:0,0:0:0:0:
216,296,19575,2,0,L|216:212,1,80,0|0,0:0|0:0,0:0:0:0:
192,332,19875,5,6,0:0:0:0:
96,356,20025,1,0,0:0:0:0:
20,300,20175,2,0,L|32:216,1,80,0|0,0:0|0:0,0:0:0:0:
128,152,20475,1,8,0:0:0:0:
128,152,20550,1,0,0:0:0:0:
128,152,20625,2,0,L|120:72,1,80,0|0,0:0|0:0,0:0:0:0:
8,28,20925,1,2,0:0:0:0:
8,28,21075,2,0,P|8:100|68:128,1,120,2|0,0:0|0:0,0:0:0:0:
88,140,21375,2,0,P|152:176|156:220,1,120,2|0,0:0|0:0,0:0:0:0:
132,256,21675,2,0,P|200:232|256:252,2,120,8|0|0,0:0|0:0|0:0,0:0:0:0:
100,348,22275,5,2,0:0:0:0:
196,352,22425,1,0,0:0:0:0:
196,352,22500,1,0,0:0:0:0:
196,352,22575,2,0,P|252:348|280:336,1,80,0|0,0:0|0:0,0:0:0:0:
392,280,22875,2,0,P|340:268|300:280,2,80,8|0|0,0:0|0:0|0:0,0:0:0:0:
484,312,23325,5,2,0:0:0:0:
484,312,23475,2,0,L|488:184,1,120,2|0,0:0|0:0,0:0:0:0:
440,188,23775,2,0,L|432:60,1,120,2|0,0:0|0:0,0:0:0:0:
456,24,24075,2,0,P|416:68|316:28,1,160,4|0,0:0|0:0,0:0:0:0:
232,40,24525,1,0,0:0:0:0:
232,40,24600,1,0,0:0:0:0:
232,40,24675,6,0,L|128:32,1,80,2|0,0:0|0:0,0:0:0:0:
64,116,24975,2,0,L|152:104,1,80,0|0,0:0|0:0,0:0:0:0:
236,184,25275,1,8,0:0:0:0:
236,184,25350,1,0,0:0:0:0:
236,184,25425,2,0,L|132:176,1,80,0|0,0:0|0:0,0:0:0:0:
48,232,25725,1,2,0:0:0:0:
48,232,25875,2,0,L|180:252,1,120,2|0,0:0|0:0,0:0:0:0:
156,296,26175,2,0,L|288:292,1,120,2|0,0:0|0:0,0:0:0:0:
308,256,26475,2,0,P|304:308|376:324,2,120,10|0|0,0:0|0:0|0:0,0:0:0:0:
456,180,27075,6,0,L|460:88,1,80,2|0,0:0|0:0,0:0:0:0:
356,40,27375,2,0,L|364:128,1,80
288,184,27675,1,8,2:0:0:0:
288,184,27750,1,0,0:0:0:0:
288,184,27825,1,0,0:0:0:0:
236,92,27975,2,0,P|184:108|144:92,1,80
56,88,28275,6,0,L|52:140,3,40,0|0|0|0,0:0|0:0|0:0|0:0,0:0:0:0:
80,168,28575,2,0,L|84:224,3,40,0|0|0|0,0:0|0:0|0:0|0:0,0:0:0:0:
56,248,28875,2,0,L|44:296,3,40,0|0|0|0,0:0|0:0|0:0|0:0,0:0:0:0:
36,336,29175,1,0,0:0:0:0:
68,328,29250,1,0,0:0:0:0:
100,332,29325,1,0,0:0:0:0:
132,340,29400,1,0,0:0:0:0:
164,332,29475,6,0,P|216:316|276:332,1,103.999995239258,2|0,0:0|3:3,0:0:0:0:
436,324,29775,2,0,P|384:340|324:324,1,103.999995239258,2|0,0:0|3:3,0:0:0:0:
192,248,30075,2,0,P|140:231|80:247,1,103.999995239258,2|0,0:0|3:3,0:0:0:0:
240,192,30375,2,0,P|292:208|352:192,1,103.999995239258,2|0,0:0|3:3,0:0:0:0:
476,120,30675,6,0,P|424:136|364:120,1,103.999995239258,2|0,0:0|3:3,0:0:0:0:
232,64,30975,1,2,0:0:0:0:
232,64,31125,1,0,3:3:0:0:
216,220,31275,2,0,P|164:203|104:219,1,103.999995239258,2|0,0:0|3:3,0:0:0:0:
256,288,31575,2,0,P|292:244|280:184,1,103.999995239258,2|0,0:0|3:0,0:0:0:0:
220,36,31875,6,0,L|240:156,1,103.999995239258,2|0,0:0|3:3,0:0:0:0:
80,152,32175,2,0,L|97:49,1,103.999995239258,2|0,0:0|3:3,0:0:0:0:
68,204,32475,2,0,L|56:92,1,103.999995239258,2|0,0:0|3:3,0:0:0:0:
212,116,32775,2,0,L|200:219,1,103.999995239258,2|0,0:0|3:3,0:0:0:0:
332,304,33075,6,0,L|320:188,1,103.999995239258,2|0,0:0|3:3,0:0:0:0:
304,356,33375,2,0,L|316:244,1,103.999995239258,2|0,0:0|3:3,0:0:0:0:
464,200,33675,2,0,L|456:80,1,103.999995239258,2|0,0:0|3:3,0:0:0:0:
484,244,33975,2,0,L|492:136,1,103.999995239258,2|0,0:0|3:3,0:0:0:0:
336,60,34275,5,2,0:0:0:0:
336,60,34425,1,0,3:0:0:0:
212,116,34575,2,0,L|100:120,1,103.999995239258,2|0,0:0|3:0,0:0:0:0:
336,60,34875,1,2,0:0:0:0:
336,60,35025,1,0,0:0:0:0:
168,40,35175,2,0,L|56:36,1,103.999995239258,2|0,0:0|3:3,0:0:0:0:
28,244,35475,6,0,P|112:268|144:256,1,103.999995239258,2|0,0:0|3:3,0:0:0:0:
234,345,35775,2,0,P|236:272|204:230,1,103.999995239258,2|0,0:0|3:3,0:0:0:0:
348,256,36075,2,0,L|464:268,1,103.999995239258,2|0,0:0|3:3,0:0:0:0:
508,116,36375,2,0,L|392:128,1,103.999995239258,2|0,0:0|3:3,0:0:0:0:
256,60,36675,5,2,0:0:0:0:
256,60,36825,1,0,3:3:0:0:
100,60,36975,2,0,P|80:124|96:172,1,103.999995239258,2|0,0:0|3:3,0:0:0:0:
244,160,37275,1,2,0:0:0:0:
244,160,37425,1,0,3:3:0:0:
400,160,37575,2,0,P|420:224|404:272,1,103.999995239258,2|0,0:0|3:3,0:0:0:0:
273,332,37875,6,0,P|253:268|269:220,1,103.999995239258,2|0,0:0|3:3,0:0:0:0:
153,120,38175,2,0,P|218:134|251:172,1,103.999995239258,2|0,0:0|3:3,0:0:0:0:
397,120,38475,2,0,P|351:169|302:179,1,103.999995239258,2|0,0:0|3:3,0:0:0:0:
164,208,38775,2,0,P|96:216|64:252,1,103.999995239258,2|0,0:0|3:3,0:0:0:0:
20,348,39075,6,0,P|64:348|104:316,1,80,6|0,0:0|0:0,0:0:0:0:
172,236,39375,1,10,0:0:0:0:
92,248,39525,1,0,0:0:0:0:
232,288,39675,2,0,P|288:296|320:272,2,80,2|0|10,0:0|0:0|0:0,0:0:0:0:
324,212,40125,1,0,0:0:0:0:
232,136,40275,6,0,P|212:76|232:52,1,80,6|0,0:0|0:0,0:0:0:0:
332,32,40575,2,0,P|316:76|276:84,1,80,14|0,0:0|0:0,0:0:0:0:
144,48,40875,2,0,B|96:52|76:96,1,80,6|0,0:0|0:0,0:0:0:0:
167,177,41175,2,0,B|214:173|235:129,1,80,14|0,0:0|0:0,0:0:0:0:
332,32,41475,5,2,0:0:0:0:
352,108,41625,1,0,0:0:0:0:
460,216,41775,1,10,0:0:0:0:
468,136,41925,1,0,0:0:0:0:
324,212,42075,2,0,P|332:256|324:308,1,80,2|0,0:0|0:0,0:0:0:0:
468,344,42375,2,0,P|428:336|368:360,1,80,10|0,0:0|0:0,0:0:0:0:
280,352,42675,5,6,0:0:0:0:
208,248,42825,1,0,0:0:0:0:
208,248,42900,1,0,0:0:0:0:
208,248,42975,2,0,L|200:340,1,80,14|0,0:0|0:0,0:0:0:0:
140,196,43275,2,0,L|124:104,1,80,6|0,0:0|0:0,0:0:0:0:
232,60,43575,2,0,L|216:144,1,80,10|0,0:0|0:0,0:0:0:0:
72,244,43875,5,2,0:0:0:0:
96,324,44025,1,0,0:0:0:0:
140,196,44175,1,10,0:0:0:0:
180,320,44325,1,0,0:0:0:0:
217,138,44475,2,0,P|229:94|201:58,2,80,2|0|10,0:0|0:0|0:0,0:0:0:0:
140,196,44925,1,0,0:0:0:0:
188,308,45075,5,6,0:0:0:0:
288,224,45225,1,0,0:0:0:0:
288,224,45300,2,0,P|356:240|396:212,1,120,0|0,0:0|0:0,0:0:0:0:
196,296,45675,5,6,0:0:0:0:
296,212,45825,1,0,0:0:0:0:
296,212,45900,2,0,P|364:228|404:200,1,120,0|0,0:0|0:0,0:0:0:0:
456,60,46275,5,2,0:0:0:0:
380,32,46425,1,0,0:0:0:0:
280,100,46575,2,0,P|320:120|376:116,1,80,10|0,0:0|0:0,0:0:0:0:
208,44,46875,1,2,0:0:0:0:
84,96,47025,1,0,3:0:0:0:
208,44,47175,2,0,B|204:140|204:136,1,80,10|0,0:0|3:0,0:0:0:0:
84,96,47475,6,0,L|100:196,1,80,6|0,0:0|0:0,0:0:0:0:
168,280,47775,2,0,L|176:184,1,80,14|0,0:0|0:0,0:0:0:0:
103,314,48075,2,0,P|183:354|236:309,1,160,2|10,0:0|0:0,0:0:0:0:
488,156,48675,6,0,L|440:148,3,40,0|0|0|0,0:0|0:0|0:0|0:0,0:0:0:0:
404,172,48975,2,0,L|348:176,3,40,0|0|0|0,0:0|0:0|0:0|0:0,0:0:0:0:
316,164,49275,1,0,0:0:0:0:
284,160,49350,1,0,0:0:0:0:
252,156,49425,1,0,0:0:0:0:
220,152,49500,1,0,1:1:0:0:
188,148,49575,2,0,L|96:148,1,80,0|0,1:1|0:0,0:0:0:0:
48,288,49875,6,0,L|176:288,1,120.000004577637,12|0,0:0|0:0,0:0:0:0:
316,164,50475,2,0,L|188:164,1,120.000004577637,8|0,0:2|0:0,0:0:0:0:
108,148,50925,1,8,0:0:0:0:
108,148,51075,1,8,0:0:0:0:
108,148,51375,2,0,L|188:148,1,60.0000022888184,8|0,0:0|0:0,0:0:0:0:
256,164,51675,2,0,L|336:164,1,60.0000022888184,8|0,0:2|0:0,0:0:0:0:
404,144,51975,1,0,0:0:0:0:
404,144,52275,6,0,L|268:144,1,120.000004577637,8|0,0:0|0:0,0:0:0:0:
108,64,52875,2,0,L|244:64,1,120.000004577637,8|0,0:2|0:0,0:0:0:0:
316,40,53325,1,8,0:0:0:0:
316,40,53475,1,8,0:0:0:0:
316,40,53775,2,0,L|388:40,1,60.0000022888184,8|0,0:0|0:0,0:0:0:0:
452,88,54075,2,0,L|520:88,2,60.0000022888184,8|0|0,0:2|0:0|0:0,0:0:0:0:
268,140,54675,6,0,L|120:140,1,120.000004577637,8|0,0:0|0:0,0:0:0:0:
320,200,55275,2,0,L|448:200,1,120.000004577637,8|0,0:2|0:0,0:0:0:0:
492,272,55725,1,8,0:0:0:0:
492,272,55875,1,8,0:0:0:0:
492,272,56175,2,0,L|416:272,1,60.0000022888184,8|0,0:0|0:0,0:0:0:0:
344,300,56475,2,0,L|264:300,1,60.0000022888184,8|0,0:2|0:0,0:0:0:0:
196,272,56775,1,0,0:0:0:0:
344,128,57075,6,0,L|440:132,1,80,8|0,0:0|0:0,0:0:0:0:
264,124,57675,6,0,L|360:128,1,80,8|0,0:2|0:0,0:0:0:0:
105,117,57975,5,0,0:0:0:0:
264,124,58125,1,8,0:0:0:0:
105,117,58425,5,0,0:0:0:0:
264,124,58575,1,8,0:0:0:0:
105,117,58875,6,0,L|280:124,1,160,8|0,0:2|0:0,0:0:0:0:
364,280,59475,6,0,L|232:280,1,120.000004577637,12|0,0:0|0:0,0:0:0:0:
56,328,60075,2,0,L|192:328,1,120.000004577637,8|0,0:2|0:0,0:0:0:0:
264,348,60525,1,8,0:0:0:0:
264,348,60675,1,8,0:0:0:0:
264,348,60975,2,0,L|344:348,1,60.0000022888184,8|0,0:0|0:0,0:0:0:0:
412,336,61275,2,0,L|492:336,2,60.0000022888184,8|0|0,0:2|0:0|0:0,0:0:0:0:
248,236,61875,6,0,L|116:236,1,120.000004577637,8|0,0:0|0:0,0:0:0:0:
0,92,62475,2,0,L|120:92,1,120.000004577637,8|0,0:2|0:0,0:0:0:0:
208,112,62925,1,8,0:0:0:0:
208,112,63075,1,8,0:0:0:0:
208,112,63375,2,0,L|296:112,1,60.0000022888184,8|0,0:0|0:0,0:0:0:0:
356,92,63675,2,0,L|428:92,1,60.0000022888184,8|0,0:2|0:0,0:0:0:0:
504,112,63975,1,0,0:0:0:0:
336,204,64275,6,0,L|208:204,1,120.000004577637,8|0,0:0|0:0,0:0:0:0:
396,276,64875,2,0,L|260:276,1,120.000004577637,8|0,0:2|0:0,0:0:0:0:
200,324,65325,1,8,0:0:0:0:
200,324,65475,1,8,0:0:0:0:
200,324,65775,2,0,L|128:324,1,60.0000022888184,8|0,0:0|0:0,0:0:0:0:
64,276,66075,2,0,L|-4:276,2,60.0000022888184,8|0|0,0:2|0:0|0:0,0:0:0:0:
194,65,66675,6,0,L|98:74,1,80,8|0,0:0|0:0,0:0:0:0:
273,56,67275,6,0,L|177:65,1,80,8|0,0:2|0:0,0:0:0:0:
432,40,67575,5,0,0:0:0:0:
273,56,67725,1,8,0:0:0:0:
432,40,68025,5,0,0:0:0:0:
273,56,68175,1,8,0:0:0:0:
432,40,68475,6,0,P|456:120|436:212,1,160,8|0,0:0|0:0,0:0:0:0:
444,194,69075,6,0,P|420:274|440:366,1,160,8|0,0:0|0:0,0:0:0:0:
431,348,69675,1,8,0:2:0:0:
353,329,69825,1,0,0:0:0:0:
277,357,69975,1,0,0:0:0:0:
204,320,70125,1,8,0:0:0:0:
204,320,70275,2,0,L|116:312,1,80,8|0,0:0|0:0,0:0:0:0:
24,236,70575,2,0,L|104:232,1,80,8|0,0:0|0:0,0:0:0:0:
212,216,70875,2,0,P|260:160|256:128,1,80,8|0,0:2|0:0,0:0:0:0:
180,68,71175,2,0,P|172:120|200:144,1,80,0|0,0:0|0:0,0:0:0:0:
336,160,71475,6,0,B|384:148|384:148|444:156|444:156|512:140,1,160,4|0,0:2|0:0,0:0:0:0:
180,68,72075,2,0,L|96:52,2,80,8|0|0,0:2|0:0|0:0,0:0:0:0:
80,132,72525,1,8,0:0:0:0:
80,132,72675,1,8,0:0:0:0:
212,184,72825,1,0,0:0:0:0:
148,284,72975,2,0,P|104:308|64:308,1,80,8|0,0:0|0:0,0:0:0:0:
20,204,73275,2,0,P|68:204|104:224,1,80,8|0,0:2|0:0,0:0:0:0:
228,292,73575,2,0,P|276:296|312:280,1,80
420,184,73875,6,0,B|452:168|504:96|504:96|512:160,1,160,4|0,0:2|0:0,0:0:0:0:
228,292,74475,1,8,0:2:0:0:
208,216,74625,1,0,0:0:0:0:
296,120,74775,1,0,0:0:0:0:
300,200,74925,1,8,0:0:0:0:
300,200,75075,2,0,L|304:296,1,80,0|0,0:0|0:0,0:0:0:0:
208,216,75375,2,0,L|204:120,1,80,8|0,0:0|0:0,0:0:0:0:
268,48,75675,2,0,P|200:92|128:32,1,160,8|0,0:2|0:0,0:0:0:0:
20,36,76125,5,8,0:0:0:0:
20,36,76275,2,0,L|24:120,1,80,0|0,0:0|0:0,0:0:0:0:
120,216,76575,2,0,L|117:129,1,80,8|0,0:0|0:0,0:0:0:0:
48,248,76875,2,0,P|96:292|188:256,1,160,8|0,0:2|0:0,0:0:0:0:
260,176,77325,1,8,0:0:0:0:
260,176,77475,2,0,L|272:88,1,80,0|0,0:0|0:0,0:0:0:0:
376,44,77775,2,0,L|384:144,1,80,8|0,0:0|0:0,0:0:0:0:
464,168,78075,2,0,L|456:264,1,80,8|0,0:2|0:0,0:0:0:0:
260,176,78375,2,0,L|280:264,1,80
380,320,78675,6,0,P|284:288|228:352,1,160,4|0,0:2|0:0,0:0:0:0:
243,317,79275,1,8,0:2:0:0:
216,244,79425,1,0,0:0:0:0:
260,176,79575,1,0,0:0:0:0:
244,96,79725,1,8,0:0:0:0:
244,96,79875,2,0,L|228:12,1,80,8|0,0:0|0:0,0:0:0:0:
116,44,80175,2,0,L|120:148,1,80,8|0,0:0|0:0,0:0:0:0:
124,240,80475,2,0,L|56:296,1,80,8|0,0:2|0:0,0:0:0:0:
216,244,80775,2,0,L|284:188,1,80,0|0,0:0|0:0,0:0:0:0:
380,128,81075,6,0,B|372:168|372:168|396:200|396:200|384:308,1,160,4|0,0:2|0:0,0:0:0:0:
387,278,81675,1,8,0:2:0:0:
504,296,81825,1,0,0:0:0:0:
396,352,81975,1,0,0:0:0:0:
284,312,82125,1,8,0:0:0:0:
284,312,82275,2,0,L|200:280,1,80,8|0,0:0|0:0,0:0:0:0:
280,188,82575,2,0,P|332:156|364:156,1,80,8|0,0:0|0:0,0:0:0:0:
480,184,82875,2,0,P|416:204|392:192,1,80,8|0,0:2|0:0,0:0:0:0:
320,80,83175,2,0,P|384:59|408:72,1,80,0|0,0:0|0:0,0:0:0:0:
280,188,83475,6,0,B|200:208|200:208|116:188,1,160,4|0,0:2|0:0,0:0:0:0:
124,190,84075,1,8,0:2:0:0:
80,124,84225,1,0,0:0:0:0:
124,190,84375,1,0,0:0:0:0:
192,52,84525,1,8,0:0:0:0:
192,52,84675,2,0,L|176:148,1,80,0|0,0:0|0:0,0:0:0:0:
138,268,84975,2,0,L|122:184,1,80,8|0,0:0|0:0,0:0:0:0:
214,259,85275,2,0,P|184:328|94:331,1,160,8|0,0:2|0:0,0:0:0:0:
20,248,85725,5,8,0:0:0:0:
124,190,85875,2,0,P|180:180|216:188,1,80,0|0,0:0|0:0,0:0:0:0:
269,309,86175,2,0,P|229:289|213:253,1,80,8|0,0:0|0:0,0:0:0:0:
320,200,86475,2,0,P|376:220|476:196,1,160,8|0,0:2|3:0,0:0:0:0:
471,198,86925,1,0,0:0:0:0:
488,80,87075,6,0,L|420:76,3,40,0|0|0|0,0:0|0:0|0:0|0:0,0:0:0:0:
404,56,87375,2,0,L|356:56,3,40,0|0|0|0,0:0|0:0|0:0|0:0,0:0:0:0:
320,76,87675,2,0,L|256:84,3,40,0|0|0|0,0:0|0:0|0:0|0:0,0:0:0:0:
232,68,87975,1,0,0:0:0:0:
200,64,88050,1,0,0:0:0:0:
168,72,88125,1,0,0:0:0:0:
136,76,88200,1,0,0:0:0:0:
104,72,88275,6,0,P|68:120|60:156,1,80,6|0,0:0|0:0,0:0:0:0:
140,228,88575,2,0,P|176:180|184:144,1,80,10|0,0:0|0:0,0:0:0:0:
64,236,88875,2,0,P|96:288|140:304,1,80,2|0,0:0|0:0,0:0:0:0:
220,344,89175,2,0,L|312:336,1,80,10|0,0:0|0:0,0:0:0:0:
432,284,89475,6,0,L|344:268,1,80,2|0,0:0|0:0,0:0:0:0:
236,244,89775,1,8,0:0:0:0:
181,161,89925,1,0,0:0:0:0:
296,188,90075,1,2,0:0:0:0:
280,92,90225,1,0,0:0:0:0:
380,176,90375,2,0,L|408:96,1,80,10|0,0:0|0:0,0:0:0:0:
468,204,90675,6,0,L|428:288,1,80,2|0,0:0|0:0,0:0:0:0:
300,324,90975,2,0,L|334:251,1,80,10|0,0:0|0:0,0:0:0:0:
492,200,91275,2,0,L|452:284,1,80,2|0,0:0|0:0,0:0:0:0:
272,332,91575,2,0,L|306:259,1,80,10|0,0:0|0:0,0:0:0:0:
384,168,91875,5,2,0:0:0:0:
380,72,92025,1,0,0:0:0:0:
272,140,92175,1,10,0:0:0:0:
252,48,92325,1,0,0:0:0:0:
396,180,92475,1,2,0:0:0:0:
391,65,92625,1,0,0:0:0:0:
262,146,92775,1,10,0:0:0:0:
238,36,92925,1,0,0:0:0:0:
408,192,93075,6,0,P|416:276|360:312,1,160,2|10,0:0|0:0,0:0:0:0:
244,348,93525,1,0,0:0:0:0:
140,260,93675,2,0,P|140:312|168:352,1,80,2|0,0:0|0:0,0:0:0:0:
184,196,93975,2,0,P|184:144|156:104,1,80,10|0,0:0|0:0,0:0:0:0:
40,60,94275,6,0,P|72:96|104:100,1,80,2|0,0:0|0:0,0:0:0:0:
238,36,94575,2,0,L|144:52,1,80,10|0,0:0|0:0,0:0:0:0:
264,108,94875,1,2,0:0:0:0:
348,156,95025,1,0,0:0:0:0:
488,72,95175,1,10,0:0:0:0:
392,72,95325,1,0,0:0:0:0:
312,232,95475,6,0,P|368:240|404:232,1,80,2|0,0:0|0:0,0:0:0:0:
252,184,95775,2,0,P|196:175|160:183,1,80,10|0,0:0|0:0,0:0:0:0:
52,236,96075,2,0,P|108:244|144:236,1,80,2|0,0:0|0:0,0:0:0:0:
96,96,96375,2,0,P|92:160|104:184,1,80,10|0,0:0|0:0,0:0:0:0:
196,272,96675,5,2,0:0:0:0:
312,236,96825,1,0,0:0:0:0:
192,292,96975,1,10,0:0:0:0:
308,256,97125,1,0,0:0:0:0:
188,312,97275,2,0,P|240:332|268:328,1,80,2|0,0:0|0:0,0:0:0:0:
420,316,97575,1,8,0:0:0:0:
436,288,97650,1,0,0:0:0:0:
440,256,97725,1,0,0:0:0:0:
436,224,97800,1,0,0:0:0:0:
416,196,97875,6,0,P|400:144|408:104,1,80,6|0,0:0|0:0,0:0:0:0:
496,32,98175,2,0,P|460:56|424:52,1,80,10|0,0:0|0:0,0:0:0:0:
304,44,98475,2,0,L|216:36,1,80,2|0,0:0|0:0,0:0:0:0:
120,112,98775,2,0,L|200:108,1,80,10|0,0:0|0:0,0:0:0:0:
100,40,99075,6,0,P|48:88|84:176,1,160,2|10,0:0|0:0,0:0:0:0:
164,184,99525,1,0,0:0:0:0:
220,108,99675,2,0,L|220:12,2,80,2|0|10,0:0|0:0|0:0,0:0:0:0:
304,152,100125,5,0,0:0:0:0:
276,236,100275,2,0,B|152:236,1,120.000004577637,4|0,0:0|0:0,0:0:0:0:
304,152,100725,5,0,0:0:0:0:
332,280,100875,2,0,B|456:280,1,120.000004577637,8|0,0:0|0:0,0:0:0:0:
304,152,101325,5,0,0:0:0:0:
276,324,101475,2,0,P|160:348|40:324,1,240.000009155274,2|0,0:0|0:0,0:0:0:0:
256,192,102675,12,2,104775,0:0:0:0:
256,192,105075,12,2,105975,0:0:0:0:
224,56,106275,6,0,L|228:104,3,40,0|0|0|0,0:0|0:0|0:0|0:0,0:0:0:0:
272,112,106575,2,0,L|268:160,3,40,0|0|0|0,0:0|0:0|0:0|0:0,0:0:0:0:
228,176,106875,2,0,L|232:224,3,40,0|0|0|0,0:0|0:0|0:0|0:0,0:0:0:0:
264,248,107175,2,0,L|260:296,3,40,0|0|0|0,0:0|0:0|0:0|0:0,0:0:0:0:
244,332,107475,5,0,0:0:0:0:
212,344,107550,1,0,0:0:0:0:
180,348,107625,1,0,0:0:0:0:
148,344,107700,1,0,0:0:0:0:
120,332,107775,2,0,P|96:288|96:268,3,40,0|0|0|0,0:0|0:0|0:0|0:0,0:0:0:0:
116,252,108075,2,0,P|128:208|120:168,1,80,0|0,0:0|0:0,0:0:0:0:
44,76,108375,2,0,P|40:132|68:160,1,80,0|0,0:0|0:0,0:0:0:0:
184,112,108675,5,6,0:0:0:0:
296,72,108825,1,0,0:0:0:0:
388,148,108975,2,0,P|452:168|480:160,1,80,10|0,0:0|0:0,0:0:0:0:
412,48,109275,1,2,0:0:0:0:
296,72,109425,1,0,0:0:0:0:
292,192,109575,2,0,P|300:244|296:280,1,80,10|0,0:0|0:0,0:0:0:0:
180,248,109875,6,0,P|172:300|176:336,1,80,6|0,0:0|0:0,0:0:0:0:
292,348,110175,2,0,L|372:340,1,80,10|0,0:0|0:0,0:0:0:0:
504,300,110475,2,0,L|404:284,1,80,6|0,0:0|0:0,0:0:0:0:
292,192,110775,2,0,P|340:220|376:212,1,80,10|0,0:0|0:0,0:0:0:0:
460,148,111075,5,2,0:0:0:0:
460,148,111225,1,0,0:0:0:0:
372,64,111375,2,0,L|276:52,1,80,10|0,0:0|0:0,0:0:0:0:
168,120,111675,2,0,L|256:116,2,80,2|0|10,0:0|0:0|0:0,0:0:0:0:
88,64,112125,1,0,0:0:0:0:
36,172,112275,5,6,0:0:0:0:
68,264,112425,1,0,0:0:0:0:
68,264,112500,2,0,P|104:292|188:288,1,120,0|0,0:0|0:0,0:0:0:0:
344,204,112875,2,0,P|264:188|196:220,1,160,6|10,0:0|0:0,0:0:0:0:
460,324,113475,5,2,0:0:0:0:
464,228,113625,1,0,0:0:0:0:
344,204,113775,2,0,L|328:104,1,80,10|0,0:0|0:0,0:0:0:0:
432,56,114075,1,2,0:0:0:0:
331,125,114225,1,0,0:0:0:0:
216,96,114375,2,0,P|152:100|120:88,1,80,10|0,0:0|0:0,0:0:0:0:
31,58,114675,6,0,P|87:58|143:106,1,120,6|0,0:0|0:0,0:0:0:0:
136,144,114975,2,0,L|136:236,1,80,10|0,0:0|0:0,0:0:0:0:
132,332,115275,2,0,P|232:328|252:304,1,120,6|0,0:0|0:0,0:0:0:0:
244,272,115575,2,0,L|244:180,1,80,10|0,0:0|0:0,0:0:0:0:
248,72,115875,6,0,P|312:52|336:56,1,80,2|0,0:0|0:0,0:0:0:0:
444,68,116175,1,10,0:0:0:0:
472,160,116325,1,0,0:0:0:0:
384,264,116475,2,0,P|372:216|380:176,1,80,2|0,0:0|0:0,0:0:0:0:
448,300,116775,2,0,P|416:332|368:332,1,80,10|0,0:0|0:0,0:0:0:0:
268,292,117075,5,6,0:0:0:0:
152,268,117225,1,0,0:0:0:0:
152,268,117300,1,0,0:0:0:0:
152,268,117375,2,0,L|56:264,1,80,14|0,0:0|0:0,0:0:0:0:
196,200,117675,2,0,P|244:208|272:108,1,160,6|10,0:0|0:0,0:0:0:0:
281,120,118125,1,0,0:0:0:0:
188,44,118275,6,0,L|104:40,1,80,6|0,0:0|0:0,0:0:0:0:
36,136,118575,2,0,L|120:124,1,80,10|0,0:0|0:0,0:0:0:0:
115,124,118875,1,2,0:0:0:0:
196,200,119025,1,0,0:0:0:0:
281,120,119175,2,0,P|320:100|364:104,1,80,10|0,0:0|0:0,0:0:0:0:
460,160,119475,6,0,P|484:244|468:272,1,120,6|0,0:0|0:0,0:0:0:0:
424,268,119775,2,0,P|368:252|340:264,1,80,10|0,0:0|0:0,0:0:0:0:
244,320,120075,2,0,P|172:336|156:324,1,80,6|0,0:0|0:0,0:0:0:0:
124,217,120375,2,0,P|196:200|212:212,1,80,10|0,0:0|0:0,0:0:0:0:
64,296,120675,5,2,0:0:0:0:
32,204,120825,1,0,0:0:0:0:
148,104,120975,2,0,L|168:12,1,80,10|0,0:0|0:0,0:0:0:0:
44,24,121275,1,2,0:0:0:0:
88,152,121425,1,0,0:0:0:0:
220,128,121575,2,0,L|240:36,1,80,10|0,0:0|0:0,0:0:0:0:
196,252,121875,6,0,P|220:312|256:328,1,80,6|0,0:0|0:0,0:0:0:0:
260,328,122100,1,0,0:0:0:0:
292,328,122175,2,0,L|376:320,1,80,14|0,0:0|0:0,0:0:0:0:
492,308,122475,2,0,P|448:268|484:176,1,160,6|10,0:0|0:0,0:0:0:0:
474,181,122925,1,0,0:0:0:0:
360,144,123075,5,2,0:0:0:0:
444,100,123225,1,0,0:0:0:0:
332,60,123375,2,0,B|288:48|288:48|228:48,1,80,10|0,0:0|0:0,0:0:0:0:
192,156,123675,1,2,0:0:0:0:
280,144,123825,1,0,0:0:0:0:
152,72,123975,2,0,L|64:60,1,80,10|0,0:0|0:0,0:0:0:0:
40,176,124275,5,6,0:0:0:0:
112,276,124425,1,0,0:0:0:0:
112,276,124500,1,0,0:0:0:0:
112,276,124575,2,0,B|196:296,1,80,10|0,0:0|0:0,0:0:0:0:
280,144,124875,2,0,B|201:150|201:150|157:174,2,120,6|0|0,0:0|0:0|0:0,0:0:0:0:
372,92,125475,5,2,0:0:0:0:
472,108,125625,1,0,0:0:0:0:
344,212,125775,1,2,0:0:0:0:
445,205,125925,1,0,0:0:0:0:
384,320,126075,2,0,B|428:308|428:308|472:324,2,80,2|0|8,0:0|0:0|0:0,0:0:0:0:
292,340,126525,1,0,0:0:0:0:
196,348,126675,6,0,L|168:296,3,40,0|0|0|0,0:0|0:0|0:0|0:0,0:0:0:0:
200,272,126975,2,0,L|208:220,3,40,0|0|0|0,0:0|0:0|0:0|0:0,0:0:0:0:
176,196,127275,2,0,L|172:140,3,40,0|0|0|0,0:0|0:0|0:0|0:0,0:0:0:0:
196,112,127575,1,0,0:0:0:0:
220,92,127650,1,0,0:0:0:0:
252,80,127725,1,0,0:0:0:0:
284,80,127800,1,0,0:0:0:0:
320,88,127875,5,12,0:0:0:0:
432,232,137475,6,0,P|380:264|268:224,1,160,4|0,0:2|0:0,0:0:0:0:
60,56,138075,1,8,0:0:0:0:
100,128,138225,1,0,0:0:0:0:
72,204,138375,1,0,0:0:0:0:
84,284,138525,1,8,0:0:0:0:
84,284,138675,1,8,0:0:0:0:
144,336,138825,2,0,B|240:328,1,80,0|8,0:0|0:0,0:0:0:0:
496,232,139275,2,0,L|332:212,1,160,8|0,0:2|0:0,0:0:0:0:
337,212,139875,6,0,L|495:192,1,160,4|0,0:2|0:0,0:0:0:0:
495,191,140475,1,8,0:0:0:0:
456,124,140625,2,0,L|360:120,1,80,0|0,0:0|0:0,0:0:0:0:
324,44,140925,1,8,0:0:0:0:
324,44,141075,2,0,L|232:52,1,80,8|0,0:0|0:0,0:0:0:0:
168,136,141375,2,0,L|252:128,1,80,8|0,0:0|0:0,0:0:0:0:
104,72,141675,2,0,P|64:92|36:144,1,80,8|0,0:0|0:0,0:0:0:0:
100,248,141975,2,0,L|96:144,1,80,0|0,0:0|0:0,0:0:0:0:
36,288,142275,6,0,P|76:320|171:273,1,160,4|0,0:2|0:0,0:0:0:0:
452,348,142875,1,8,0:0:0:0:
400,288,143025,1,0,0:0:0:0:
476,260,143175,1,8,0:0:0:0:
456,184,143325,1,0,0:0:0:0:
476,260,143475,1,0,0:0:0:0:
368,208,143625,2,0,L|332:116,1,80,0|8,0:0|0:0,0:0:0:0:
60,52,144075,2,0,P|84:116|184:112,1,160,8|0,0:0|0:0,0:0:0:0:
136,52,144525,5,0,0:0:0:0:
166,124,144675,1,8,0:0:0:0:
156,204,144825,2,0,L|168:288,1,80,0|0,0:0|0:0,0:0:0:0:
444,360,145275,2,0,P|456:296|496:224,1,140,8|0,0:0|0:0,0:0:0:0:
412,120,145725,5,0,0:0:0:0:
412,120,145875,2,0,L|412:212,1,80,0|0,0:0|0:0,0:0:0:0:
328,288,146175,2,0,L|320:236,3,40,0|0|0|0,0:0|0:0|0:0|0:0,0:0:0:0:
328,200,146475,2,0,L|328:144,3,40,0|0|0|0,0:0|0:0|0:0|0:0,0:0:0:0:
324,112,146775,1,0,0:0:0:0:
294,99,146850,1,0,0:0:0:0:
262,93,146925,1,0,0:0:0:0:
230,95,147000,1,0,0:0:0:0:
201,109,147075,6,0,P|132:136|117:133,1,80,6|0,0:0|0:0,0:0:0:0:
30,65,147375,2,0,P|84:60|120:72,1,80,10|0,0:0|0:0,0:0:0:0:
152,208,147675,2,0,L|136:300,1,80,2|0,0:0|0:0,0:0:0:0:
32,340,147975,2,0,L|24:232,1,80,10|0,0:0|0:0,0:0:0:0:
88,160,148275,6,0,L|108:64,2,80,2|0|10,0:0|0:0|0:0,0:0:0:0:
100,280,148725,1,0,0:0:0:0:
216,336,148875,1,2,0:0:0:0:
152,208,149025,1,0,0:0:0:0:
216,336,149175,1,10,0:0:0:0:
356,308,149325,1,0,0:0:0:0:
408,160,149475,6,0,L|424:64,1,80,2|0,0:0|0:0,0:0:0:0:
280,136,149775,2,0,L|268:48,1,80,10|0,0:0|0:0,0:0:0:0:
424,172,150075,2,0,L|440:76,1,80,2|0,0:0|0:0,0:0:0:0:
260,124,150375,2,0,L|248:36,1,80,10|0,0:0|0:0,0:0:0:0:
112,44,150675,5,2,0:0:0:0:
24,84,150825,1,0,0:0:0:0:
168,112,150975,1,10,0:0:0:0:
41,168,151125,1,0,0:0:0:0:
116,33,151275,5,2,0:0:0:0:
12,80,151425,1,0,0:0:0:0:
183,113,151575,1,10,0:0:0:0:
32,180,151725,1,0,0:0:0:0:
252,240,151875,6,0,P|220:268|176:272,1,80,2|0,0:0|0:0,0:0:0:0:
304,304,152175,2,0,L|400:316,1,80,10|0,0:0|0:0,0:0:0:0:
500,256,152475,2,0,P|452:232|420:188,1,80,2|0,0:0|0:0,0:0:0:0:
464,68,152775,2,0,P|476:128|464:172,1,80,10|0,0:0|0:0,0:0:0:0:
360,192,153075,6,0,L|332:88,1,80,2|0,0:0|0:0,0:0:0:0:
244,40,153375,2,0,P|228:104|208:120,1,80,10|0,0:0|0:0,0:0:0:0:
104,148,153675,1,2,0:0:0:0:
48,68,153825,1,0,0:0:0:0:
180,180,153975,2,0,P|160:236|136:260,1,80,10|0,0:0|0:0,0:0:0:0:
32,336,154275,6,0,L|60:236,1,80,2|0,0:0|0:0,0:0:0:0:
104,148,154575,2,0,L|132:48,1,80,10|0,0:0|0:0,0:0:0:0:
264,60,154875,2,0,L|285:137,1,80,2|0,0:0|0:0,0:0:0:0:
336,247,155175,2,0,L|357:324,1,80,10|0,0:0|0:0,0:0:0:0:
240,348,155475,5,2,0:0:0:0:
240,348,155625,1,0,0:0:0:0:
176,248,155775,2,0,P|192:192|228:176,1,80,10|0,0:0|0:0,0:0:0:0:
336,248,156075,2,0,L|232:236,1,80,2|0,0:0|0:0,0:0:0:0:
100,224,156375,1,8,0:0:0:0:
82,197,156450,1,0,3:3:0:0:
72,166,156525,1,0,3:3:0:0:
72,134,156600,1,0,0:0:0:0:
86,105,156675,6,0,L|147:50,1,80,6|0,0:0|0:0,0:0:0:0:
228,136,156975,2,0,L|328:108,1,80,10|0,0:0|0:0,0:0:0:0:
424,144,157275,1,2,0:0:0:0:
432,48,157425,1,0,0:0:0:0:
344,172,157575,2,0,P|328:216|348:264,1,80,10|0,0:0|0:0,0:0:0:0:
440,328,157875,6,0,P|432:276|384:264,1,80,6|0,0:0|0:0,0:0:0:0:
264,268,158175,2,0,L|184:304,1,80,10|0,0:0|0:0,0:0:0:0:
76,264,158475,2,0,P|40:220|44:168,2,80,2|0|10,0:0|0:0|0:0,0:0:0:0:
164,180,158925,5,0,0:0:0:0:
244,140,159075,2,0,L|228:20,1,120.000004577637,4|0,0:0|0:0,0:0:0:0:
164,180,159525,5,0,0:0:0:0:
268,264,159675,2,0,L|287:135,1,120.000004577637,8|0,0:0|0:0,0:0:0:0:
164,180,160125,5,0,0:0:0:0:
196,304,160275,2,0,P|244:340|340:224,1,240.000009155274,2|0,0:0|0:0,0:0:0:0:
256,192,161475,12,2,163575,0:0:0:0:
256,192,163875,12,2,164775,0:0:0:0:
48,192,165075,6,0,L|100:188,3,40,0|0|0|0,1:0|1:0|1:0|1:0,0:0:0:0:
136,192,165375,2,0,L|188:196,3,40,0|0|0|0,0:0|0:0|0:0|0:0,0:0:0:0:
224,192,165675,2,0,L|276:188,3,40,0|0|0|0,0:0|0:0|0:0|0:0,0:0:0:0:
312,192,165975,1,0,0:0:0:0:
342,200,166050,1,0,0:0:0:0:
373,193,166125,1,0,0:0:0:0:
404,191,166200,1,0,0:0:0:0:
434,201,166275,5,6,0:0:0:0:
378,289,166425,1,0,0:0:0:0:
378,289,166575,2,0,P|327:302|286:294,1,80,0|0,0:0|0:0,0:0:0:0:
184,266,166875,2,0,P|119:271|86:288,2,80,8|0|0,0:0|0:0|0:0,0:0:0:0:
241,160,167325,1,0,0:0:0:0:
241,160,167475,6,0,P|277:188|328:195,1,80,2|0,0:0|0:0,0:0:0:0:
404,120,167775,2,0,P|410:74|390:27,1,80,2|0,0:0|0:0,0:0:0:0:
284,8,168075,2,0,P|241:25|210:65,1,80,8|0,0:0|0:0,0:0:0:0:
160,156,168375,1,0,0:0:0:0:
92,56,168525,1,0,0:0:0:0:
72,48,168600,1,0,0:0:0:0:
52,40,168675,6,0,B|64:128,1,80,2|0,0:0|0:0,0:0:0:0:
176,160,168975,2,0,L|164:264,1,80,0|0,0:0|0:0,0:0:0:0:
88,328,169275,2,0,L|72:228,2,80,8|0|0,0:0|0:0|0:0,0:0:0:0:
208,328,169725,1,0,0:0:0:0:
208,328,169875,6,0,L|312:320,1,80,2|0,0:0|0:0,0:0:0:0:
248,208,170175,2,0,L|352:200,1,80,2|0,0:0|0:0,0:0:0:0:
300,84,170475,2,0,L|404:76,1,80,8|0,0:0|0:0,0:0:0:0:
500,60,170775,1,0,0:0:0:0:
488,180,170925,1,0,0:0:0:0:
488,180,171000,1,0,0:0:0:0:
488,180,171075,6,0,P|436:204|404:196,1,80,2|0,0:0|0:0,0:0:0:0:
304,156,171375,1,0,0:0:0:0:
228,132,171525,1,0,0:0:0:0:
124,196,171675,2,0,P|196:204|228:192,2,80,8|0|0,0:0|0:0|0:0,0:0:0:0:
44,104,172125,1,0,0:0:0:0:
44,104,172275,6,0,L|136:100,1,80,2|0,0:0|0:0,0:0:0:0:
232,28,172575,2,0,L|140:32,1,80,2|0,0:0|0:0,0:0:0:0:
288,84,172875,2,0,L|380:80,1,80,8|0,0:0|0:0,0:0:0:0:
480,32,173175,2,0,P|480:84|464:120,1,80,0|0,0:0|0:0,0:0:0:0:
360,164,173475,5,2,0:0:0:0:
328,236,173625,1,0,0:0:0:0:
440,308,173775,2,0,P|428:264|384:228,1,80,0|0,0:0|0:0,0:0:0:0:
264,280,174075,2,0,P|276:324|320:360,2,80,8|0|0,0:0|0:0|0:0,0:0:0:0:
156,228,174525,1,0,0:0:0:0:
156,228,174675,6,0,L|64:228,1,80,2|0,0:0|0:0,0:0:0:0:
208,176,174975,2,0,L|292:176,1,80,2|0,0:0|0:0,0:0:0:0:
136,152,175275,2,0,L|48:152,2,80,8|0|0,0:0|0:0|2:0,0:0:0:0:
252,116,175725,1,0,2:0:0:0:
271,111,175800,1,0,2:0:0:0:
290,106,175875,6,0,P|321:151|316:187,1,80,6|0,0:0|0:0,0:0:0:0:
241,265,176175,2,0,P|210:220|215:184,1,80,0|0,0:0|0:0,0:0:0:0:
319,247,176475,1,8,0:0:0:0:
447,291,176625,1,0,0:0:0:0:
355,321,176775,1,0,0:0:0:0:
429,207,176925,1,0,0:0:0:0:
429,207,177075,6,0,P|466:159|473:134,1,80,2|0,0:0|0:0,0:0:0:0:
293,129,177375,2,0,P|316:185|334:203,1,80,2|0,0:0|0:0,0:0:0:0:
425,47,177675,2,0,P|364:38|339:45,1,80,8|0,0:0|0:0,0:0:0:0:
230,76,177975,2,0,P|170:86|139:80,1,80,0|0,0:0|0:0,0:0:0:0:
38,41,178275,5,2,0:0:0:0:
27,120,178425,1,0,0:0:0:0:
108,208,178575,2,0,L|98:123,1,80,0|0,0:0|0:0,0:0:0:0:
36,232,178875,1,8,0:0:0:0:
36,232,178950,1,0,0:0:0:0:
36,232,179025,2,0,P|88:280|124:276,1,80,0|0,0:0|0:0,0:0:0:0:
212,292,179325,1,0,0:0:0:0:
212,292,179475,6,0,L|296:292,1,80,2|0,0:0|0:0,0:0:0:0:
264,176,179775,2,0,L|168:176,1,80,2|0,0:0|0:0,0:0:0:0:
156,60,180075,2,0,L|248:60,1,80,8|0,0:0|0:0,0:0:0:0:
348,108,180375,2,0,P|416:116|444:96,1,80,0|0,0:0|0:0,0:0:0:0:
452,96,180600,1,0,0:0:0:0:
472,72,180675,6,0,L|472:168,1,80,2|0,0:0|0:0,0:0:0:0:
408,272,180975,2,0,L|396:184,1,80,0|0,0:0|0:0,0:0:0:0:
488,272,181275,1,8,0:0:0:0:
404,356,181425,1,0,0:0:0:0:
284,352,181575,2,0,L|228:264,1,80,0|0,0:0|0:0,0:0:0:0:
264,168,181875,6,0,P|244:120|200:108,1,80,2|0,0:0|0:0,0:0:0:0:
136,24,182175,2,0,P|104:65|116:109,1,80,2|0,0:0|0:0,0:0:0:0:
72,204,182475,2,0,P|123:210|160:156,2,120,8|0|0,0:0|0:0|0:0,0:0:0:0:
24,316,183075,6,0,L|120:336,1,80,0|0,0:0|0:0,0:0:0:0:
232,264,183375,2,0,L|140:276,1,80,0|0,0:0|0:0,0:0:0:0:
240,344,183675,1,0,0:0:0:0:
352,312,183825,1,0,0:0:0:0:
428,224,183975,2,0,P|428:164|412:132,1,80,0|0,0:0|0:0,0:0:0:0:
316,88,184275,2,0,P|312:152|372:184,2,120,0|0|0,0:0|0:0|0:0,0:0:0:0:
460,52,184875,2,0,P|408:76|372:68,1,80,0|0,0:0|0:0,0:0:0:0:
260,40,185175,2,0,P|208:44|176:80,1,80,0|0,0:0|0:0,0:0:0:0:
84,136,185475,6,0,L|92:184,3,40,0|0|0|0,0:0|0:0|0:0|0:0,0:0:0:0:
98,206,185775,1,0,0:0:0:0:
107,236,185850,1,0,0:0:0:0:
105,267,185925,1,0,0:0:0:0:
114,297,186000,1,0,0:0:0:0:
112,328,186075,2,0,P|165:345|199:340,1,80,8|0,3:3|0:0,0:0:0:0:
218,331,186300,1,0,0:0:0:0:
248,322,186375,2,0,P|299:310|336:313,1,80,0|0,1:1|0:0,0:0:0:0:
444,320,186675,6,0,P|408:256|412:224,1,80,6|0,0:0|0:0,0:0:0:0:
488,164,186975,2,0,L|496:76,1,80,10|0,0:0|0:0,0:0:0:0:
328,36,187275,1,2,0:0:0:0:
364,124,187425,1,0,0:0:0:0:
328,36,187575,2,0,L|240:28,1,80,10|0,0:0|0:0,0:0:0:0:
128,44,187875,6,0,P|128:92|152:120,1,80,6|0,0:0|0:0,0:0:0:0:
220,212,188175,2,0,P|232:168|212:132,1,80,14|0,0:0|0:0,0:0:0:0:
112,196,188475,1,6,0:0:0:0:
68,308,188625,1,0,0:0:0:0:
68,308,188700,1,0,0:0:0:0:
68,308,188775,2,0,P|120:328|156:324,1,80,14|0,0:0|0:0,0:0:0:0:
264,324,189075,6,0,P|324:312|356:316,1,80,2|0,0:0|0:0,0:0:0:0:
484,336,189375,2,0,P|424:348|392:344,1,80,10|0,0:0|0:0,0:0:0:0:
352,240,189675,1,2,0:0:0:0:
472,220,189825,1,0,0:0:0:0:
352,240,189975,2,0,L|336:152,1,80,10|0,0:0|0:0,0:0:0:0:
468,56,190275,6,0,P|412:96|376:92,1,80,6|0,0:0|0:0,0:0:0:0:
372,92,190500,1,0,0:0:0:0:
340,84,190575,2,0,L|256:92,1,80,14|0,0:0|0:0,0:0:0:0:
156,32,190875,2,0,P|128:76|176:164,1,160,6|10,0:0|0:0,0:0:0:0:
173,162,191325,1,0,0:0:0:0:
288,192,191475,6,0,P|300:248|280:276,1,80,2|0,0:0|0:0,0:0:0:0:
184,320,191775,2,0,L|170:241,1,80,10|0,0:0|0:0,0:0:0:0:
52,264,192075,2,0,L|40:347,2,80,2|0|10,0:0|0:0|0:0,0:0:0:0:
68,168,192525,1,0,0:0:0:0:
44,52,192675,6,0,P|100:36|180:60,1,120,6|0,0:0|0:0,0:0:0:0:
204,64,192975,2,0,P|244:76|296:68,1,80,14|0,0:0|0:0,0:0:0:0:
396,40,193275,2,0,L|388:168,1,120,6|0,0:0|0:0,0:0:0:0:
392,208,193575,2,0,P|352:184|300:200,1,80,14|0,0:0|0:0,0:0:0:0:
216,244,193875,6,0,L|232:336,1,80,2|0,0:0|0:0,0:0:0:0:
348,340,194175,2,0,P|396:364|436:352,1,80,10|0,0:0|0:0,0:0:0:0:
496,268,194475,1,2,0:0:0:0:
392,208,194625,1,0,0:0:0:0:
276,176,194775,2,0,L|176:156,1,80,10|0,0:0|0:0,0:0:0:0:
52,184,195075,6,0,P|116:192|156:168,1,80,6|0,0:0|0:0,0:0:0:0:
236,92,195375,2,0,P|172:84|132:108,1,80,14|0,0:0|0:0,0:0:0:0:
276,176,195675,2,0,P|316:96|284:20,1,160,6|10,0:0|0:0,0:0:0:0:
236,92,196125,1,0,0:0:0:0:
388,124,196275,6,0,L|412:40,1,80,6|0,0:0|0:0,0:0:0:0:
472,152,196575,2,0,L|484:244,1,80,10|0,0:0|0:0,0:0:0:0:
364,248,196875,1,2,0:0:0:0:
456,324,197025,1,0,0:0:0:0:
364,248,197175,2,0,P|304:244|272:268,1,80,10|0,0:0|0:0,0:0:0:0:
192,324,197475,5,6,0:0:0:0:
308,356,197625,1,0,0:0:0:0:
308,356,197700,1,0,0:0:0:0:
308,356,197775,2,0,L|388:320,1,80,14|0,0:0|0:0,0:0:0:0:
192,324,198075,2,0,P|136:328|92:288,1,80,6|0,0:0|0:0,0:0:0:0:
52,216,198375,2,0,P|108:212|152:252,1,80,14|0,0:0|0:0,0:0:0:0:
244,248,198675,6,0,L|336:248,1,80,2|0,0:0|0:0,0:0:0:0:
424,180,198975,1,10,0:0:0:0:
328,164,199125,1,0,0:0:0:0:
236,88,199275,2,0,B|324:80|320:80,2,80,2|0|10,0:0|0:0|0:0,0:0:0:0:
144,116,199725,1,0,0:0:0:0:
32,156,199875,6,0,L|48:240,1,80,6|0,0:0|0:0,0:0:0:0:
80,244,200100,1,0,0:0:0:0:
112,252,200175,2,0,L|96:336,1,80,14|0,0:0|0:0,0:0:0:0:
196,260,200475,2,0,P|208:200|240:188,1,80,6|0,0:0|0:0,0:0:0:0:
336,160,200775,2,0,L|320:252,1,80,10|0,0:0|0:0,0:0:0:0:
360,352,201075,5,2,0:0:0:0:
408,268,201225,1,0,0:0:0:0:
496,316,201375,2,0,L|488:212,1,80,10|0,0:0|0:0,0:0:0:0:
428,96,201675,2,0,L|420:188,2,80,2|0|10,0:0|0:0|0:0,0:0:0:0:
500,32,202125,1,0,0:0:0:0:
380,36,202275,6,0,P|320:48|272:28,1,80,6|0,0:0|0:0,0:0:0:0:
184,44,202575,2,0,P|132:56|100:100,1,80,14|0,0:0|0:0,0:0:0:0:
132,192,202875,2,0,P|172:152|176:124,1,80,6|0,0:0|0:0,0:0:0:0:
236,236,203175,2,0,L|236:352,1,80,14|0,0:0|0:0,0:0:0:0:
120,348,203475,5,2,0:0:0:0:
76,264,203625,1,0,0:0:0:0:
152,172,203775,2,0,L|176:72,1,80,10|0,0:0|0:0,0:0:0:0:
288,60,204075,1,2,0:0:0:0:
376,144,204225,1,0,0:0:0:0:
280,216,204375,2,0,P|264:176|272:128,1,80,10|0,0:0|0:0,0:0:0:0:
384,224,204675,6,4,P|380:276|308:320,2,120,0|0|0,0:0|0:0|0:0,0:0:0:0:
368,104,205275,2,0,L|304:92,3,40,0|0|0|0,1:1|1:1|1:1|1:1,0:0:0:0:
284,112,205575,2,0,L|232:116,3,40,0|0|0|0,1:1|1:1|1:1|1:1,0:0:0:0:
196,108,205875,6,0,P|132:100|88:124,1,103.999995239258,6|0,0:0|3:0,0:0:0:0:
72,268,206175,2,0,P|136:276|180:252,1,103.999995239258,2|0,0:0|3:0,0:0:0:0:
208,96,206475,2,0,P|144:88|100:112,1,103.999995239258,2|0,0:0|3:0,0:0:0:0:
64,288,206775,2,0,P|128:296|172:272,1,103.999995239258,2|0,0:0|3:0,0:0:0:0:
293,195,207075,5,2,0:0:0:0:
293,195,207225,1,0,3:0:0:0:
369,59,207375,2,0,L|502:54,1,103.999995239258,2|0,0:0|3:0,0:0:0:0:
293,195,207675,1,2,0:0:0:0:
293,195,207825,1,0,3:0:0:0:
177,89,207975,2,0,L|43:84,1,103.999995239258,2|0,0:0|3:0,0:0:0:0:
41,238,208275,6,0,L|154:222,1,103.999995239258,2|0,0:0|3:0,0:0:0:0:
279,302,208575,2,0,L|152:293,1,103.999995239258,2|0,0:0|3:0,0:0:0:0:
32,224,208875,2,0,L|145:208,1,103.999995239258,2|0,0:0|3:0,0:0:0:0:
288,320,209175,2,0,L|161:311,1,103.999995239258,2|0,0:0|3:0,0:0:0:0:
352,272,209475,5,2,0:0:0:0:
441,184,209625,1,0,3:0:0:0:
352,272,209775,2,0,P|407:289|441:240,1,103.999995239258,2|0,0:0|3:0,0:0:0:0:
357,163,210075,2,0,P|299:134|256:164,1,103.999995239258,2|0,0:0|3:0,0:0:0:0:
128,192,210375,2,0,P|186:221|229:191,1,103.999995239258,2|0,0:0|3:0,0:0:0:0:
224,48,210675,6,0,L|96:48,1,103.999995239258,2|0,0:0|3:0,0:0:0:0:
288,80,210975,2,0,L|400:80,1,103.999995239258,2|0,0:0|3:0,0:0:0:0:
208,32,211275,2,0,L|96:32,1,103.999995239258,2|0,0:0|3:0,0:0:0:0:
304,96,211575,2,0,L|416:96,1,103.999995239258,2|0,0:0|3:0,0:0:0:0:
216,136,211875,5,2,0:0:0:0:
216,136,212025,1,0,3:0:0:0:
60,149,212175,2,0,P|48:213|61:253,1,103.999995239258,2|0,0:0|3:0,0:0:0:0:
203,307,212475,2,0,P|215:243|202:203,1,103.999995239258,2|0,0:0|3:0,0:0:0:0:
142,351,212775,2,0,P|206:380|267:351,1,103.999995239258,2|0,0:0|3:0,0:0:0:0:
392,336,213075,6,0,B|471:235|470:236,1,103.999995239258,2|0,0:0|3:0,0:0:0:0:
332,238,213375,2,0,B|371:116|371:117,1,103.999995239258,2|0,0:0|3:0,0:0:0:0:
243,169,213675,2,0,B|238:40|238:42,1,103.999995239258,2|0,0:0|3:0,0:0:0:0:
139,140,213975,2,0,B|91:21|91:22,1,103.999995239258,2|0,0:0|3:0,0:0:0:0:
48,192,214275,5,2,0:0:0:0:
72,312,214425,1,0,3:0:0:0:
224,266,214575,2,0,P|248:202|240:162,1,103.999995239258,2|0,0:0|3:0,0:0:0:0:
336,42,214875,2,0,P|312:106|320:146,1,103.999995239258,2|0,0:0|3:0,0:0:0:0:
464,200,215175,2,0,P|472:248|456:304,1,103.999995239258,2|0,0:0|3:0,0:0:0:0:
344,344,215475,5,6,0:0:0:0:
312,256,215625,1,0,0:0:0:0:
344,344,215775,2,0,P|271:353|241:337,1,80,10|0,0:0|0:0,0:0:0:0:
148,330,216075,2,0,L|42:338,2,80,10|0|10,0:0|0:0|0:0,0:0:0:0:
218,265,216525,1,0,0:0:0:0:
131,223,216675,6,0,P|95:176|117:115,1,120,2|0,0:0|0:0,0:0:0:0:
156,108,216975,2,0,L|240:97,1,80,10|0,0:0|0:0,0:0:0:0:
353,121,217275,2,0,P|421:133|461:97,2,120,2|0|0,0:0|0:0|0:0,0:0:0:0:
246,175,217875,6,0,P|218:242|226:273,1,80,2|0,0:0|0:0,0:0:0:0:
332,312,218175,2,0,P|302:245|273:230,1,80,10|0,0:0|0:0,0:0:0:0:
153,297,218475,1,10,0:0:0:0:
58,223,218625,1,0,0:0:0:0:
80,105,218775,2,0,P|118:90|170:107,1,80,10|0,0:0|0:0,0:0:0:0:
246,175,219075,6,0,P|322:183|346:171,1,80,2|0,0:0|0:0,0:0:0:0:
354,175,219300,1,0,0:0:0:0:
382,159,219375,2,0,L|354:259,1,80,10|0,0:0|0:0,0:0:0:0:
456,160,219675,2,0,P|431:100|340:96,1,160,2|10,0:0|0:0,0:0:0:0:
344,92,220125,1,0,0:0:0:0:
246,175,220275,6,0,L|156:172,1,80,2|0,0:0|0:0,0:0:0:0:
76,88,220575,2,0,L|168:68,1,80,10|0,0:0|0:0,0:0:0:0:
0,108,220875,1,10,0:0:0:0:
16,228,221025,1,0,0:0:0:0:
128,276,221175,2,0,P|200:288|236:280,1,80,10|0,0:0|0:0,0:0:0:0:
372,220,221475,6,0,P|432:204|492:220,2,120,2|0|0,0:0|0:0|0:0,0:0:0:0:
300,120,222075,2,0,P|240:136|180:120,2,120,2|0|0,0:0|0:0|0:0,0:0:0:0:
256,192,222675,12,4,225075,0:3:0:0:
