osu file format v14

[General]
AudioFilename: Iro wa Jou e to Sasou.mp3
AudioLeadIn: 0
PreviewTime: 108675
Countdown: 0
SampleSet: Soft
StackLeniency: 0.7
Mode: 0
LetterboxInBreaks: 0
EpilepsyWarning: 1
WidescreenStoryboard: 1

[Editor]
DistanceSpacing: 0.8
BeatDivisor: 2
GridSize: 4
TimelineZoom: 1.5

[Metadata]
Title:Iro wa Jou e to Izanau
TitleUnicode:色は情へと誘う
Artist:senya
ArtistUnicode:senya
Creator:Momizi
Version:Easy
Source:東方Project
Tags:Greenwich in the sky The Whole World Sanzen Sekai Yuuhei Satellite deitarabotchi Kamase Tora Mayumi Morinaga Touhou 幽閉サテライト c84 大空魔術 ~ Magical Astronomy 天空のグリニッジ Spring Roll FreeSongs Mikagura Seisa マエリベリー·ハーン Maribel Hearn 宇佐見 蓮子 うさみ れんこ Usami Renko
BeatmapID:862437
BeatmapSetID:226670

[Difficulty]
HPDrainRate:3
CircleSize:3
OverallDifficulty:3
ApproachRate:4
SliderMultiplier:0.8
SliderTickRate:1

[Events]
//Background and Video events
0,0,"BG.jpg",0,0
//Break Periods
2,50075,58155
2,127475,136155
2,206075,214155
//Storyboard Layer 0 (Background)
//Storyboard Layer 1 (Fail)
//Storyboard Layer 2 (Pass)
//Storyboard Layer 3 (Foreground)
Sprite,Foreground,Centre,"NEW SB/title/beatmapMomizi1.png",320,240 V,0,36675,,0.5,0.5 F,0,36675,36825,0,1 M,1,36675,37075,230,335,170,370 M,0,37075,39075,170,370 V,0,38925,39075,0.5,0.5,0.5,0
Sprite,Foreground,Centre,"NEW SB/title/beatmapMomizi2.png",320,240 V,0,36675,,0.5,0.5 F,0,36675,36825,0,1 M,1,36675,37075,110,405,170,370 M,0,37075,39075,170,370 V,0,38925,39075,0.5,0.5,0.5,0
//Storyboard Sound Samples

[TimingPoints]
675,300,4,1,0,100,1,0
10275,-100,4,2,2,60,0,0
28275,-100,4,1,1,60,0,0
28875,-100,4,1,1,75,0,0
29475,-100,4,2,1,70,0,0
39075,-100,4,2,1,60,0,1
48675,-100,4,1,1,60,0,1
49875,-100,4,3,1,60,0,0
87075,-100,4,1,1,40,0,0
87375,-100,4,1,1,55,0,0
87675,-100,4,1,1,70,0,0
87975,-100,4,1,1,85,0,0
88275,-100,4,2,1,60,0,0
97425,-100,4,2,1,70,0,0
100275,-100,4,2,4,40,0,0
100350,-100,4,2,1,5,0,0
100875,-100,4,2,4,45,0,0
100950,-100,4,2,1,5,0,0
101475,-100,4,2,4,50,0,0
101550,-100,4,2,1,5,0,0
102675,-100,4,2,1,80,0,0
106275,-100,4,2,1,60,0,0
107475,-100,4,1,1,60,0,0
108675,-100,4,2,1,75,0,1
126675,-100,4,1,1,50,0,1
127275,-100,4,1,1,70,0,1
127875,-100,4,3,1,60,0,0
135975,-100,4,2,1,60,0,0
137475,-100,4,3,1,60,0,0
145875,-100,4,1,1,40,0,0
146475,-100,4,1,1,50,0,0
146775,-100,4,1,1,70,0,0
147075,-100,4,2,1,60,0,0
159075,-100,4,2,4,40,0,0
159150,-100,4,2,1,5,0,0
159675,-100,4,2,4,45,0,0
159750,-100,4,2,1,5,0,0
160275,-100,4,2,4,50,0,0
160350,-100,4,2,4,5,0,0
161475,-100,4,2,1,80,0,0
165075,-100,4,2,1,40,0,0
165375,-100,4,1,1,60,0,0
165675,-100,4,1,1,70,0,0
165975,-100,4,1,1,80,0,0
166275,-100,4,2,2,60,0,0
174675,-100,4,2,2,70,0,0
175875,-100,4,2,2,60,0,0
183075,-100,4,2,1,70,0,0
184875,-100,4,2,1,45,0,0
185475,-100,4,2,1,60,0,0
186675,-100,4,2,1,75,0,1
205875,-100,4,2,1,60,0,0
215475,-100,4,2,1,55,0,0
223875,-100,4,1,1,50,0,0
224175,-100,4,1,1,60,0,0
224475,-100,4,1,1,70,0,0

[Colours]
Combo1 : 250,250,20
Combo2 : 206,72,251
Combo3 : 34,202,251

[HitObjects]
20,192,10275,6,0,P|100:228|176:192,1,160,0|0,0:0|0:0,0:0:0:0:
264,124,11475,2,0,P|332:88|404:128,1,160,4|0,0:3|0:0,0:0:0:0:
484,220,12675,2,0,P|416:256|344:216,1,160,0|0,0:0|0:0,0:0:0:0:
264,124,13875,2,0,L|88:100,1,160,0|0,0:0|0:0,0:0:0:0:
12,192,15075,6,0,L|172:192,1,160,0|0,0:0|0:0,0:0:0:0:
288,248,16275,2,0,L|376:248,2,80,0|0|0,0:0|0:0|0:0,0:0:0:0:
172,304,17475,2,0,B|100:344|100:344|32:304,1,160,0|0,0:0|0:0,0:0:0:0:
12,180,18675,2,0,L|12:100,2,80,0|0|0,0:0|0:0|0:0,0:0:0:0:
132,228,19875,5,6,0:0:0:0:
260,220,20475,1,8,0:0:0:0:
388,240,21075,2,0,L|388:324,2,80,2|2|8,0:0|0:0|0:0,0:0:0:0:
480,152,22275,2,0,P|480:60|428:56,1,160,2|8,0:0|0:0,0:0:0:0:
304,76,23475,2,0,P|260:84|224:72,2,80,2|2|4,0:0|0:0|0:0,0:0:0:0:
431,54,24675,5,2,0:0:0:0:
388,172,25275,1,8,0:0:0:0:
380,300,25875,2,0,B|428:328|464:312,2,80,2|2|10,0:0|0:0|0:0,0:0:0:0:
256,272,27075,2,0,P|176:252|92:276,1,160,2|8,0:0|0:0,0:0:0:0:
4,352,28275,2,0,P|16:272|0:184,1,160,0|0,0:0|0:0,0:0:0:0:
24,56,29475,6,0,B|108:32|108:32|196:56,1,160,2|2,0:0|0:0,0:0:0:0:
288,116,30675,2,0,B|372:140|372:140|460:116,1,160,2|2,0:0|0:0,0:0:0:0:
340,44,31875,2,0,P|260:36|200:120,1,160,2|2,0:0|0:0,0:0:0:0:
200,216,33075,2,0,B|152:292|152:292|52:292,1,160,2|2,0:0|0:0,0:0:0:0:
48,168,34275,5,2,0:0:0:0:
168,124,34875,1,2,0:0:0:0:
292,164,35475,2,0,P|380:156|444:208,1,160,2|2,0:0|0:0,0:0:0:0:
476,316,36675,1,2,0:0:0:0:
352,352,37275,1,2,0:0:0:0:
224,356,37875,2,0,B|132:332|132:332|36:360,1,160,2|2,0:0|0:0,0:0:0:0:
76,224,39075,6,0,P|88:176|20:76,1,160,6|2,0:0|0:0,0:0:0:0:
164,60,40275,2,8,L|256:48,2,80,14|10|14,0:0|0:0|0:0,0:0:0:0:
36,96,41475,2,0,P|84:158|76:236,1,160,2|2,0:0|0:0,0:0:0:0:
40,360,42675,2,0,B|136:376|136:376|204:332,1,160,6|6,0:0|0:0,0:0:0:0:
168,216,43875,6,0,P|160:152|224:76,1,160,2|2,0:0|0:0,0:0:0:0:
340,56,45075,2,8,L|428:56,2,80,14|10|14,0:0|0:0|0:0,0:0:0:0:
244,140,46275,2,0,B|220:224|220:224|248:304,1,160,2|2,0:0|0:0,0:0:0:0:
360,344,47475,2,8,L|460:348,2,80,14|14|10,0:0|0:0|0:0,0:0:0:0:
243,292,48675,6,0,L|155:292,2,80,0|0|0,0:0|0:0|0:0,0:0:0:0:
364,252,49875,1,4,0:0:0:0:
360,340,59475,6,0,L|196:340,1,160,12|8,0:0|0:2,0:0:0:0:
80,292,60675,2,0,L|0:292,2,80,8|8|8,0:0|0:0|0:2,0:0:0:0:
208,308,61875,2,0,L|372:308,1,160,8|8,0:0|0:2,0:0:0:0:
432,196,63075,2,0,L|512:196,2,80,8|8|8,0:0|0:0|0:2,0:0:0:0:
304,216,64275,6,0,P|240:232|168:152,1,160,8|8,0:0|0:2,0:0:0:0:
100,68,65475,2,0,P|52:44|12:56,2,80,8|8|8,0:0|0:0|0:2,0:0:0:0:
212,128,66675,2,0,P|264:136|308:112,2,80,8|0|8,0:0|0:0|0:2,0:0:0:0:
92,176,67875,2,0,P|28:176|-4:192,2,80,8|8|8,0:0|0:0|0:2,0:0:0:0:
212,216,69075,6,0,L|304:212,1,80,4|0,0:2|0:0,0:0:0:0:
356,208,69675,1,8,0:2:0:0:
480,244,70275,2,0,L|484:144,2,80,8|8|8,0:0|0:0|0:2,0:0:0:0:
388,332,71475,6,0,L|288:332,1,80,4|0,0:2|0:0,0:0:0:0:
244,332,72075,1,8,0:2:0:0:
120,308,72675,2,0,L|32:324,2,80,8|8|8,0:0|0:0|0:2,0:0:0:0:
228,236,73875,6,0,L|328:224,1,80,4|0,0:2|0:0,0:0:0:0:
352,180,74475,1,8,0:2:0:0:
404,64,75075,2,0,L|512:32,2,80,0|8|8,0:0|0:0|0:2,0:0:0:0:
284,112,76275,2,0,P|208:136|128:100,1,160,0|8,0:0|0:2,0:0:0:0:
212,4,77475,2,0,P|268:-4|316:12,2,80,0|8|8,0:0|0:0|0:2,0:0:0:0:
140,115,78675,6,0,L|140:211,1,80,4|0,0:2|0:0,0:0:0:0:
108,252,79275,1,8,0:2:0:0:
36,148,79875,2,0,L|36:64,2,80,8|8|8,0:0|0:0|0:2,0:0:0:0:
108,252,81075,6,0,P|156:268|200:260,1,80,4|0,0:2|0:0,0:0:0:0:
240,232,81675,1,8,0:2:0:0:
344,156,82275,2,0,P|392:144|444:156,2,80,8|8|8,0:0|0:0|0:2,0:0:0:0:
240,232,83475,6,0,L|240:316,1,80,4|0,0:2|0:0,0:0:0:0:
296,348,84075,1,8,0:2:0:0:
340,228,84675,2,0,L|340:128,2,80,0|8|8,0:0|0:0|0:2,0:0:0:0:
440,312,85875,6,0,B|484:248|484:248|476:160,1,160,0|8,0:0|0:2,0:0:0:0:
424,84,86925,2,0,P|364:104|288:68,1,120,0|0,0:0|0:0,0:0:0:0:
256,60,87675,2,0,P|188:52|160:68,1,80,0|0,0:0|0:0,0:0:0:0:
124,84,88275,6,0,B|96:164|96:164|120:240,1,160,2|2,0:0|0:0,0:0:0:0:
204,332,89475,1,2,0:0:0:0:
296,244,90075,1,2,0:0:0:0:
292,116,90675,2,0,P|372:96|472:128,1,160,2|2,0:0|0:0,0:0:0:0:
452,240,91875,2,0,L|452:328,2,80,2|10|2,0:0|0:0|0:0,0:0:0:0:
448,112,93075,6,0,B|376:148|376:148|288:136,1,160,2|2,0:0|0:0,0:0:0:0:
172,116,94275,2,0,B|88:132|88:132|40:208,1,160,2|2,0:0|0:0,0:0:0:0:
68,320,95475,2,0,P|144:344|164:216,1,240,2|10,0:0|0:0,0:0:0:0:
116,188,96675,2,0,L|304:156,1,160,2|2,0:0|0:0,0:0:0:0:
372,80,97875,6,0,L|196:60,1,160,6|2,0:0|0:0,0:0:0:0:
84,76,99075,1,2,0:0:0:0:
56,200,99675,1,2,0:0:0:0:
184,192,100275,2,0,B|232:176|232:176|280:200|280:200|344:180,2,160,4|8|2,0:0|0:0|0:0,0:0:0:0:
56,200,102075,1,0,0:0:0:0:
256,192,102675,12,0,106275,0:0:0:0:
28,316,108675,6,0,B|100:352|100:352|188:344,1,160,6|2,0:0|0:0,0:0:0:0:
288,276,109875,2,8,B|328:268|328:268|372:276,2,80,14|10|14,0:0|0:0|0:0,0:0:0:0:
160,264,111075,2,0,P|128:184|200:152,1,160,2|2,0:0|0:0,0:0:0:0:
304,136,112275,2,8,L|304:56,2,80,14|14|14,0:0|0:0|0:0,0:0:0:0:
320,264,113475,6,0,B|364:336|364:336|460:336,1,160,2|2,0:0|0:0,0:0:0:0:
492,220,114675,2,0,P|492:132|436:60,1,160,6|6,0:0|0:0,0:0:0:0:
324,72,115875,2,0,L|144:80,1,160,2|2,0:0|0:0,0:0:0:0:
36,88,117075,2,8,L|8:8,2,80,14|14|14,0:0|0:0|0:0,0:0:0:0:
84,208,118275,6,0,P|164:240|240:204,1,160,6|2,0:0|0:0,0:0:0:0:
296,104,119475,2,8,P|360:96|392:108,2,80,14|10|14,0:0|0:0|0:0,0:0:0:0:
229,214,120675,2,0,L|264:384,1,160,2|2,0:0|0:0,0:0:0:0:
364,296,121875,2,8,L|392:208,2,80,14|14|14,0:0|0:0|0:0,0:0:0:0:
261,370,123075,6,0,B|180:376|180:376|88:352,1,160,2|2,0:0|0:0,0:0:0:0:
76,232,124275,2,8,P|64:176|20:152,2,80,14|10|14,0:0|0:0|0:0,0:0:0:0:
24,348,125475,2,0,P|68:288|188:332,1,160,2|2,0:0|0:0,0:0:0:0:
268,332,126675,2,0,P|368:348|424:300,1,160,0|0,0:0|0:0,0:0:0:0:
256,80,137475,6,0,L|256:172,1,80,4|0,0:2|0:0,0:0:0:0:
256,224,138075,1,8,0:2:0:0:
256,352,138675,2,0,P|296:364|340:348,2,80,0|0|8,0:0|0:0|0:0,0:0:0:0:
136,308,139875,6,0,L|136:196|136:200,1,80,4|0,0:2|0:0,0:0:0:0:
136,164,140475,1,8,0:2:0:0:
136,36,141075,2,0,P|96:24|56:36,2,80,8|0|8,0:0|0:0|0:0,0:0:0:0:
236,116,142275,6,0,P|272:128|344:104,1,80,4|0,0:2|0:0,0:0:0:0:
376,104,142875,1,8,0:2:0:0:
500,140,143475,2,0,L|500:224,2,80,0|8|8,0:0|0:0|0:0,0:0:0:0:
376,104,144675,5,8,0:0:0:0:
304,208,145275,1,8,0:2:0:0:
225,262,145725,2,0,P|156:288|90:277,1,120
56,248,146475,2,0,B|24:156,1,80
28,108,147075,6,0,B|104:88|104:88|188:104,1,160,6|2,0:0|0:0,0:0:0:0:
292,172,148275,1,2,0:0:0:0:
416,140,148875,1,2,0:0:0:0:
296,92,149475,2,0,P|220:128|220:208,1,160,2|2,0:0|0:0,0:0:0:0:
196,324,150675,2,0,P|152:328|96:308,2,80,2|10|2,0:0|0:0|0:0,0:0:0:0:
324,304,151875,6,0,B|400:280|400:280|464:212,1,160,2|2,0:0|0:0,0:0:0:0:
328,208,153075,2,0,L|136:232,1,160,2|2,0:0|0:0,0:0:0:0:
40,244,154275,2,0,P|8:160|148:116,1,240,2|10,0:0|0:0,0:0:0:0:
184,104,155475,2,0,L|416:79,1,160,2|2,0:0|0:0,0:0:0:0:
472,76,156675,6,0,B|492:156|492:156|476:232,1,160,6|2,0:0|0:0,0:0:0:0:
356,276,157875,1,2,0:0:0:0:
228,248,158475,1,2,0:0:0:0:
108,292,159075,2,0,B|40:244|40:244|24:160,2,160,4|8|2,0:0|0:0|0:0,0:0:0:0:
228,248,160875,1,0,0:0:0:0:
256,192,161475,12,0,165075,1:0:0:0:
480,56,166275,6,0,B|404:36|404:36|312:56,1,160,6|8,0:0|0:0,0:0:0:0:
200,84,167475,2,0,L|200:252,1,160,2|8,0:0|0:0,0:0:0:0:
188,372,168675,2,0,B|100:372|100:372|48:308,1,160,2|8,0:0|0:0,0:0:0:0:
48,188,169875,2,0,L|48:96,2,80,2|2|8,0:0|0:0|0:0,0:0:0:0:
54,316,171075,6,0,P|106:312|138:208,1,160,2|8,0:0|0:0,0:0:0:0:
100,100,172275,2,0,L|32:48,2,80,2|2|8,0:0|0:0|0:0,0:0:0:0:
216,156,173475,2,0,P|300:172|384:108,1,160,2|8,0:0|0:0,0:0:0:0:
268,52,174675,2,0,P|204:40|160:56,2,80,2|2|8,0:0|0:0|0:0,0:0:0:0:
362,138,175875,6,0,B|386:218|386:218|370:306,1,160,6|8,0:0|0:0,0:0:0:0:
244,280,177075,2,0,B|232:316|232:316|240:364,2,80,2|2|8,0:0|0:0|0:0,0:0:0:0:
372,293,178275,2,0,P|460:289|452:185,1,160,2|8,0:0|0:0,0:0:0:0:
412,124,179475,2,0,P|424:96|472:76,2,80,2|2|8,0:0|0:0|0:0,0:0:0:0:
376,248,180675,6,0,B|296:268|296:268|200:244,1,160,2|8,0:0|0:0,0:0:0:0:
96,228,181875,2,0,L|96:312,2,80,2|2|8,0:0|0:0|0:0,0:0:0:0:
100,100,183075,6,0,P|184:64|256:104,1,160,0|0,0:0|0:0,0:0:0:0:
316,196,184275,2,0,P|384:216|464:172,1,160,0|0,0:0|0:0,0:0:0:0:
500,56,185475,1,0,0:0:0:0:
372,48,186075,1,8,3:3:0:0:
248,80,186675,6,0,B|160:72|160:72|88:96,1,160,6|2,0:0|0:0,0:0:0:0:
52,216,187875,2,8,L|40:304,2,80,14|10|14,0:0|0:0|0:0,0:0:0:0:
180,228,189075,2,0,B|272:240|272:240|356:208,1,160,2|2,0:0|0:0,0:0:0:0:
440,144,190275,2,8,L|440:64,2,80,14|10|14,0:0|0:0|0:0,0:0:0:0:
428,272,191475,6,0,P|388:332|292:340,1,160,2|2,0:0|0:0,0:0:0:0:
200,272,192675,2,0,P|120:240|44:288,1,160,6|6,0:0|0:0,0:0:0:0:
160,344,193875,2,0,P|272:320|276:236,1,160,2|2,0:0|0:0,0:0:0:0:
308,164,195075,2,8,P|348:124|388:124,2,80,14|14|14,0:0|0:0|0:0,0:0:0:0:
284,289,196275,6,0,L|116:253,1,160,6|2,0:0|0:0,0:0:0:0:
8,204,197475,1,6,0:0:0:0:
128,156,198075,1,6,0:0:0:0:
244,104,198675,2,0,B|320:88|320:88|404:104,1,160,2|2,0:0|0:0,0:0:0:0:
476,208,199875,2,8,L|476:296,2,80,14|14|14,0:0|0:0|0:0,0:0:0:0:
348,224,201075,6,0,B|264:240|264:240|176:232,1,160,2|2,0:0|0:0,0:0:0:0:
64,200,202275,1,6,0:0:0:0:
108,320,202875,1,6,0:0:0:0:
232,348,203475,2,0,P|320:344|376:296,1,160,2|2,0:0|0:0,0:0:0:0:
424,184,204675,1,0,0:0:0:0:
296,184,205275,1,0,1:1:0:0:
360,72,205875,5,6,0:0:0:0:
32,48,215475,6,0,L|220:48,1,160,6|10,0:0|0:0,0:0:0:0:
320,68,216675,2,0,L|412:68,2,80,2|10|2,0:0|0:0|0:0,0:0:0:0:
192,72,217875,2,0,P|116:132|140:204,1,160,2|10,0:0|0:0,0:0:0:0:
216,276,219075,2,0,L|216:364,2,80,2|10|2,0:0|0:0|0:0,0:0:0:0:
236,148,220275,6,0,B|320:120|320:120|404:148,1,160,2|10,0:0|0:0,0:0:0:0:
388,272,221475,2,0,L|388:360,2,80,2|10|2,0:0|0:0|0:0,0:0:0:0:
256,192,222675,12,4,225075,0:3:0:0:
