osu file format v10

[General]
AudioFilename: Into the ultramarine of Kafka.mp3
AudioLeadIn: 0
PreviewTime: 230651
Countdown: 0
SampleSet: Soft
StackLeniency: 0.7
Mode: 0
LetterboxInBreaks: 0

[Editor]
Bookmarks: 109020,122716,206412,230542
DistanceSpacing: 1.2
BeatDivisor: 4
GridSize: 4

[Metadata]
Title:Into the ultramarine of Kafka
TitleUnicode:Into the ultramarine of Kafka
Artist:senya
ArtistUnicode:senya
Creator:Dagger-Gazel
Version:Hard
Source:Touhou
Tags:iceon yuuhei satellite wonderful heaven hinanawi tenshi catastrophe in bhava-agra scarlet weather rhapsody swr jamxx
BeatmapID:187940
BeatmapSetID:63660

[Difficulty]
HPDrainRate:5
CircleSize:4
OverallDifficulty:6
ApproachRate:7
SliderMultiplier:1.4
SliderTickRate:1

[Events]
//Background and Video events
0,0,"tenko.jpg"
//Break Periods
2,109057,121870
2,206449,229696
//Storyboard Layer 0 (Background)
//Storyboard Layer 1 (Fail)
//Storyboard Layer 2 (Pass)
//Storyboard Layer 3 (Foreground)
//Storyboard Sound Samples
//Background Colour Transformations
3,100,163,162,255

[TimingPoints]
1031,434.782608695652,4,2,1,40,1,0
16627,-100,4,2,1,50,0,0
18366,-100,4,2,1,60,0,0
32277,-100,4,2,1,65,0,0
53269,-100,4,2,1,75,0,0
122661,-100,4,2,1,65,0,0
143639,-100,4,2,1,75,0,0
199238,-100,4,2,1,65,0,0
200378,-100,4,2,1,10,0,0
200470,-100,4,2,1,75,0,0
205378,-100,4,2,1,10,0,0
206248,-100,4,2,1,75,0,1
206302,-100,4,2,1,75,0,0
230596,-100,4,2,1,80,0,1
244400,-100,4,2,1,80,0,0
244509,-100,4,2,1,80,0,1
258313,-100,4,2,1,80,0,0
258422,-100,4,2,1,80,0,1
272226,-100,4,2,1,80,0,0
272335,-100,4,2,1,80,0,1
286248,-133.333333333333,4,2,1,65,0,0
292335,-133.333333333333,4,2,1,10,0,0
293204,-133.333333333333,4,2,1,50,0,0
303639,461.538461538462,4,2,1,40,1,0
303639,-133.333333333333,4,2,1,40,0,0
304562,480,4,2,1,40,1,0
304562,-200,4,2,1,20,0,0
305642,-200,4,2,1,5,0,0

[Colours]
Combo1 : 255,38,38
Combo2 : 0,128,255
Combo3 : 0,128,64

[HitObjects]
144,112,1031,2,0,B|168:144|204:144,1,70
196,228,1466,2,0,B|235:233|260:204,1,70,2|0,0:0|0:0,0:0:0
312,276,1901,2,0,B|344:252|344:216,1,70
308,140,2336,1,2,0:0:0
148,192,2770,2,0,B|88:236|84:316,1,140,0|2,0:0|0:0,0:0:0
156,352,3422,2,0,B|216:308|220:228,1,140
296,272,4075,2,0,B|368:272,1,70,2|0,0:0|0:0,0:0:0
396,352,4509,6,0,B|432:340|444:300,1,70
412,224,4944,2,0,B|376:236|364:276,1,70,2|0,0:0|0:0,0:0:0
316,340,5379,2,0,B|244:332|208:260,1,140,0|2,0:0|0:0,0:0:0
204,176,6031,1,0,0:0:0
164,100,6249,6,0,B|132:76|96:88,1,70
116,168,6683,2,0,B|76:173|56:204,1,70,2|0,0:0|0:0,0:0:0
180,336,7336,2,0,B|219:330|236:296,1,70,0|2,0:0|0:0,0:0:0
404,316,7988,6,0,B|372:332|336:316,1,70
316,236,8422,2,0,B|312:200|328:164,1,70,2|0,0:0|0:0,0:0:0
384,104,8857,2,0,B|416:128|412:168,2,70,0|0|2,0:0|0:0|0:0,0:0:0
256,232,9727,2,0,B|240:304|172:340,1,140,0|2,0:0|0:0,0:0:0
96,304,10379,2,0,B|75:233|116:170,1,140,0|0,0:0|0:0,0:0:0
196,176,11031,2,0,B|168:244,1,70,2|0,0:0|0:0,0:0:0
220,308,11466,6,0,B|256:320|292:308,1,70
342,240,11901,2,0,B|316:176,1,70,2|0,0:0|0:0,0:0:0
256,116,12336,2,0,B|256:44,2,70,0|0|2,0:0|0:0|0:0,0:0:0
256,116,12988,6,0,B|256:256,1,140
180,220,13640,2,0,B|168:188|180:148,1,70,2|0,0:0|0:0,0:0:0
256,116,14075,1,0,0:0:0
332,150,14292,2,0,B|344:188|332:220,1,70,0|2,0:0|0:0,0:0:0
256,348,14944,5,2,0:0:0
256,32,16683,5,2,0:0:0
124,264,18422,6,0,B|116:228|140:196,1,70,4|0,0:0|0:0,0:0:0
220,180,18857,1,8,0:0:0
280,240,19075,1,0,0:0:0
284,324,19292,2,0,B|244:328|221:295,2,70,0|0|8,0:0|0:0|0:0,0:0:0
356,280,19944,1,0,0:0:0
428,236,20162,2,0,B|404:92,1,140,2|8,0:0|0:0,0:0:0
344,40,20814,2,0,B|288:168,1,140,2|0,0:0|0:0,0:0:0
256,244,21466,2,0,P|288:252|324:244,1,70,8|0,0:0|0:0,0:0:0
372,176,21901,5,0,0:0:0
288,168,22118,1,0,0:0:0
256,244,22336,2,0,B|236:272|204:292,1,70,8|0,0:0|0:0,0:0:0
120,292,22770,2,0,B|68:240|100:160,1,140,0|8,0:0|0:0,0:0:0
160,100,23422,1,0,0:0:0
208,168,23640,6,0,B|260:116,1,70
332,156,24075,2,0,B|280:208,1,70,8|0,0:0|0:0,0:0:0
160,320,24727,1,0,0:0:0
160,320,24944,2,0,B|120:304|112:268,1,70,8|8,0:0|0:0,0:0:0
112,188,25379,6,0,B|112:112,1,70
192,96,25814,1,8,0:0:0
192,180,26031,2,0,B|192:252,1,70
276,232,26466,2,0,B|276:156,1,70,0|8,0:0|0:0,0:0:0
432,88,27118,2,0,B|472:148|456:224,1,140,2|8,0:0|0:0,0:0:0
408,292,27770,2,0,B|348:332|272:316,1,140,2|0,0:0|0:0,0:0:0
212,260,28422,2,0,B|204:224|228:192,1,70,10|0,0:0|0:0,0:0:0
296,240,28857,6,0,B|328:208|328:131|304:108,1,140,2|8,0:0|0:0,0:0:0
256,40,29509,1,0,0:0:0
208,108,29727,2,0,B|184:131|184:208|216:240,1,140,2|8,0:0|0:0,0:0:0
256,312,30379,1,0,0:0:0
296,240,30596,6,0,B|364:252|436:240,1,140,4|8,0:0|0:0,0:0:0
472,164,31249,1,0,0:0:0
436,88,31466,2,0,B|364:76|296:88,1,140,2|8,0:0|0:0,0:0:0
256,164,32118,1,8,0:0:0
204,228,32336,6,0,B|180:252|140:268|100:252|76:228,2,140,4|8|0,0:0|0:0|0:0,0:0:0
256,164,33422,1,0,0:0:0
256,164,33640,2,0,B|292:196|292:260|256:296,1,140,8|0,0:0|0:0,0:0:0
260,292,34509,1,8,0:0:0
148,176,34944,6,0,B|148:104,1,70
228,80,35379,2,0,B|228:152,1,70,8|0,0:0|0:0,0:0:0
312,156,35814,6,0,B|336:132|376:116|416:132|440:156,2,140,0|8|0,0:0|0:0|0:0,0:0:0
256,220,36901,1,0,0:0:0
256,220,37118,2,0,B|220:188|220:124|256:88,1,140,8|0,0:0|0:0,0:0:0
252,92,37988,1,8,0:0:0
364,208,38422,6,0,B|364:280,1,70,2|0,0:0|0:0,0:0:0
284,304,38857,2,0,B|284:232,1,70,8|0,0:0|0:0,0:0:0
300,152,39292,6,0,B|272:80|196:68,1,140,2|8,0:0|0:0,0:0:0
48,148,40162,2,0,B|16:218|62:280,1,140,2|8,0:0|0:0,0:0:0
228,292,41031,2,0,B|208:260|172:248,2,70,0|0|8,0:0|0:0|0:0,0:0:0
284,136,41901,2,0,B|304:104|340:96,2,70,0|0|8,0:0|0:0|0:0,0:0:0
228,292,42770,6,0,B|298:323|360:277,1,140,4|8,0:0|0:0,0:0:0
400,204,43422,1,0,0:0:0
316,204,43640,2,0,B|312:164|344:140,1,70
284,80,44075,2,0,B|213:48|151:94,1,140,8|0,0:0|0:0,0:0:0
108,164,44727,1,0,0:0:0
192,164,44944,2,0,B|196:204|164:228,1,70,8|0,0:0|0:0,0:0:0
84,248,45379,5,0,0:0:0
84,248,45814,1,8,0:0:0
152,96,46249,2,0,B|216:64|288:96,1,140,4|8,0:0|0:0,0:0:0
364,128,46901,1,0,0:0:0
192,192,47118,2,0,B|214:124|288:95,1,140,2|8,0:0|0:0,0:0:0
364,128,47770,1,0,0:0:0
288,232,47988,2,0,B|255:167|288:95,1,140,2|8,0:0|0:0,0:0:0
444,32,48857,1,2,0:0:0
432,200,49292,1,8,0:0:0
256,192,49727,12,0,51466,0:0:0
288,96,51901,5,8,0:0:0
372,244,52336,2,0,B|388:276|384:312,1,70,2|0,0:0|0:0,0:0:0
312,360,52770,2,0,B|296:328|300:292,1,70,8|8,0:0|0:0,0:0:0
220,324,53205,6,0,B|182:354|116:335|96:288,1,140,4|8,0:0|0:0,0:0:0
48,136,54075,1,0,0:0:0
48,136,54509,2,0,B|40:96|64:64,2,70,8|0|0,0:0|0:0|0:0,0:0:0
176,256,55379,1,8,0:0:0
256,108,55814,2,0,B|256:180,1,70,2|0,0:0|0:0,0:0:0
256,264,56249,2,0,B|260:304|216:328,1,70,8|0,0:0|0:0,0:0:0
176,256,56683,6,0,B|144:188|176:116,1,140,2|8,0:0|0:0,0:0:0
256,108,57336,1,0,0:0:0
337,120,57553,2,0,B|368:188|336:256,1,140,2|8,0:0|0:0,0:0:0
256,264,58205,1,0,0:0:0
256,264,58422,2,0,B|256:192,1,70
256,108,58857,2,0,B|239:66|173:47|135:78,1,140,8|2,0:0|0:0,0:0:0
136,236,59727,6,0,B|152:277|218:296|256:264,1,140,8|0,0:0|0:0,0:0:0
348,124,60596,1,8,0:0:0
348,124,61031,1,0,0:0:0
440,264,61466,2,0,B|440:304|408:328,1,70,8|0,0:0|0:0,0:0:0
352,264,61901,2,0,B|204:264,3,140,2|8|2|8,0:0|0:0|0:0|0:0,0:0:0
100,140,63640,6,0,B|116:98|182:79|220:112,1,140,2|8,0:0|0:0,0:0:0
256,188,64292,2,0,B|276:264|352:280,1,140
424,236,64944,2,0,B|436:204|428:160,1,70,8|0,0:0|0:0,0:0:0
256,192,65379,12,2,66683,0:0:0
168,280,67118,6,0,B|136:308|64:296|52:236,2,140,4|8|0,0:0|0:0|0:0,0:0:0
236,228,68205,1,0,0:0:0
292,292,68422,2,0,B|324:320|396:308|408:248,1,140,8|0,0:0|0:0,0:0:0
464,96,69292,1,8,0:0:0
404,36,69509,1,0,0:0:0
336,84,69727,2,0,B|336:228,1,140,2|8,0:0|0:0,0:0:0
208,336,70596,6,0,B|176:364|104:352|92:292,1,140,2|8,0:0|0:0,0:0:0
168,260,71249,2,0,B|168:120,1,140
168,36,71901,2,0,B|212:36|232:68,1,70,8|0,0:0|0:0,0:0:0
268,140,72336,2,0,B|287:177|358:193|392:142,1,140,0|8,0:0|0:0,0:0:0
404,68,72988,1,0,0:0:0
388,148,73205,2,0,B|376:220,1,70,2|0,0:0|0:0,0:0:0
360,300,73640,5,8,0:0:0
360,300,73857,1,0,0:0:0
360,300,74075,2,0,B|300:336|220:312,1,140,2|8,0:0|0:0,0:0:0
256,236,74727,2,0,B|256:88,1,140
316,156,75379,2,0,B|296:188|256:192|216:188|196:155,1,140,8|2,0:0|0:0,0:0:0
332,60,76249,1,8,0:0:0
436,192,76683,1,2,0:0:0
332,324,77118,1,8,0:0:0
256,192,77553,12,4,79292,0:0:0
224,96,79727,5,8,0:0:0
140,244,80162,2,0,B|124:276|128:312,1,70,2|0,0:0|0:0,0:0:0
200,360,80596,2,0,B|216:328|212:292,1,70,8|8,0:0|0:0,0:0:0
292,324,81031,6,0,B|330:354|396:335|416:288,1,140,4|8,0:0|0:0,0:0:0
464,136,81901,1,0,0:0:0
464,136,82336,2,0,B|472:96|448:64,2,70,8|0|0,0:0|0:0|0:0,0:0:0
296,108,83205,2,0,B|332:96|368:108,1,70,8|0,0:0|0:0,0:0:0
332,184,83640,2,0,B|332:260,1,70,2|0,0:0|0:0,0:0:0
256,292,84075,2,0,B|256:220,1,70,8|0,0:0|0:0,0:0:0
176,252,84509,6,0,B|150:279|110:275|71:264|58:228,1,140,2|8,0:0|0:0,0:0:0
44,144,85162,1,0,0:0:0
92,72,85379,2,0,B|117:44|157:48|196:59|209:95,1,140,2|8,0:0|0:0,0:0:0
224,180,86031,1,0,0:0:0
224,264,86249,2,0,B|186:271|156:244|132:212|142:175,2,140,0|8|2,0:0|0:0|0:0,0:0:0
372,184,87553,5,8,0:0:0
372,184,87988,2,0,B|300:160|228:184,1,140,2|8,0:0|0:0,0:0:0
116,300,88857,2,0,B|188:324|260:300,1,140,0|8,0:0|0:0,0:0:0
308,236,89509,1,0,0:0:0
224,228,89727,2,0,B|224:188|260:168,1,70,2|0,0:0|0:0,0:0:0
188,120,90162,2,0,B|150:90|84:109|64:156,2,140,8|2|8,0:0|0:0|0:0,0:0:0
256,272,91466,6,0,B|180:264|148:192,1,140,4|8,0:0|0:0,0:0:0
188,120,92118,2,0,B|256:140|328:120,1,140
256,52,92770,2,0,B|256:204,1,140,8|4,0:0|0:0,0:0:0
256,360,93640,1,8,0:0:0
404,300,94075,2,0,B|440:284|452:236,1,70,2|0,0:0|0:0,0:0:0
368,228,94509,2,0,B|332:244|320:292,1,70,8|0,0:0|0:0,0:0:0
448,248,94944,6,0,B|492:188|468:112,1,140,4|8,0:0|0:0,0:0:0
308,160,95814,1,0,0:0:0
308,160,96249,1,8,0:0:0
164,76,96683,2,0,B|120:136|144:212,1,140,0|8,0:0|0:0,0:0:0
204,268,97336,1,0,0:0:0
256,204,97553,2,0,B|256:64,1,140,2|8,0:0|0:0,0:0:0
360,196,98423,6,0,B|376:236|343:296|295:302,1,140,2|8,0:0|0:0,0:0:0
280,220,99075,2,0,B|212:200|140:220,1,140
76,268,99727,1,8,0:0:0
76,268,100162,2,0,B|124:216|132:136,1,140,0|8,0:0|0:0,0:0:0
80,72,100814,2,0,B|48:96|44:136,1,70,0|2,0:0|0:0,0:0:0
212,152,101466,6,0,B|244:128|248:88,1,70,8|0,0:0|0:0,0:0:0
244,12,101901,2,0,B|256:84|320:124,1,140,4|8,0:0|0:0,0:0:0
400,144,102553,2,0,B|330:119|262:168,1,140
208,228,103205,2,0,B|180:248|160:280,1,70,8|0,0:0|0:0,0:0:0
220,340,103640,6,0,B|256:344|296:340,1,70
352,280,104075,2,0,B|336:252|304:228,1,70,8|0,0:0|0:0,0:0:0
256,160,104509,2,0,B|248:120|264:64|256:16,1,140,2|8,0:0|0:0,0:0:0
256,192,105379,12,4,108857,0:0:0
288,256,122770,6,0,B|216:256|160:208,1,140,4|8,0:0|0:0,0:0:0
108,140,123423,1,0,0:0:0
184,104,123640,2,0,B|192:72|183:34,1,70,0|0,0:0|0:0,0:0:0
108,72,124075,2,0,B|100:104|108:141,1,70,8|0,0:0|0:0,0:0:0
184,104,124509,2,0,B|248:64|320:92,1,140,0|8,0:0|0:0,0:0:0
424,220,125379,6,0,B|448:248|440:288,1,70
372,336,125814,2,0,B|348:308|356:268,1,70,8|0,0:0|0:0,0:0:0
424,220,126249,6,0,B|464:152|420:84,1,140,2|8,0:0|0:0,0:0:0
348,48,126901,1,0,0:0:0
268,68,127118,2,0,B|256:104|268:140,1,70
348,116,127553,2,0,B|360:84|347:46,1,70,8|0,0:0|0:0,0:0:0
268,68,127988,2,0,B|200:100|136:52,1,140,0|8,0:0|0:0,0:0:0
188,212,128857,6,0,B|208:244|204:280,1,70,2|0,0:0|0:0,0:0:0
140,332,129292,2,0,B|120:300|124:264,1,70,8|0,0:0|0:0,0:0:0
188,212,129727,6,0,B|256:188|328:212,1,140,2|8,0:0|0:0,0:0:0
336,296,130379,1,0,0:0:0
256,272,130596,2,0,B|256:124,1,140,0|8,0:0|0:0,0:0:0
164,272,131466,2,0,B|154:307|178:339|208:366|246:359,1,140,2|8,0:0|0:0,0:0:0
324,324,132118,1,0,0:0:0
256,272,132336,1,0,0:0:0
256,272,132770,1,8,0:0:0
256,104,133205,6,0,B|324:80|396:104,2,140,4|8|0,0:0|0:0|0:0,0:0:0
196,260,134509,2,0,B|180:292|144:304,1,70,8|0,0:0|0:0,0:0:0
72,344,134944,2,0,B|140:320|208:352,1,140,0|8,0:0|0:0,0:0:0
256,284,135596,1,0,0:0:0
304,352,135814,2,0,B|372:320|440:344,1,140,0|8,0:0|0:0,0:0:0
324,220,136683,6,0,B|256:252|188:220,1,140,4|8,0:0|0:0,0:0:0
176,136,137336,1,0,0:0:0
256,160,137553,2,0,B|256:308,1,140,0|8,0:0|0:0,0:0:0
336,328,138205,1,0,0:0:0
256,300,138423,2,0,B|184:284|116:300,2,140,0|8|2,0:0|0:0|0:0,0:0:0
316,244,139509,1,0,0:0:0
364,176,139727,2,0,B|400:112|380:36,1,140,8|4,0:0|0:0,0:0:0
256,152,140596,1,8,0:0:0
132,40,141031,2,0,B|112:112|148:176,1,140,0|8,0:0|0:0,0:0:0
272,292,141901,6,0,B|304:316,3,35,2|0|0|0,0:0|0:0|0:0|0:0,0:0:0
336,336,142336,2,0,B|376:340,3,35,10|0|0|0,0:0|0:0|0:0|0:0,0:0:0
412,336,142770,2,0,B|452:312,3,35,2|0|0|0,0:0|0:0|0:0|0:0,0:0:0
464,280,143205,2,0,B|476:236,3,35,10|0|0|8,0:0|0:0|0:0|0:0,0:0:0
484,204,143640,6,0,B|496:136|484:60,1,140,4|8,0:0|0:0,0:0:0
404,88,144292,2,0,B|376:108|336:104,1,70
172,72,144944,1,8,0:0:0
100,32,145162,1,0,0:0:0
32,80,145379,2,0,B|20:151|32:219,1,140,0|8,0:0|0:0,0:0:0
140,348,146249,6,0,B|176:332|184:292,1,70,2|0,0:0|0:0,0:0:0
144,220,146683,2,0,B|108:236|100:276,1,70,8|0,0:0|0:0,0:0:0
232,228,147118,6,0,B|292:184|304:108,1,140,2|8,0:0|0:0,0:0:0
256,40,147770,1,0,0:0:0
172,28,147988,2,0,B|112:71|100:148,1,140,2|8,0:0|0:0,0:0:0
144,220,148640,1,0,0:0:0
184,296,148857,2,0,B|152:324|80:312|68:252,2,140,0|8|2,0:0|0:0|0:0,0:0:0
256,144,150162,5,8,0:0:0
328,296,150596,2,0,B|360:324|432:312|444:252,1,140,0|8,0:0|0:0,0:0:0
368,220,151249,1,0,0:0:0
368,220,151466,2,0,B|368:80,1,140,0|8,0:0|0:0,0:0:0
292,40,152118,1,0,0:0:0
256,116,152336,2,0,B|256:260,3,140,2|8|2|8,0:0|0:0|0:0|0:0,0:0:0
164,116,154075,6,0,B|154:80|178:48|208:21|246:28,1,140,2|8,0:0|0:0,0:0:0
308,88,154727,2,0,B|317:123|293:155|263:182|225:175,1,140,2|0,0:0|0:0,0:0:0
144,200,155379,2,0,B|108:216|92:252,1,70,8|0,0:0|0:0,0:0:0
256,192,155814,12,8,157118,0:0:0
360,200,157553,2,0,B|323:191|292:216|266:248|275:285,1,140,4|8,0:0|0:0,0:0:0
360,284,158205,1,0,0:0:0
360,284,158423,2,0,B|240:172,1,140,0|8,0:0|0:0,0:0:0
88,192,159292,2,0,B|90:234|150:276|201:242,1,140,0|8,0:0|0:0,0:0:0
256,188,159944,1,0,0:0:0
328,140,160162,2,0,B|372:112|432:152|436:192,1,140,2|8,0:0|0:0,0:0:0
324,316,161031,6,0,B|256:344|188:312,1,140,2|8,0:0|0:0,0:0:0
140,244,161683,2,0,B|152:168|220:132,1,140,0|0,0:0|0:0,0:0:0
296,132,162336,2,0,B|360:168|372:244,1,140,8|0,0:0|0:0,0:0:0
324,316,162988,1,0,0:0:0
256,268,163205,1,8,0:0:0
256,184,163423,2,0,B|256:100,1,70,0|2,0:0|0:0,0:0:0
104,68,164075,6,0,B|104:140,1,70,8|0,0:0|0:0,0:0:0
44,196,164509,2,0,B|63:228|103:232|144:228|164:196,1,140,2|8,0:0|0:0,0:0:0
164,196,165162,2,0,B|136:272|180:328,1,140,0|0,0:0|0:0,0:0:0
256,292,165814,2,0,P|256:216,1,70,10|0,0:0|0:0,0:0:0
332,328,166249,2,0,B|376:272|348:196,1,140,2|8,0:0|0:0,0:0:0
304,124,166901,1,0,0:0:0
347,196,167118,2,0,B|367:228|408:232|448:228|468:196,1,140,2|8,0:0|0:0,0:0:0
408,136,167770,2,0,B|408:64,1,70,0|4,0:0|0:0,0:0:0
256,192,168096,12,4,169727,0:0:0
256,28,170162,5,8,0:0:0
220,192,170596,2,0,B|208:232|220:264,1,70,2|0,0:0|0:0,0:0:0
296,296,171031,2,0,B|308:256|296:224,1,70,8|8,0:0|0:0,0:0:0
220,192,171466,6,0,B|144:168|84:216,1,140,4|8,0:0|0:0,0:0:0
80,296,172118,1,0,0:0:0
156,260,172336,2,0,B|176:184|116:132,1,140,0|8,0:0|0:0,0:0:0
36,144,172988,1,0,0:0:0
88,208,173205,2,0,B|172:220|196:144,1,140,0|8,0:0|0:0,0:0:0
348,68,174075,6,0,B|388:60|416:80,1,70,2|0,0:0|0:0,0:0:0
372,152,174509,2,0,B|405:174|411:208,1,70,8|0,0:0|0:0,0:0:0
368,280,174944,6,0,B|332:256|328:220|328:220|252:220,1,140,2|8,0:0|0:0,0:0:0
204,280,175596,1,0,0:0:0
144,220,175814,2,0,B|111:200|107:160|111:119|143:99,1,140,0|8,0:0|0:0,0:0:0
224,80,176466,1,0,0:0:0
192,160,176683,2,0,B|52:160,2,140,0|8|2,0:0|0:0|0:0,0:0:0
328,260,177988,6,0,B|317:312|245:325|215:298,1,140,8|0,0:0|0:0,0:0:0
136,148,178857,1,8,0:0:0
172,72,179075,1,0,0:0:0
256,88,179292,2,0,B|256:240,1,140,0|8,0:0|0:0,0:0:0
316,288,179944,1,0,0:0:0
316,288,180162,2,0,B|296:320|256:324|215:320|195:288,1,140,2|8,0:0|0:0,0:0:0
196,120,181031,2,0,B|216:88|257:83|297:88|317:120,1,140,2|8,0:0|0:0,0:0:0
340,292,181901,6,0,B|268:264|256:188,1,140,4|8,0:0|0:0,0:0:0
324,124,182553,2,0,B|256:92|184:124,1,140
140,188,183205,1,8,0:0:0
200,248,183423,1,0,0:0:0
256,188,183640,1,4,0:0:0
256,188,184075,1,10,0:0:0
392,280,184509,2,0,B|424:300|460:296,1,70,2|0,0:0|0:0,0:0:0
440,212,184944,2,0,B|476:208|499:175,1,70,8|0,0:0|0:0,0:0:0
432,124,185379,6,0,B|392:64|324:36,1,140,4|8,0:0|0:0,0:0:0
256,88,186031,1,0,0:0:0
186,36,186249,2,0,B|120:64|80:124,1,140,0|8,0:0|0:0,0:0:0
196,244,187118,2,0,B|216:212|256:208|296:212|316:244,1,140,0|8,0:0|0:0,0:0:0
256,304,187770,1,0,0:0:0
256,304,187988,2,0,B|256:156,1,140,2|8,0:0|0:0,0:0:0
148,36,188857,6,0,B|106:38|63:98|97:149,1,140,2|8,0:0|0:0,0:0:0
160,196,189509,1,0,0:0:0
80,224,189727,2,0,B|82:266|142:308|193:274,1,140,2|8,0:0|0:0,0:0:0
256,124,190596,2,0,B|266:71|338:58|369:86,1,140,0|8,0:0|0:0,0:0:0
328,160,191249,1,0,0:0:0
328,160,191466,2,0,B|328:232,1,70,2|0,0:0|0:0,0:0:0
328,316,191901,5,8,0:0:0
256,272,192118,1,0,0:0:0
184,316,192336,2,0,B|120:356|48:320,1,140,4|8,0:0|0:0,0:0:0
84,244,192988,1,0,0:0:0
168,232,193205,2,0,B|184:196|164:152,1,70
148,80,193640,2,0,B|112:84|92:120,1,70,8|0,0:0|0:0,0:0:0
168,164,194075,2,0,B|308:164,3,140,2|8|2|8,0:0|0:0|0:0|0:0,0:0:0
256,192,195814,12,4,198423,0:0:0
320,192,198857,6,0,B|332:224|368:240,1,70,8|8,0:0|0:0,0:0:0
404,164,199292,2,0,B|401:123|340:84|296:108,1,140,4|0,0:0|0:0,0:0:0
232,164,199944,2,0,B|186:205|128:205|83:175|66:116,1,210,2|0,0:0|0:0,0:0:0
228,76,201031,6,0,B|278:70|324:115|318:166,1,140,2|0,0:0|0:0,0:0:0
228,300,201901,2,0,B|177:305|131:260|137:209,1,140,2|0,0:0|0:0,0:0:0
256,192,202770,12,0,205379,0:0:0
256,192,206249,5,4,0:0:0
256,320,230596,6,0,B|256:176,1,140,4|8,0:0|0:0,0:0:0
308,116,231249,1,0,0:0:0
308,116,231466,1,0,0:0:0
428,232,231901,2,0,B|436:272|416:304,1,70,8|0,0:0|0:0,0:0:0
336,320,232336,2,0,B|328:280|348:248|348:248|328:184,1,140,0|8,0:0|0:0,0:0:0
252,140,232988,1,0,0:0:0
184,192,233205,6,0,B|176:232|196:260,1,70
264,208,233640,2,0,B|272:168|248:136,1,70,8|0,0:0|0:0,0:0:0
180,104,234075,2,0,B|144:100|108:120|92:156|96:192,1,140,2|8,0:0|0:0,0:0:0
184,192,234727,1,0,0:0:0
180,280,234944,2,0,B|144:284|108:264|92:228|96:192,1,140,2|8,0:0|0:0,0:0:0
324,192,235814,2,0,B|256:208|184:192,1,140,0|8,0:0|0:0,0:0:0
220,116,236466,2,0,B|256:128|292:116,1,70,0|2,0:0|0:0,0:0:0
376,260,237118,6,0,B|340:278|275:261|256:216,1,140,8|0,0:0|0:0,0:0:0
272,132,237770,1,0,0:0:0
336,188,237988,2,0,B|284:320,1,140,8|0,0:0|0:0,0:0:0
116,312,238857,2,0,B|116:272|144:248,1,70,8|0,0:0|0:0,0:0:0
228,252,239292,2,0,B|232:216|216:180|180:160|144:164,2,140,2|8|0,0:0|0:0|0:0,0:0:0
176,316,240379,1,0,0:0:0
120,252,240596,2,0,B|80:244|64:200,1,70,8|0,0:0|0:0,0:0:0
144,164,241031,6,0,B|220:160|256:92,1,140,2|8,0:0|0:0,0:0:0
256,4,241683,1,0,0:0:0
256,92,241901,2,0,B|290:161|366:165,1,140,0|8,0:0|0:0,0:0:0
256,292,242770,5,4,0:0:0
256,124,243205,1,8,0:0:0
176,96,243423,1,0,0:0:0
112,148,243640,2,0,B|92:180|100:216,1,70,2|0,0:0|0:0,0:0:0
172,260,244075,2,0,B|192:228|184:192,1,70,8|8,0:0|0:0,0:0:0
268,212,244509,6,0,B|348:232|396:176,1,140,4|8,0:0|0:0,0:0:0
424,96,245162,1,0,0:0:0
396,176,245379,2,0,B|396:216|416:244,1,70
468,308,245814,1,8,0:0:0
300,304,246249,2,0,B|224:300|192:224,1,140,0|8,0:0|0:0,0:0:0
180,144,246901,1,0,0:0:0
260,172,247118,2,0,B|336:168|368:92,1,140,2|8,0:0|0:0,0:0:0
200,68,247988,6,0,B|152:52|100:92|100:140,1,140,2|8,0:0|0:0,0:0:0
100,220,248640,2,0,B|99:265|151:305|199:289,1,140,2|0,0:0|0:0,0:0:0
180,208,249292,2,0,B|180:168|144:152,1,70,8|0,0:0|0:0,0:0:0
212,100,249727,2,0,B|276:60|348:88,1,140,2|8,0:0|0:0,0:0:0
408,144,250379,2,0,B|436:116|428:80,1,70,0|2,0:0|0:0,0:0:0
384,244,251031,5,8,0:0:0
324,304,251249,1,0,0:0:0
256,252,251466,2,0,B|256:104,1,140,4|8,0:0|0:0,0:0:0
176,136,252118,2,0,B|139:144|104:123|84:88|91:51,1,140
176,56,252770,2,0,B|244:32|316:56,1,140,8|2,0:0|0:0,0:0:0
412,192,253640,1,8,0:0:0
312,324,254075,1,2,0:0:0
152,276,254509,1,8,0:0:0
140,108,254944,1,4,0:0:0
256,192,255053,12,8,257118,0:0:0
324,180,257553,6,0,B|340:144|328:108,1,70,2|0,0:0|0:0,0:0:0
248,140,257988,2,0,B|233:103|199:86,1,70,8|0,0:0|0:0,0:0:0
164,164,258423,6,0,B|129:149|91:163|65:195|65:232,1,140,4|8,0:0|0:0,0:0:0
136,276,259075,2,0,B|116:308|80:316,1,70
228,236,259727,1,8,0:0:0
300,284,259944,1,0,0:0:0
380,304,260162,2,0,B|456:304|496:236,1,140,0|8,0:0|0:0,0:0:0
408,92,261031,6,0,B|392:124|400:164,1,70,2|0,0:0|0:0,0:0:0
480,136,261466,2,0,B|496:104|488:64,1,70,8|0,0:0|0:0,0:0:0
408,92,261901,6,0,B|340:112|268:92,1,140,2|8,0:0|0:0,0:0:0
204,40,262553,1,0,0:0:0
204,40,262770,2,0,B|252:96|240:172,1,140,2|8,0:0|0:0,0:0:0
136,304,263640,2,0,B|88:248|100:172,1,140,0|8,0:0|0:0,0:0:0
116,92,264292,2,0,B|76:84|48:112,1,70,0|2,0:0|0:0,0:0:0
212,152,264944,5,8,0:0:0
372,200,265379,2,0,B|356:280|284:300,2,140,2|8|0,0:0|0:0|0:0,0:0:0
408,36,266683,1,8,0:0:0
324,28,266901,1,0,0:0:0
248,72,267118,2,0,B|217:94|210:134|225:173|256:192,1,140,2|8,0:0|0:0,0:0:0
264,312,267988,2,0,B|294:289|301:249|286:210|256:192,1,140,2|8,0:0|0:0,0:0:0
96,260,268857,6,0,B|120:292|196:292|220:256,1,140,4|8,0:0|0:0,0:0:0
256,180,269509,1,0,0:0:0
292,256,269727,2,0,B|316:292|392:292|416:260,1,140,0|8,0:0|0:0,0:0:0
464,96,270596,1,4,0:0:0
464,96,271031,1,10,0:0:0
304,36,271466,6,0,B|264:36|240:64,1,70,2|0,0:0|0:0,0:0:0
180,120,271901,2,0,B|157:146|117:146,1,70,8|0,0:0|0:0,0:0:0
128,64,272336,6,0,B|153:38|194:34|230:51|245:86,1,140,4|8,0:0|0:0,0:0:0
280,164,272988,1,0,0:0:0
216,220,273205,2,0,B|190:245|149:249|113:232|98:197,1,140,0|8,0:0|0:0,0:0:0
188,56,274075,2,0,B|256:36|328:56,1,140,2|8,0:0|0:0,0:0:0
340,140,274727,1,0,0:0:0
256,156,274944,2,0,B|256:192|282:223|320:237|360:224,1,140,2|8,0:0|0:0,0:0:0
280,76,275814,6,0,B|244:61|204:72|176:104|172:140,1,140,2|8,0:0|0:0,0:0:0
196,216,276466,1,0,0:0:0
256,156,276683,2,0,B|284:180|280:220,1,70
220,280,277118,2,0,B|192:256|196:216,1,70,8|0,0:0|0:0,0:0:0
256,156,277553,2,0,B|308:104|384:104,1,140,2|8,0:0|0:0,0:0:0
460,136,278205,2,0,B|472:100|456:68,1,70,0|2,0:0|0:0,0:0:0
288,96,278857,6,0,B|252:88|228:56,1,70,8|0,0:0|0:0,0:0:0
360,68,279292,2,0,B|374:103|364:144|332:172|300:176,1,140,4|8,0:0|0:0,0:0:0
224,144,279944,1,0,0:0:0
212,60,280162,2,0,B|172:60|152:92,1,70
164,176,280596,2,0,B|204:176|224:144,1,70,8|0,0:0|0:0,0:0:0
256,68,281031,5,2,0:0:0
396,160,281466,1,8,0:0:0
340,320,281901,1,2,0:0:0
172,320,282336,1,8,0:0:0
116,160,282770,1,4,0:0:0
256,192,282879,12,0,285379,0:0:0
68,124,285814,5,8,0:0:0
68,124,286031,1,0,0:0:0
68,124,286249,2,0,B|124:124|172:156,1,105.000004005432,4|2,0:0|0:0,0:0:0
200,220,286901,2,0,B|256:220|304:188,1,105.000004005432
348,136,287553,2,0,B|396:168,1,52.5000020027161,2|0,0:0|0:0,0:0:0
428,228,287988,5,0,0:0:0
332,340,288423,1,2,0:0:0
180,340,288857,1,0,0:0:0
84,228,289292,1,2,0:0:0
256,192,289727,12,0,292336,0:0:0
384,96,293205,6,0,B|376:152,1,52.5000020027161
304,136,293640,2,0,B|296:192,1,52.5000020027161,2|0,0:0|0:0,0:0:0
224,168,294075,2,0,B|216:224,2,52.5000020027161,0|0|2,0:0|0:0|0:0,0:0:0
312,284,294944,6,0,B|376:292|408:240,1,105.000004005432,0|2,0:0|0:0,0:0:0
428,176,295596,2,0,B|440:123|389:84,1,105.000004005432
316,84,296249,2,0,B|256:84,1,52.5000020027161,2|0,0:0|0:0,0:0:0
204,128,296683,6,0,B|212:184,1,52.5000020027161
136,172,297118,2,0,B|144:228,1,52.5000020027161,2|0,0:0|0:0,0:0:0
68,212,297553,2,0,B|76:268,2,52.5000020027161,0|0|2,0:0|0:0|0:0,0:0:0
136,172,298205,6,0,B|244:172,1,105.000004005432
280,108,298857,2,0,B|320:144,1,52.5000020027161,2|0,0:0|0:0,0:0:0
272,280,299509,1,0,0:0:0
272,280,299727,2,0,B|232:244,1,52.5000020027161,2|0,0:0|0:0,0:0:0
176,196,300162,6,0,B|124:208,1,52.5000020027161
124,136,300596,2,0,B|72:148,1,52.5000020027161,2|0,0:0|0:0,0:0:0
72,76,301031,2,0,B|20:88,2,52.5000020027161,0|0|2,0:0|0:0|0:0,0:0:0
216,52,301901,6,0,B|280:44|312:96,1,105.000004005432,0|2,0:0|0:0,0:0:0
332,160,302553,2,0,B|344:212|293:251,1,105.000004005432
220,252,303205,2,0,B|160:252,1,52.5000020027161,2|0,0:0|0:0,0:0:0
136,176,303639,6,0,B|140:148|164:132,1,52.5000020027161
224,136,304100,2,0,B|246:119|274:124,1,52.5000020027161,2|0,0:0|0:0,0:0:0
324,148,304562,6,0,B|396:136|456:184,1,140
256,192,305642,12,0,307202,0:0:0
