osu file format v14

[General]
AudioFilename: koishichanfooo.mp3
AudioLeadIn: 1000
PreviewTime: 37968
Countdown: 0
SampleSet: Soft
StackLeniency: 0.7
Mode: 0
LetterboxInBreaks: 0
WidescreenStoryboard: 0

[Editor]
DistanceSpacing: 1
BeatDivisor: 4
GridSize: 32
TimelineZoom: 1

[Metadata]
Title:Hitomi ni Kakusareta Omoi
TitleUnicode:瞳に隠された想ヒ
Artist:senya
ArtistUnicode:senya
Creator:Satellite
Version:Normal
Source:東方Project
Tags:touhou ハルトマンの妖怪少女 hartmann's youkai girl komeiji koishi 古明地 こいし かませ虎 kamase-tora HiZuMi ikuo NEKO コミックマーケット89 c89 comiket 89 東方地霊殿 Subterranean Animism dagger-gazel wring sellenite nasya n_a_s_y_a
BeatmapID:867397
BeatmapSetID:398921

[Difficulty]
HPDrainRate:3
CircleSize:3.5
OverallDifficulty:3.5
ApproachRate:4.5
SliderMultiplier:1
SliderTickRate:1

[Events]
//Background and Video events
0,0,"BG.png",0,0
//Break Periods
2,137062,144802
//Storyboard Layer 0 (Background)
//Storyboard Layer 1 (Fail)
//Storyboard Layer 2 (Pass)
//Storyboard Layer 3 (Foreground)
//Storyboard Sound Samples

[TimingPoints]
562,375,4,2,1,70,1,0
12562,-100,4,2,1,80,0,0
24562,-100,4,2,1,70,0,0
29062,-100,4,2,1,80,0,0
36374,-100,4,2,1,5,0,0
38062,-100,4,2,1,80,0,1
38249,-100,4,2,1,80,0,0
50062,-100,4,2,1,70,0,0
51562,-100,4,2,1,80,0,0
86062,-100,4,2,1,70,0,0
90562,-100,4,2,1,80,0,0
97874,-100,4,2,1,5,0,0
99562,-100,4,2,1,80,0,1
99749,-100,4,2,1,80,0,0
111562,-100,4,2,1,70,0,0
113062,-100,4,2,1,80,0,0
146062,-100,4,2,1,5,0,0
149812,-100,4,2,1,65,0,0
151312,375,4,2,1,80,1,1
151499,-100,4,2,1,80,0,0
161062,-100,4,2,1,90,0,0
161812,-100,4,2,1,5,0,0
164812,-100,4,2,1,75,0,0

[Colours]
Combo1 : 128,128,255
Combo2 : 192,198,4
Combo3 : 64,128,128
Combo4 : 232,184,17

[HitObjects]
91,234,562,6,0,B|196:220|196:220|237:243,1,150,2|2,0:0|0:0,0:0:0:0:
310,306,1499,2,0,L|319:362,2,50,2|0|2,0:0|0:0|0:0,0:0:0:0:
347,272,2062,2,0,B|351:225|351:225|377:182|377:182|380:130,1,150,2|2,0:0|0:0,0:0:0:0:
349,90,2812,2,0,L|345:37,2,50,2|2|2,0:0|0:0|0:0,0:0:0:0:
274,156,3562,6,0,P|232:171|170:164,1,100,2|0,0:0|0:0,0:0:0:0:
90,117,4312,2,0,L|82:39,2,75,2|2|2,0:0|0:0|0:0,0:0:0:0:
66,161,5062,2,0,L|73:235,2,75,2|2|0,0:0|0:0|0:0,0:0:0:0:
183,67,6187,2,0,L|187:116,1,50,2|2,0:0|0:0,0:0:0:0:
196,166,6562,6,0,B|289:174|256:136|342:144,2,150,2|2|2,0:0|0:0|0:0,0:0:0:0:
103,127,8062,2,0,P|94:166|118:230,1,100,2|0,0:0|0:0,0:0:0:0:
200,268,8812,2,0,B|243:273|273:250|273:250|312:250|341:224,1,150,2|2,0:0|0:0,0:0:0:0:
353,176,9562,6,0,P|318:322|430:222,1,400,2|2,0:0|0:0,0:0:0:0:
65,58,12562,6,0,L|75:163,1,100,4|8,0:0|0:0,0:0:0:0:
59,256,13312,2,0,L|52:307,2,50,2|2|8,3:0|0:0|0:0,0:0:0:0:
152,220,14062,2,0,P|184:219|242:251,1,100,2|8,0:0|0:0,0:0:0:0:
305,328,14812,2,0,P|345:355|395:359,1,100,2|8,3:0|0:0,0:0:0:0:
474,297,15562,6,0,L|483:197,1,100,4|8,0:0|0:0,0:0:0:0:
416,123,16312,2,0,P|448:104|486:98,2,75,2|2|2,3:0|0:0|0:0,0:0:0:0:
384,162,17062,2,0,L|377:236,2,75,4|4|4,0:0|0:0|0:0,0:0:0:0:
318,86,17999,2,0,L|321:33,2,50,2|8|2,0:0|0:0|0:0,0:0:0:0:
289,127,18562,6,0,P|248:144|156:103,2,150,4|2|8,0:0|0:0|0:0,0:0:0:0:
384,162,20062,2,0,P|401:214|397:273,1,100,2|8,0:0|0:0,0:0:0:0:
333,334,20812,2,0,B|239:342|272:304|186:312,1,150,2|0,3:0|0:0,0:0:0:0:
143,336,21562,6,0,L|134:227,1,100,2|8,0:0|0:0,0:0:0:0:
91,146,22312,2,0,L|98:85,2,50,2|2|8,3:0|0:0|0:0,0:0:0:0:
35,228,23062,5,4,0:0:0:0:
134,236,23437,1,4,0:0:0:0:
233,244,23812,1,6,0:0:0:0:
332,252,24187,1,14,0:0:0:0:
431,260,24562,6,0,L|496:264,2,50,4|0|2,0:0|0:0|0:0,0:0:0:0:
390,168,25312,2,0,L|340:164,2,50,0|2|0,0:0|0:0|0:0,0:0:0:0:
490,173,26062,1,4,0:0:0:0:
444,83,26437,1,0,0:0:0:0:
344,74,26812,2,0,L|244:69,1,100,0|0,0:0|0:0,0:0:0:0:
144,63,27562,6,0,L|79:59,2,50,2|2|8,3:0|0:0|0:0,0:0:0:0:
185,155,28312,2,0,L|234:158,2,50,0|2|8,0:0|0:0|0:0,0:0:0:0:
85,150,29062,1,4,0:0:0:0:
131,240,29437,1,4,0:0:0:0:
231,248,29812,2,0,L|330:252,1,100,4|4,0:0|0:0,0:0:0:0:
431,257,30562,6,0,P|417:303|375:342,1,100,4|8,0:0|0:0,0:0:0:0:
289,379,31312,1,2,3:0:0:0:
193,349,31687,1,8,0:0:0:0:
155,256,32062,2,0,P|204:249|252:269,2,100,2|8|2,0:0|0:0|3:0,0:0:0:0:
96,336,33187,1,8,0:0:0:0:
55,244,33562,6,0,P|44:197|51:140,1,100,4|8,0:0|0:0,0:0:0:0:
128,84,34312,2,0,L|120:29,2,50,2|2|8,3:0|0:0|0:0,0:0:0:0:
144,182,35062,5,4,0:0:0:0:
244,172,35437,1,4,0:0:0:0:
344,162,35812,1,4,0:0:0:0:
444,152,36187,1,4,0:0:0:0:
256,192,36374,12,4,38062,0:0:0:0:
403,345,38812,6,0,L|296:335,1,100,4|8,0:0|0:0,0:0:0:0:
211,375,39562,2,0,L|204:264,1,100,4|8,0:0|0:0,0:0:0:0:
264,194,40312,1,2,3:0:0:0:
351,241,40687,1,8,0:0:0:0:
443,203,41062,6,0,P|459:171|455:107,1,100,4|8,0:0|0:0,0:0:0:0:
380,44,41812,2,0,L|279:64,1,100,4|8,0:0|0:0,0:0:0:0:
232,150,42562,2,0,L|131:130,1,100,4|8,0:0|0:0,0:0:0:0:
51,74,43312,2,0,P|35:106|80:214,1,150,4|2,0:0|0:0,0:0:0:0:
111,236,44062,6,0,L|119:339,1,100,4|8,0:0|0:0,0:0:0:0:
212,300,44812,2,0,L|220:200,1,100,2|8,3:0|0:0,0:0:0:0:
227,100,45562,1,4,0:0:0:0:
311,154,45937,1,8,0:0:0:0:
396,99,46312,2,0,P|362:64|314:54,1,100,2|8,3:0|0:0,0:0:0:0:
227,100,47062,6,0,L|221:200,1,100,2|8,3:0|0:0,0:0:0:0:
305,253,47812,1,2,3:0:0:0:
396,212,48187,1,8,0:0:0:0:
311,154,48562,1,4,0:0:0:0:
305,253,48937,1,12,0:0:0:0:
386,310,49312,2,0,P|434:302|492:222,1,150,6|2,0:0|0:0,0:0:0:0:
485,174,50062,5,2,3:0:0:0:
256,368,51187,1,2,0:0:0:0:
175,308,51562,6,0,L|68:299,1,100,4|8,0:0|0:0,0:0:0:0:
36,207,52312,2,0,L|135:215,1,100,2|8,3:0|0:0,0:0:0:0:
235,224,53062,5,4,0:0:0:0:
325,182,53437,1,8,0:0:0:0:
344,84,53812,1,4,0:0:0:0:
437,119,54187,1,8,0:0:0:0:
418,217,54562,2,0,P|389:257|337:280,1,100,4|8,0:0|0:0,0:0:0:0:
248,251,55312,2,0,L|240:90,1,150,4|2,0:0|0:0,0:0:0:0:
235,51,56062,6,0,L|136:39,1,100,4|8,0:0|0:0,0:0:0:0:
48,89,56812,2,0,P|37:125|39:189,1,100,2|8,3:0|0:0,0:0:0:0:
81,277,57562,1,4,0:0:0:0:
173,314,57937,1,8,0:0:0:0:
268,283,58312,1,2,3:0:0:0:
301,188,58687,1,8,0:0:0:0:
230,117,59062,6,0,P|202:185|227:255,1,150,4|2,0:0|0:0,0:0:0:0:
268,283,59812,2,0,L|372:279,1,100,2|8,3:0|0:0,0:0:0:0:
455,327,60562,2,0,L|481:369,2,50,4|2|12,0:0|0:0|0:0,0:0:0:0:
455,227,61312,2,0,L|478:182,2,50,6|0|2,0:0|0:0|3:0,0:0:0:0:
367,279,62062,6,0,L|268:283,1,100,2|8,1:0|0:0,0:0:0:0:
180,331,62812,2,0,L|176:231,1,100,2|8,1:0|0:0,0:0:0:0:
249,162,63562,2,0,P|284:190|343:84,1,200,2|2,1:0|1:0,0:0:0:0:
281,25,64687,1,2,1:0:0:0:
195,76,65062,6,0,L|94:80,1,100,2|8,1:0|0:0,0:0:0:0:
50,169,65812,2,0,L|149:165,1,100,4|8,0:0|0:0,0:0:0:0:
249,167,66562,2,0,B|279:206|279:206|292:260,2,100,4|8|2,0:0|0:0|3:0,0:0:0:0:
195,252,67687,1,8,0:0:0:0:
239,341,68062,6,0,P|317:352|393:263,1,200,2|2,1:0|1:0,0:0:0:0:
382,168,69187,1,8,0:0:0:0:
290,206,69562,2,0,L|295:255,2,50,2|2|8,1:0|0:0|0:0,0:0:0:0:
235,122,70312,2,0,L|240:73,2,50,2|0|8,1:0|0:0|0:0,0:0:0:0:
161,189,71062,6,0,L|50:195,1,100,2|8,1:0|0:0,0:0:0:0:
18,284,71812,2,0,L|117:278,1,100,4|8,0:0|0:0,0:0:0:0:
217,271,72562,1,4,0:0:0:0:
267,184,72937,1,4,0:0:0:0:
208,101,73312,2,0,P|168:163|181:235,1,150,6|2,1:0|0:0,0:0:0:0:
217,271,74062,6,0,B|316:279|316:279|347:237,1,150,4|2,0:0|0:0,0:0:0:0:
398,153,74999,2,0,L|388:103,2,50,2|8|2,0:0|0:0|0:0,0:0:0:0:
437,184,75562,2,0,P|452:229|441:288,1,100,2|8,3:0|0:0,0:0:0:0:
372,349,76312,2,0,L|266:342,1,100,2|8,3:0|0:0,0:0:0:0:
176,372,77062,6,0,B|172:319|172:319|147:281|147:281|142:230,1,150,2|2,3:0|0:0,0:0:0:0:
167,186,77812,2,0,P|198:198|263:175,1,100,2|8,3:0|0:0,0:0:0:0:
302,88,78562,6,0,L|377:99,1,75,4|4,0:0|0:0,0:0:0:0:
449,113,79124,2,0,B|445:143|420:169|388:174|388:174|371:233,1,150,4|8,0:0|0:0,0:0:0:0:
296,298,80062,6,0,B|174:298|227:256|104:252,1,200,2|2,3:0|3:0,0:0:0:0:
41,330,81187,1,8,0:0:0:0:
139,346,81562,2,0,P|183:315|163:174,1,200,4|2,0:0|3:0,0:0:0:0:
77,156,82687,1,8,0:0:0:0:
104,252,83062,6,0,B|227:256|174:298|296:298,1,200,2|2,3:0|3:0,0:0:0:0:
382,347,84187,1,8,0:0:0:0:
468,296,84562,6,0,P|435:260|388:247,1,100,4|12,0:0|0:0,0:0:0:0:
311,181,85312,2,0,P|313:131|289:88,1,100,4|14,0:0|0:0,0:0:0:0:
193,61,86062,6,0,L|202:9,2,50,4|0|2,0:0|0:0|0:0,0:0:0:0:
120,130,86812,2,0,L|129:182,2,50,2|0|2,0:0|0:0|0:0,0:0:0:0:
96,32,87562,1,2,3:0:0:0:
24,101,87937,1,2,0:0:0:0:
44,198,88312,2,0,P|77:222|135:229,1,100,0|2,0:0|0:0,0:0:0:0:
210,163,89062,6,0,L|201:111,2,50,2|2|8,3:0|0:0|0:0,0:0:0:0:
283,232,89812,2,0,L|274:284,2,50,0|2|8,0:0|0:0|0:0,0:0:0:0:
307,134,90562,1,4,0:0:0:0:
379,203,90937,1,4,0:0:0:0:
359,300,91312,2,0,P|326:324|268:331,1,100,4|4,0:0|0:0,0:0:0:0:
187,272,92062,6,0,L|181:167,1,100,4|8,0:0|0:0,0:0:0:0:
177,72,92812,1,2,3:0:0:0:
266,116,93187,1,8,0:0:0:0:
350,65,93562,2,0,P|317:28|269:16,2,100,2|8|2,3:0|0:0|3:0,0:0:0:0:
355,165,94687,1,8,0:0:0:0:
269,217,95062,6,0,P|219:211|177:177,1,100,4|8,0:0|0:0,0:0:0:0:
123,98,95812,2,0,L|129:46,2,50,4|2|8,0:0|0:0|0:0,0:0:0:0:
81,188,96562,5,4,0:0:0:0:
180,181,96937,1,4,0:0:0:0:
279,174,97312,1,4,0:0:0:0:
378,167,97687,1,4,0:0:0:0:
256,192,97874,12,4,99562,0:0:0:0:
178,82,100312,6,0,L|285:92,1,100,4|8,0:0|0:0,0:0:0:0:
351,159,101062,2,0,P|399:155|448:168,2,100,4|8|2,0:0|0:0|3:0,0:0:0:0:
255,187,102187,1,8,0:0:0:0:
326,257,102562,6,0,P|323:307|303:355,1,100,4|8,0:0|0:0,0:0:0:0:
208,381,103312,1,4,0:0:0:0:
133,314,103687,1,8,0:0:0:0:
161,216,104062,2,0,P|203:240|228:284,2,100,4|4|4,0:0|0:0|0:0,0:0:0:0:
63,238,105187,1,8,0:0:0:0:
91,142,105562,6,0,P|139:116|229:146,1,150,4|2,0:0|0:0,0:0:0:0:
258,180,106312,2,0,P|274:137|277:80,1,100,2|8,3:0|0:0,0:0:0:0:
361,28,107062,2,0,P|363:77|380:124,1,100,4|8,0:0|0:0,0:0:0:0:
465,177,107812,1,2,3:0:0:0:
377,225,108187,1,8,0:0:0:0:
464,272,108562,6,0,P|433:308|330:313,1,150,4|2,0:0|0:0,0:0:0:0:
294,288,109312,2,0,L|283:189,1,100,4|8,0:0|0:0,0:0:0:0:
217,113,110062,2,0,L|223:62,2,50,4|2|12,0:0|0:0|0:0,0:0:0:0:
138,174,110812,2,0,L|144:225,2,50,6|0|2,0:0|0:0|3:0,0:0:0:0:
125,74,111562,5,2,3:0:0:0:
400,192,112687,1,2,0:0:0:0:
329,121,113062,6,0,P|308:154|312:231,1,100,4|12,0:0|0:0,0:0:0:0:
206,213,113812,2,0,P|207:164|183:121,1,100,2|8,3:0|0:0,0:0:0:0:
114,189,114562,5,4,0:0:0:0:
86,95,114937,1,8,0:0:0:0:
16,169,115312,2,0,P|16:206|45:262,1,100,2|8,3:0|0:0,0:0:0:0:
140,290,116062,2,0,L|243:282,1,100,4|4,0:0|0:0,0:0:0:0:
315,347,116812,2,0,P|320:278|318:194,1,150,4|2,0:0|0:0,0:0:0:0:
358,167,117562,6,0,L|347:63,1,100,4|8,0:0|0:0,0:0:0:0:
260,17,118312,2,0,P|222:27|189:80,1,100,4|8,0:0|0:0,0:0:0:0:
155,169,119062,1,4,0:0:0:0:
204,255,119437,1,8,0:0:0:0:
302,250,119812,2,0,P|291:202|255:169,1,100,2|8,3:0|0:0,0:0:0:0:
155,169,120562,6,0,L|45:172,1,100,4|8,0:0|0:0,0:0:0:0:
104,257,121312,2,0,L|203:254,1,100,4|8,0:0|0:0,0:0:0:0:
248,164,122062,2,0,L|255:114,2,50,4|2|12,0:0|0:0|0:0,0:0:0:0:
302,250,122812,2,0,L|309:300,2,50,6|0|2,0:0|0:0|3:0,0:0:0:0:
347,161,123562,6,0,P|398:144|429:257,2,200,4|2|4,0:0|3:0|0:0,0:0:0:0:
267,221,125437,2,0,P|248:175|255:123,1,100,4|2,0:0|3:0,0:0:0:0:
308,38,126187,1,12,0:0:0:0:
397,81,126562,6,0,L|405:181,1,100,4|8,0:0|0:0,0:0:0:0:
319,232,127312,2,0,L|311:132,1,100,4|8,0:0|0:0,0:0:0:0:
239,61,128062,2,0,L|248:6,2,50,4|2|12,0:0|0:0|0:0,0:0:0:0:
215,158,128812,2,0,B|173:169|173:169|67:145,1,150,4|2,0:0|0:0,0:0:0:0:
21,162,129562,6,0,P|8:197|66:291,1,150,4|2,0:0|0:0,0:0:0:0:
107,302,130312,2,0,L|206:297,1,100,4|12,0:0|0:0,0:0:0:0:
286,357,131062,1,4,0:0:0:0:
304,258,131437,1,8,0:0:0:0:
225,196,131812,2,0,L|126:201,1,100,4|12,0:0|0:0,0:0:0:0:
100,103,132562,6,0,L|90:51,2,50,4|2|4,0:0|0:0|0:0,0:0:0:0:
199,107,133312,2,0,L|189:55,2,50,4|2|4,0:0|0:0|0:0,0:0:0:0:
298,111,134062,2,0,L|288:59,2,50,4|2|4,0:0|0:0|0:0,0:0:0:0:
389,151,134812,6,0,P|386:185|246:199,1,200,6|2,0:0|0:0,0:0:0:0:
256,192,146062,12,2,149812,3:0:0:0:
92,352,151312,6,0,L|81:232,1,100,4|8,0:0|0:0,0:0:0:0:
120,159,152062,2,0,P|166:131|219:137,1,100,4|8,0:0|0:0,0:0:0:0:
279,206,152812,5,4,0:0:0:0:
365,256,153187,1,8,0:0:0:0:
458,221,153562,2,0,P|467:187|465:121,1,100,2|8,3:0|0:0,0:0:0:0:
380,69,154312,2,0,L|386:14,2,50,4|2|4,0:0|0:0|0:0,0:0:0:0:
308,139,155062,2,0,B|214:150|245:106|162:114,1,150,4|2,0:0|0:0,0:0:0:0:
120,139,155812,6,0,L|110:256,1,100,4|8,0:0|0:0,0:0:0:0:
192,297,156562,2,0,L|200:197,1,100,4|8,0:0|0:0,0:0:0:0:
210,97,157312,1,6,0:0:0:0:
292,153,157687,1,8,0:0:0:0:
379,102,158062,2,0,P|346:65|299:53,1,100,2|8,3:0|0:0,0:0:0:0:
210,97,158812,6,0,L|153:94,2,50,4|2|8,0:0|0:0|0:0,0:0:0:0:
292,153,159562,2,0,L|298:209,2,50,4|2|8,0:0|0:0|0:0,0:0:0:0:
201,196,160312,1,4,0:0:0:0:
118,139,160687,1,6,0:0:0:0:
133,38,161062,2,0,P|178:58|210:97,1,100,6|4,0:0|0:0,0:0:0:0:
256,192,161812,12,4,164812,0:0:0:0:
