osu file format v14

[General]
AudioFilename: Handoru nigitte.mp3
AudioLeadIn: 773
PreviewTime: 73272
Countdown: 0
SampleSet: Soft
StackLeniency: 0.7
Mode: 0
LetterboxInBreaks: 0
WidescreenStoryboard: 0

[Editor]
DistanceSpacing: 1.4
BeatDivisor: 4
GridSize: 4
TimelineZoom: 1

[Metadata]
Title:Handle Nigitte
TitleUnicode:ハンドル握って
Artist:senya
ArtistUnicode:senya
Creator:Alex Li
Version:Normal
Source:
Tags:HiZuMi Saa kogou kamasetora yuuhei satellite mayumi morinaga
BeatmapID:574111
BeatmapSetID:247319

[Difficulty]
HPDrainRate:4
CircleSize:3
OverallDifficulty:4
ApproachRate:5
SliderMultiplier:1.2
SliderTickRate:1

[Events]
//Background and Video events
0,0,"Untitled.jpg",0,0
//Break Periods
2,161227,166681
2,192136,197590
//Storyboard Layer 0 (Background)
//Storyboard Layer 1 (Fail)
//Storyboard Layer 2 (Pass)
//Storyboard Layer 3 (Foreground)
//Storyboard Sound Samples

[TimingPoints]
-591,454.545454545455,4,2,1,40,1,0
1227,-100,4,2,1,40,0,0
8499,-100,4,2,1,65,0,0
59409,-100,4,2,1,40,0,0
73954,-100,4,2,1,65,0,1
103045,-100,4,2,1,65,0,0
117590,-100,4,2,1,40,0,0
132136,-100,4,2,1,65,0,1
161227,-100,4,2,1,65,0,0
206681,-100,4,2,1,65,0,1
221227,-100,4,2,1,65,0,0
248954,-100,4,2,1,55,0,0
249409,-100,4,2,1,45,0,0
249863,-100,4,2,1,15,0,0
250318,-100,4,2,1,5,0,0

[Colours]
Combo1 : 149,66,189
Combo2 : 44,122,141
Combo3 : 167,167,167
Combo4 : 58,18,248

[HitObjects]
128,80,1227,6,0,L|120:200,1,120,0|0,0:0|0:0,0:0:0:0:
196,348,2136,2,0,L|204:228,1,120,2|0,0:0|0:0,0:0:0:0:
324,112,3045,2,0,L|432:108,2,90,0|0|0,0:0|0:0|0:0,0:0:0:0:
248,76,3954,1,2,0:0:0:0:
388,284,4636,1,0,0:0:0:0:
320,336,4863,6,0,B|284:352|284:352|180:348,1,120,0|0,0:0|0:0,0:0:0:0:
108,212,5772,2,0,P|100:256|100:272,2,60,2|0|0,0:0|0:0|0:0,0:0:0:0:
164,148,6454,1,0,0:0:0:0:
232,196,6681,2,0,P|288:180|352:192,2,120,0|0|2,0:0|0:0|0:0,0:0:0:0:
424,360,8272,1,0,0:0:0:0:
456,284,8499,6,0,P|460:224|460:184,2,90,4|0|0,1:0|0:0|0:0,0:0:0:0:
380,244,9409,2,0,L|308:248,1,60,0|0,0:0|0:0,0:0:0:0:
256,300,9863,1,8,0:0:0:0:
96,344,10318,2,0,P|152:352|200:352,2,90,4|0|0,1:0|0:0|0:0,0:0:0:0:
52,272,11227,2,0,P|48:216|48:192,1,60,0|0,0:0|0:0,0:0:0:0:
92,140,11681,1,8,0:0:0:0:
240,64,12136,6,0,P|336:68|376:68,1,120,4|8,1:0|0:0,0:0:0:0:
484,180,13045,2,0,P|388:184|348:184,1,120,4|8,1:0|0:0,0:0:0:0:
280,180,13727,1,0,0:0:0:0:
388,308,14181,2,0,P|384:328|380:368,1,60,0|0,1:0|1:0,0:0:0:0:
224,308,14863,2,0,B|196:296|196:296|152:288|92:308,1,120,0|8,0:0|0:0,0:0:0:0:
36,152,15772,6,0,B|104:160|88:144|160:152,1,120,4|8,1:0|0:0,0:0:0:0:
232,112,16454,2,0,P|240:88|244:44,1,60,0|0,0:0|0:0,0:0:0:0:
352,184,17136,1,8,0:0:0:0:
424,336,17590,6,0,P|360:336|300:344,1,120,0|8,0:0|0:0,0:0:0:0:
236,296,18272,2,0,P|219:291|164:284,1,60,0|0,0:0|0:0,0:0:0:0:
28,364,18954,1,8,0:0:0:0:
64,200,19409,6,0,B|48:156|48:156|48:116|68:80,1,120,0|8,0:0|0:0,0:0:0:0:
228,36,20318,2,0,B|245:66|245:106|245:106|229:150,1,120,0|8,0:0|0:0,0:0:0:0:
352,264,21227,1,0,0:0:0:0:
436,256,21454,2,0,L|496:252,2,60,0|8|0,0:0|0:0|0:0,0:0:0:0:
404,336,22136,2,0,P|340:324|280:340,1,120,0|8,0:0|0:0,0:0:0:0:
120,324,23045,6,0,L|112:184,1,120,0|8,0:0|0:0,0:0:0:0:
240,92,23954,1,0,0:0:0:0:
235,175,24181,2,0,L|231:239,2,60,0|8|0,0:0|0:0|0:0,0:0:0:0:
312,136,24863,1,0,0:0:0:0:
472,188,25318,1,8,0:0:0:0:
380,328,25772,2,0,L|312:332,1,60,0|0,0:0|0:0,0:0:0:0:
252,280,26227,2,0,L|184:276,1,60,8|0,0:0|0:0,0:0:0:0:
120,320,26681,6,0,P|108:264|128:224,2,90,0|0|4,0:0|0:0|1:0,0:0:0:0:
24,180,27818,2,0,L|20:120,1,60,0|8,0:0|0:0,0:0:0:0:
60,48,28272,1,0,0:0:0:0:
128,96,28499,2,0,B|168:84|168:84|256:92,2,120,0|4|0,0:0|1:0|0:0,0:0:0:0:
280,168,29863,1,8,0:0:0:0:
416,68,30318,6,0,B|468:108|460:180|460:180|440:248,1,180,4|0,0:0|0:0,0:0:0:0:
472,312,31227,2,0,P|420:312|368:268,1,120,0|0,0:0|0:0,0:0:0:0:
228,360,32136,2,0,B|124:344|156:372|48:356,1,180,0|0,0:0|0:0,0:0:0:0:
8,284,33045,1,0,0:0:0:0:
28,116,33499,1,0,0:0:0:0:
192,148,33954,6,0,B|272:144|272:144|288:132|288:132|376:128,1,180,0|0,0:0|0:0,0:0:0:0:
416,196,34863,1,0,0:0:0:0:
252,236,35318,2,0,L|248:304,1,60,0|0,0:0|0:0,0:0:0:0:
184,348,35772,2,0,P|156:344|64:340,1,120,0|0,0:0|0:0,0:0:0:0:
8,184,36681,2,0,P|36:180|128:176,1,120,0|0,0:0|1:0,0:0:0:0:
272,260,37590,6,0,B|232:240|192:236|192:236|224:192|204:132,1,180,4|0,1:0|0:0,0:0:0:0:
264,84,38499,2,0,P|324:76|392:76,1,120,0|0,0:0|0:0,0:0:0:0:
460,116,39181,1,0,0:0:0:0:
456,200,39409,2,0,B|484:280|428:328|428:328|376:320,1,180,4|0,1:0|1:0,0:0:0:0:
224,360,40545,1,0,0:0:0:0:
152,320,40772,2,0,P|120:316|88:316,1,60,0|0,0:0|0:0,0:0:0:0:
24,364,41227,6,0,P|35:286|40:228,1,120,4|0,1:0|0:0,0:0:0:0:
136,108,42136,2,0,P|141:167|150:226,1,120,0|0,0:0|0:0,0:0:0:0:
280,336,43045,2,0,P|316:332|412:328,1,120,0|0,0:0|0:0,0:0:0:0:
452,264,43727,2,0,P|448:220|448:196,1,60,0|0,0:0|0:0,0:0:0:0:
372,56,44409,2,0,P|368:100|368:124,1,60,0|0,0:0|0:0,0:0:0:0:
320,184,44863,6,0,B|252:168|192:192|192:192|132:168,1,180,4|0,0:0|0:0,0:0:0:0:
84,116,45772,2,0,P|60:176|84:232,1,120,0|8,0:0|0:0,0:0:0:0:
144,276,46454,1,0,0:0:0:0:
228,276,46681,2,0,B|276:256|336:276|336:276|404:304,1,180,0|0,0:0|0:0,0:0:0:0:
468,252,47590,2,0,P|472:196|448:132,1,120,0|8,0:0|0:0,0:0:0:0:
296,72,48499,6,0,B|212:108|212:108|116:88,1,180,0|0,0:0|0:0,0:0:0:0:
72,156,49409,2,0,P|64:220|68:280,1,120,0|8,0:0|0:0,0:0:0:0:
120,340,50090,1,0,0:0:0:0:
200,312,50318,2,0,P|264:328|324:312,1,120,0|8,0:0|0:0,0:0:0:0:
464,240,51227,2,0,P|400:224|340:240,1,120,0|8,0:0|0:0,0:0:0:0:
480,340,52136,6,0,B|484:288|464:240|464:240|492:156,1,180,4|0,1:0|0:0,0:0:0:0:
496,84,53045,2,0,P|433:100|405:151,1,120,0|8,0:0|0:0,0:0:0:0:
384,228,53727,1,0,0:0:0:0:
308,188,53954,2,0,P|224:200|184:200,1,120,4|0,1:0|0:0,0:0:0:0:
156,124,54636,2,0,P|240:112|280:112,1,120,4|0,1:0|0:0,0:0:0:0:
344,64,55318,1,8,0:0:0:0:
420,212,55772,6,0,L|412:332,1,120,4|8,1:0|0:0,0:0:0:0:
248,372,56681,2,0,L|240:252,1,120,0|8,0:0|0:0,0:0:0:0:
140,116,57590,2,0,P|210:98|284:88,1,120,2|10,0:0|0:0,0:0:0:0:
412,24,58499,2,0,P|352:13|294:0,1,120,2|10,0:0|0:0,0:0:0:0:
384,140,59409,5,4,0:0:0:0:
416,220,59636,2,0,L|444:288,2,60,4|0|0,0:0|0:0|0:0,0:0:0:0:
332,208,60318,2,0,P|276:208|204:196,1,120,0|0,0:0|0:0,0:0:0:0:
64,120,61227,2,0,P|120:120|192:108,1,120,0|2,0:0|0:0,0:0:0:0:
336,36,62136,2,0,P|280:36|208:24,1,120,2|2,0:0|0:0,0:0:0:0:
140,176,63045,6,0,P|132:240|152:316,1,120,4|0,1:0|0:0,0:0:0:0:
212,340,63727,1,0,0:0:0:0:
288,304,63954,2,0,P|368:292|420:304,1,120,4|0,1:0|0:0,0:0:0:0:
472,144,64863,2,0,L|484:284,1,120,4|0,1:0|0:0,0:0:0:0:
476,348,65545,1,0,0:0:0:0:
476,348,65772,1,4,1:0:0:0:
248,104,66681,6,0,L|116:84,1,120,4|0,1:0|0:0,0:0:0:0:
48,68,67363,1,0,0:0:0:0:
68,148,67590,2,0,P|48:216|64:272,2,120,0|0|0,0:0|0:0|0:0,0:0:0:0:
180,276,68954,1,2,0:0:0:0:
332,348,69409,2,0,P|280:360|212:355,1,120,2|2,0:0|0:0,0:0:0:0:
356,264,70318,6,0,P|360:188|364:140,1,120,4|0,1:0|0:0,0:0:0:0:
484,264,71227,2,0,P|488:323|491:383,1,120,4|0,1:0|0:0,0:0:0:0:
328,348,72136,2,0,B|268:324|260:272|272:232|272:232|248:276|220:296|188:300|156:300|120:268|112:236|120:208,1,360,4|0,1:0|0:0,0:0:0:0:
44,68,73954,6,0,P|24:116|48:192,1,120,4|8,1:0|0:0,0:0:0:0:
204,144,74863,2,0,P|219:87|198:31,1,120,0|8,0:0|0:0,0:0:0:0:
320,148,75772,2,0,P|368:132|428:152,2,90,0|0|0,0:0|0:0|0:0,0:0:0:0:
372,216,76681,2,0,B|380:296|380:296|424:304,1,120,0|8,0:0|0:0,0:0:0:0:
256,348,77590,6,0,P|200:336|136:344,1,120,0|8,0:0|0:0,0:0:0:0:
24,220,78499,2,0,L|16:160,1,60,0|0,0:0|0:0,0:0:0:0:
92,124,78954,2,0,L|84:64,1,60,8|0,0:0|0:0,0:0:0:0:
160,32,79409,2,0,P|232:20|284:32,1,120,0|8,0:0|0:0,0:0:0:0:
340,88,80090,1,0,0:0:0:0:
300,160,80318,2,0,P|228:172|176:160,1,120,0|8,0:0|0:0,0:0:0:0:
140,324,81227,6,0,L|48:320,2,90,4|0|0,1:0|0:0|0:0,0:0:0:0:
208,376,82136,2,0,P|224:320|196:256,1,120,0|0,0:0|0:0,0:0:0:0:
364,316,83045,2,0,L|368:216,2,90,0|0|0,0:0|0:0|0:0,0:0:0:0:
420,380,83954,2,0,B|448:368|448:368|452:276,1,120,0|0,0:0|0:0,0:0:0:0:
400,120,84863,6,0,P|304:116|260:100,1,120,0|8,0:0|0:0,0:0:0:0:
132,184,85772,2,0,P|228:188|272:204,1,120,0|8,0:0|0:0,0:0:0:0:
384,296,86681,2,0,P|328:316|276:292,2,120,0|8|4,0:0|0:0|1:0,0:0:0:0:
452,244,87818,2,0,P|484:252|516:252,1,60,0|4,0:0|1:0,0:0:0:0:
396,132,88499,6,0,L|324:244,1,120,4|8,1:0|0:0,0:0:0:0:
164,252,89409,2,0,L|228:151,1,120,0|8,0:0|0:0,0:0:0:0:
152,0,90318,2,0,L|104:78,2,90,0|0|0,0:0|0:0|0:0,0:0:0:0:
212,60,91227,2,0,L|148:161,1,120,0|8,0:0|0:0,0:0:0:0:
72,312,92136,6,0,P|128:300|196:316,1,120,0|8,0:0|0:0,0:0:0:0:
344,380,93045,2,0,P|356:352|360:316,1,60,0|0,0:0|0:0,0:0:0:0:
436,284,93499,2,0,P|432:253|417:220,1,60,8|0,0:0|0:0,0:0:0:0:
448,148,93954,2,0,P|388:124|344:124,2,90,8|8|4,0:0|0:0|1:0,0:0:0:0:
464,64,94863,2,0,P|440:52|400:44,1,60,0|0,0:0|0:0,0:0:0:0:
324,44,95318,1,8,0:0:0:0:
172,112,95772,6,0,B|152:60|152:60|156:24,2,90,4|0|0,1:0|0:0|0:0,0:0:0:0:
220,180,96681,2,0,B|168:168|168:168|88:184,1,120,0|8,0:0|0:0,0:0:0:0:
136,344,97590,2,0,L|44:364,2,90,0|0|0,0:0|0:0|0:0,0:0:0:0:
156,260,98499,2,0,P|204:292|220:360,1,120,0|8,0:0|0:0,0:0:0:0:
389,349,99409,6,0,P|405:292|454:259,1,120,0|8,0:0|0:0,0:0:0:0:
460,92,100318,2,0,L|392:96,1,60,0|0,0:0|0:0,0:0:0:0:
332,144,100772,2,0,L|264:140,1,60,8|0,0:0|0:0,0:0:0:0:
208,84,101227,2,0,P|188:144|212:200,1,120,0|8,0:0|0:0,0:0:0:0:
284,228,101909,1,0,0:0:0:0:
220,280,102136,2,0,B|152:292|168:272|100:280,1,120,0|8,0:0|0:0,0:0:0:0:
244,368,103045,6,0,B|300:360|328:340|328:340|364:360|432:360,1,180,4|0,0:0|0:0,0:0:0:0:
480,308,103954,2,0,P|496:228|468:188,1,120,0|8,0:0|0:0,0:0:0:0:
328,124,104863,2,0,B|448:116|448:116|488:48,1,180,0|0,0:0|0:0,0:0:0:0:
400,32,105772,2,0,L|272:40,1,120,0|8,0:0|0:0,0:0:0:0:
112,60,106681,6,0,B|92:160|132:140|112:257,1,180,0|0,0:0|0:0,0:0:0:0:
160,312,107590,2,0,P|212:332|272:308,1,120,0|8,0:0|0:0,0:0:0:0:
172,172,108499,2,0,P|117:150|62:170,1,120,0|8,0:0|0:0,0:0:0:0:
188,56,109409,2,0,P|231:44|252:36,1,60,0|0,0:0|0:0,0:0:0:0:
292,108,109863,2,0,P|335:119|357:122,1,60,8|0,0:0|0:0,0:0:0:0:
400,192,110318,6,0,B|380:280|380:280|408:368,1,180,4|0,1:0|0:0,0:0:0:0:
324,360,111227,2,0,P|272:372|204:360,1,120,0|8,0:0|0:0,0:0:0:0:
132,324,111909,1,0,0:0:0:0:
56,360,112136,2,0,P|44:260|52:232,1,120,4|8,1:0|0:0,0:0:0:0:
108,184,112818,2,0,P|166:170|225:176,1,120,4|0,1:0|0:0,0:0:0:0:
304,200,113499,1,8,0:0:0:0:
368,44,113954,6,0,L|380:168,1,120,4|8,1:0|0:0,0:0:0:0:
236,248,114863,2,0,L|224:372,1,120,0|8,0:0|0:0,0:0:0:0:
80,280,115772,6,0,L|91:160,1,120,2|10,0:0|0:0,0:0:0:0:
220,52,116681,2,0,P|231:109|204:162,1,120,2|10,0:0|0:0,0:0:0:0:
164,324,117590,6,0,P|216:316|300:320,1,120,4|0,0:0|0:0,0:0:0:0:
436,244,118499,2,0,P|384:236|300:240,2,120,0|0|0,0:0|0:0|0:0,0:0:0:0:
292,156,119863,2,0,P|232:153|172:162,2,120,2|2|2,0:0|0:0|0:0,0:0:0:0:
136,92,121227,6,0,P|96:144|104:200,1,120,4|0,1:0|0:0,0:0:0:0:
168,348,122136,2,0,P|208:296|200:240,2,120,4|0|4,1:0|0:0|1:0,0:0:0:0:
416,304,123727,2,0,L|432:368,1,60,0|4,0:0|1:0,0:0:0:0:
456,28,124863,6,0,L|440:92,1,60,4|0,1:0|0:0,0:0:0:0:
444,172,125318,2,0,L|460:236,1,60,0|0,0:0|0:0,0:0:0:0:
416,304,125772,2,0,L|296:296,2,120,0|0|0,0:0|0:0|0:0,0:0:0:0:
280,208,127136,2,0,P|240:152|252:100,2,120,0|2|0,0:0|0:0|0:0,0:0:0:0:
204,356,128499,6,0,P|112:352|84:352,1,120,4|0,1:0|0:0,0:0:0:0:
4,204,129409,2,0,P|63:203|123:199,1,120,4|0,1:0|0:0,0:0:0:0:
236,72,130318,1,4,1:0:0:0:
236,72,132136,6,0,L|240:168,2,90,4|2|2,1:0|0:0|0:0,0:0:0:0:
320,84,133045,2,0,P|368:78|392:76,1,60,0|0,0:0|0:0,0:0:0:0:
460,108,133499,1,8,0:0:0:0:
404,268,133954,2,0,L|296:256,2,90,0|2|2,0:0|0:0|0:0,0:0:0:0:
476,228,134863,2,0,P|480:292|448:340,1,120,0|8,0:0|0:0,0:0:0:0:
284,340,135772,6,0,L|160:328,1,120,0|8,0:0|0:0,0:0:0:0:
12,260,136681,2,0,P|0:212|0:196,1,60,0|0,0:0|0:0,0:0:0:0:
72,156,137136,2,0,P|84:108|84:92,1,60,8|0,0:0|0:0,0:0:0:0:
44,24,137590,2,0,B|88:36|88:36|176:28,1,120,0|8,0:0|0:0,0:0:0:0:
320,84,138499,2,0,P|356:80|384:68,2,60,0|0|8,0:0|0:0|0:0,0:0:0:0:
224,224,139409,6,0,P|219:258|220:332,2,90,4|0|0,0:0|0:0|0:0,0:0:0:0:
304,248,140318,2,0,P|364:256|432:240,1,120,0|8,0:0|0:0,0:0:0:0:
336,100,141227,2,0,P|340:65|340:-8,2,90
256,72,142136,2,0,P|196:64|128:80,1,120,0|8,0:0|0:0,0:0:0:0:
56,224,143045,6,0,L|68:348,1,120,0|8,0:0|0:0,0:0:0:0:
190,228,143954,2,0,L|178:104,1,120,0|8,0:0|0:0,0:0:0:0:
324,20,144863,2,0,P|308:80|340:136,1,120,0|8,0:0|0:0,0:0:0:0:
392,72,145545,1,0,0:0:0:0:
412,152,145772,2,0,B|424:232|424:232|396:280,1,120,4|4,1:0|1:0,0:0:0:0:
252,340,146681,6,0,L|160:348,2,90,4|2|2,1:0|0:0|0:0,0:0:0:0:
304,272,147590,2,0,P|341:227|335:169,1,120,0|8,0:0|0:0,0:0:0:0:
168,144,148499,2,0,L|160:36,2,90,0|2|2,0:0|0:0|0:0,0:0:0:0:
196,224,149409,2,0,B|140:244|136:212|76:224,1,120,0|8,0:0|0:0,0:0:0:0:
220,312,150318,6,0,P|288:296|336:308,1,120,0|8,0:0|0:0,0:0:0:0:
500,272,151227,2,0,L|488:208,1,60,0|0,0:0|0:0,0:0:0:0:
436,148,151681,2,0,L|448:84,1,60,8|0,0:0|0:0,0:0:0:0:
388,28,152136,2,0,B|328:32|328:32|288:16,2,90,8|8|4,0:0|0:0|1:0,0:0:0:0:
472,8,153045,1,0,0:0:0:0:
344,120,153499,1,8,0:0:0:0:
456,244,153954,6,0,L|452:340,2,90,4|0|0,1:0|0:0|0:0,0:0:0:0:
372,228,154863,2,0,B|312:216|316:248|248:236,1,120,0|8,0:0|0:0,0:0:0:0:
84,244,155772,2,0,P|76:292|96:336,2,90,0|0|0,0:0|0:0|0:0,0:0:0:0:
160,280,156681,2,0,P|164:228|120:168,1,120,0|8,0:0|0:0,0:0:0:0:
28,40,157590,6,0,B|88:52|88:52|145:41,1,120,0|8,0:0|0:0,0:0:0:0:
220,84,158272,1,0,0:0:0:0:
292,40,158499,2,0,B|349:50|349:50|409:38,1,120,0|8,0:0|0:0,0:0:0:0:
432,204,159409,2,0,L|416:324,1,120,0|8,0:0|0:0,0:0:0:0:
336,296,160090,1,0,0:0:0:0:
256,320,160318,2,0,L|240:201,1,120,0|8,0:0|0:0,0:0:0:0:
56,108,168499,6,0,L|180:116,1,120,4|8,1:0|0:0,0:0:0:0:
224,184,169181,2,0,L|216:264,1,60,0|0,0:0|0:0,0:0:0:0:
100,364,169863,1,8,0:0:0:0:
264,328,170318,2,0,P|300:280|308:220,1,120,0|8,0:0|0:0,0:0:0:0:
376,172,170999,2,0,P|415:177|448:176,1,60,0|0,0:0|0:0,0:0:0:0:
300,80,171681,1,8,0:0:0:0:
132,64,172136,6,0,B|96:112|96:112|112:172,1,120,0|8,0:0|0:0,0:0:0:0:
192,188,172818,1,0,0:0:0:0:
136,248,173045,2,0,P|88:248|36:192,1,120,0|8,0:0|0:0,0:0:0:0:
128,344,173954,2,0,P|184:340|220:348,2,90,0|0|0,0:0|0:0|0:0,0:0:0:0:
48,312,174863,2,0,P|24:260|40:200,1,120,0|8,0:0|0:0,0:0:0:0:
156,80,175772,6,0,L|168:148,1,60,4|0,1:0|0:0,0:0:0:0:
228,200,176227,2,0,L|296:204,1,60,8|0,0:0|0:0,0:0:0:0:
356,152,176681,2,0,P|372:208|344:272,1,120,0|8,0:0|0:0,0:0:0:0:
204,344,177590,2,0,L|72:332,1,120,0|8,0:0|0:0,0:0:0:0:
28,268,178272,2,0,P|20:216|20:200,1,60,0|0,0:0|0:0,0:0:0:0:
108,64,178954,1,8,0:0:0:0:
192,212,179409,6,0,L|324:200,1,120,0|8,0:0|0:0,0:0:0:0:
440,92,180318,2,0,L|308:80,1,120,0|8,0:0|0:0,0:0:0:0:
416,220,181227,2,0,P|414:264|408:328,2,90,0|0|4,0:0|0:0|1:0,0:0:0:0:
192,336,182590,2,0,L|124:328,1,60,0|0,0:0|0:0,0:0:0:0:
64,280,183045,6,0,B|32:244|36:200|36:200|56:168,1,120,4|8,0:0|0:0,0:0:0:0:
108,108,183727,1,0,0:0:0:0:
192,124,183954,2,0,B|224:160|220:204|220:204|200:236,1,120,0|8,0:0|0:0,0:0:0:0:
336,336,184863,2,0,L|396:348,1,60,0|0,0:0|0:0,0:0:0:0:
412,264,185318,2,0,L|353:252,1,60,8|0,0:0|0:0,0:0:0:0:
300,188,185772,2,0,P|328:132|316:72,1,120,0|8,0:0|0:0,0:0:0:0:
188,184,186681,6,0,L|192:304,2,120,0|8|0,0:0|0:0|0:0,0:0:0:0:
148,108,187818,1,0,0:0:0:0:
76,152,188045,2,0,P|48:148|12:148,1,60,8|0,0:0|0:0,0:0:0:0:
256,192,188499,12,4,190318,1:0:0:0:
128,72,199409,6,0,P|104:124|132:192,1,120,4|8,1:0|0:0,0:0:0:0:
220,316,200318,2,0,L|124:312,2,90,0|0|0,0:0|0:0|0:0,0:0:0:0:
292,360,201227,2,0,P|276:296|288:240,1,120,4|8,1:0|0:0,0:0:0:0:
456,252,202136,2,0,P|464:292|456:348,2,90,0|0|0,0:0|0:0|0:0,0:0:0:0:
388,200,203045,6,0,P|432:144|320:72,2,240,4|4|0,1:0|1:0|0:0,0:0:0:0:
244,112,205318,2,0,L|240:172,2,60,8|0|4,0:0|0:0|1:0,0:0:0:0:
24,368,206681,6,0,L|16:268,2,90,4|2|2,1:0|0:0|0:0,0:0:0:0:
100,336,207590,2,0,P|152:344|224:320,1,120,0|8,0:0|0:0,0:0:0:0:
116,188,208499,2,0,L|16:196,2,90,0|2|2,0:0|0:0|0:0,0:0:0:0:
176,128,209409,2,0,P|232:146|291:138,1,120,0|8,0:0|0:0,0:0:0:0:
428,40,210318,6,0,P|464:104|440:156,1,120,0|8,0:0|0:0,0:0:0:0:
296,216,211227,2,0,L|376:208,1,60,0|0,0:0|0:0,0:0:0:0:
424,260,211681,2,0,L|504:268,1,60,8|0,0:0|0:0,0:0:0:0:
476,348,212136,2,0,L|384:340,2,90,8|8|4,0:0|0:0|1:0,0:0:0:0:
232,288,213499,1,8,0:0:0:0:
68,244,213954,6,0,P|44:196|52:140,2,90,4|0|0,1:0|0:0|0:0,0:0:0:0:
124,180,214863,2,0,L|136:48,1,120,0|8,0:0|0:0,0:0:0:0:
296,104,215772,2,0,P|340:108|392:100,2,90,0|0|0,0:0|0:0|0:0,0:0:0:0:
224,60,216681,2,0,L|234:179,1,120,0|8,0:0|0:0,0:0:0:0:
304,332,217590,6,0,P|372:324|424:328,1,120,0|8,0:0|0:0,0:0:0:0:
500,180,218499,2,0,L|440:188,1,60,0|0,0:0|0:0,0:0:0:0:
360,164,218954,1,8,0:0:0:0:
196,208,219409,2,0,L|184:340,1,120,0|8,0:0|0:0,0:0:0:0:
108,356,220090,1,0,0:0:0:0:
44,300,220318,2,0,P|32:256|32:240,1,60,0|0,0:0|0:0,0:0:0:0:
84,176,220772,2,0,P|96:132|96:116,1,60,8|0,0:0|0:0,0:0:0:0:
44,52,221227,6,0,P|96:32|136:44,2,90,4|2|2,1:0|0:0|0:0,0:0:0:0:
200,116,222363,2,0,L|312:108,1,90,2|2,0:0|0:0,0:0:0:0:
388,188,223045,2,0,P|336:208|296:196,2,90,0|2|2,0:0|0:0|0:0,0:0:0:0:
292,324,224181,2,0,P|244:320|196:320,1,90,2|2,0:0|0:0,0:0:0:0:
92,256,224863,6,0,P|72:324|80:352,2,90,0|2|2,0:0|0:0|0:0,0:0:0:0:
180,112,225999,2,0,P|182:67|163:27,1,90,2|2,0:0|0:0,0:0:0:0:
280,76,226681,2,0,L|340:64,2,60,0|2|10,0:0|0:0|0:0,0:0:0:0:
264,160,227363,1,2,0:0:0:0:
336,204,227590,2,0,P|392:188|456:204,1,120,2|8,0:0|0:0,0:0:0:0:
372,352,228499,6,0,P|314:365|256:349,1,120,4|8,1:0|0:0,0:0:0:0:
96,304,229409,2,0,L|104:240,1,60,0|0,0:0|0:0,0:0:0:0:
48,184,229863,2,0,L|56:120,1,60,8|0,0:0|0:0,0:0:0:0:
16,48,230318,2,0,B|60:40|60:40|136:64,1,120,0|8,0:0|0:0,0:0:0:0:
260,172,231227,2,0,P|292:156|312:136,1,60,0|0,0:0|0:0,0:0:0:0:
260,72,231681,2,0,P|232:84|210:104,1,60,8|0,0:0|0:0,0:0:0:0:
176,180,232136,6,0,L|180:292,2,90,4|4|4,1:0|1:0|1:0,0:0:0:0:
224,340,233272,2,0,L|292:344,1,60,0|8,0:0|0:0,0:0:0:0:
344,284,233727,1,0,0:0:0:0:
412,332,233954,2,0,P|424:260|392:216,1,120,0|4,0:0|1:0,0:0:0:0:
232,212,234863,2,0,P|205:159|220:102,1,120,0|8,0:0|0:0,0:0:0:0:
376,164,235772,6,0,L|500:160,2,120,4|8|0,1:0|0:0|0:0,0:0:0:0:
256,48,237136,1,8,0:0:0:0:
136,164,237590,2,0,L|12:160,2,120,0|8|0,0:0|0:0|0:0,0:0:0:0:
256,284,238954,1,8,0:0:0:0:
412,344,239409,6,0,L|280:360,1,120,0|8,0:0|0:0,0:0:0:0:
256,284,240090,1,0,0:0:0:0:
220,208,240318,2,0,L|88:192,1,120,0|8,0:0|0:0,0:0:0:0:
244,104,241227,2,0,L|308:92,1,60,0|0,0:0|0:0,0:0:0:0:
356,156,241681,2,0,L|420:168,1,60,8|0,0:0|0:0,0:0:0:0:
496,140,242136,2,0,B|472:180|472:180|464:216|492:272,1,120,0|8,0:0|0:0,0:0:0:0:
364,372,243045,6,0,L|364:312|360:252,1,120,4|8,1:0|0:0,0:0:0:0:
216,168,243954,2,0,L|212:228|212:288,1,120,0|8,0:0|0:0,0:0:0:0:
64,364,244863,1,0,0:0:0:0:
12,204,245318,1,8,0:0:0:0:
112,72,245772,2,0,L|108:136,2,60,0|0|8,0:0|0:0|0:0,0:0:0:0:
272,120,246681,6,0,L|380:108,2,90,4|4|4,1:0|1:0|1:0,0:0:0:0:
396,232,247818,2,0,L|388:296,1,60,0|8,0:0|0:0,0:0:0:0:
328,352,248272,1,0,0:0:0:0:
256,192,248499,12,0,250318,0:0:0:0:
