osu file format v14

[General]
AudioFilename: Handoru nigitte.mp3
AudioLeadIn: 773
PreviewTime: 73272
Countdown: 0
SampleSet: Soft
StackLeniency: 0.7
Mode: 0
LetterboxInBreaks: 0
WidescreenStoryboard: 0

[Editor]
DistanceSpacing: 1
BeatDivisor: 2
GridSize: 4
TimelineZoom: 0.6

[Metadata]
Title:Handle Nigitte
TitleUnicode:ハンドル握って
Artist:senya
ArtistUnicode:senya
Creator:Alex Li
Version:Easy
Source:
Tags:HiZuMi Saa kogou kamasetora yuuhei satellite mayumi morinaga
BeatmapID:574110
BeatmapSetID:247319

[Difficulty]
HPDrainRate:2
CircleSize:3
OverallDifficulty:2
ApproachRate:3
SliderMultiplier:0.8
SliderTickRate:1

[Events]
//Background and Video events
0,0,"Untitled.jpg",0,0
//Break Periods
2,161427,166681
2,192136,197590
//Storyboard Layer 0 (Background)
//Storyboard Layer 1 (Fail)
//Storyboard Layer 2 (Pass)
//Storyboard Layer 3 (Foreground)
//Storyboard Sound Samples

[TimingPoints]
-591,454.545454545455,4,2,1,40,1,0
1227,-100,4,2,1,40,0,0
8499,-100,4,2,1,65,0,0
59409,-100,4,2,1,40,0,0
73954,-100,4,2,1,65,0,1
103045,-100,4,2,1,65,0,0
117590,-100,4,2,1,40,0,0
132136,-100,4,2,1,65,0,1
157590,-100,4,2,1,25,0,1
158499,-100,4,2,1,35,0,1
159409,-100,4,2,1,45,0,1
160318,-100,4,2,1,45,0,1
161227,-100,4,2,1,65,0,0
206681,-100,4,2,1,65,0,1
221227,-100,4,2,1,65,0,0
248954,-100,4,2,1,55,0,0
249409,-100,4,2,1,40,0,0
249863,-100,4,2,1,15,0,0
250318,-100,4,2,1,5,0,0

[Colours]
Combo1 : 149,66,189
Combo2 : 44,122,141
Combo3 : 167,167,167
Combo4 : 58,18,248

[HitObjects]
112,80,1227,6,0,P|72:144|116:224,1,160,0|2,0:0|0:0,0:0:0:0:
152,152,2590,1,0,0:0:0:0:
200,88,3045,2,0,P|231:158|191:223,1,160,0|2,0:0|0:0,0:0:0:0:
96,352,4863,6,0,B|188:340|164:364|256:352,1,160,0|2,0:0|0:0,0:0:0:0:
316,300,6227,1,0,0:0:0:0:
392,328,6681,2,0,P|364:256|404:176,1,160,0|2,0:0|0:0,0:0:0:0:
288,64,8499,6,0,B|248:60|248:60|208:64,1,80,4|8,1:0|0:0,0:0:0:0:
208,144,9409,2,0,B|248:148|248:148|288:144,1,80,0|8,0:0|0:0,0:0:0:0:
356,104,10318,2,0,P|364:144|356:184,1,80,4|8,1:0|0:0,0:0:0:0:
292,232,11227,2,0,P|284:272|292:312,1,80,0|8,0:0|0:0,0:0:0:0:
352,364,12136,6,0,B|316:352|316:352|268:368|268:368|204:372|164:332|164:332|120:336,1,240,4|8,1:0|0:0,0:0:0:0:
100,260,13954,2,0,B|144:252|144:252|188:188|136:136|136:136|176:144|216:124,1,240,0|8,0:0|0:0,0:0:0:0:
244,60,15772,6,0,L|324:52,1,80,4|8,1:0|0:0,0:0:0:0:
384,104,16681,2,0,L|464:96,1,80,0|8,0:0|0:0,0:0:0:0:
468,176,17590,2,0,L|308:192,1,160,0|0,0:0|0:0,0:0:0:0:
288,116,18954,1,8,0:0:0:0:
228,172,19409,6,0,P|240:240|232:332,2,160,0|0|0,0:0|0:0|0:0,0:0:0:0:
172,116,21681,1,8,0:0:0:0:
128,184,22136,2,0,B|88:188|88:188|44:184,1,80,0|8,0:0|0:0,0:0:0:0:
0,120,23045,6,0,B|12:192|12:192|8:280,1,160,0|0,0:0|0:0,0:0:0:0:
168,278,24863,2,0,B|164:191|164:191|176:119,1,160,0|0,0:0|0:0,0:0:0:0:
316,40,26681,6,0,P|376:48|444:36,1,120,0|4,0:0|1:0,0:0:0:0:
416,156,28045,1,8,0:0:0:0:
416,236,28499,2,0,B|420:276|420:276|416:320,1,80,0|4,0:0|1:0,0:0:0:0:
336,315,29409,2,0,B|332:275|332:275|336:235,1,80,0|8,0:0|0:0,0:0:0:0:
304,160,30318,6,0,B|212:176|236:148|144:160,1,160,4|0,0:0|0:0,0:0:0:0:
72,188,31681,1,0,0:0:0:0:
128,244,32136,2,0,B|220:228|196:256|286:244,1,160,0|0,0:0|0:0,0:0:0:0:
428,164,33954,6,0,P|464:232|428:304,1,160,0|0,0:0|0:0,0:0:0:0:
372,356,35318,1,0,0:0:0:0:
312,304,35772,2,0,L|300:216,1,80,0|0,0:0|0:0,0:0:0:0:
328,148,36681,2,0,L|316:60,1,80,0|0,0:0|1:0,0:0:0:0:
248,32,37590,6,0,B|216:64|216:64|100:52,1,160,4|0,1:0|0:0,0:0:0:0:
36,96,38954,1,0,0:0:0:0:
80,164,39409,2,0,P|56:240|64:280,1,120,4|0,1:0|1:0,0:0:0:0:
252,344,41227,6,0,L|332:356,2,80,4|0|0,1:0|0:0|0:0,0:0:0:0:
204,280,42590,1,0,0:0:0:0:
276,244,43045,2,0,P|308:172|272:88,1,160,0|0,0:0|0:0,0:0:0:0:
128,52,44863,6,0,L|116:132,1,80,4|8,0:0|0:0,0:0:0:0:
116,211,45772,2,0,L|128:291,1,80,0|8,0:0|0:0,0:0:0:0:
188,344,46681,2,0,P|228:348|268:344,1,80,0|8,0:0|0:0,0:0:0:0:
304,272,47590,2,0,P|344:268|384:272,1,80,0|8,0:0|0:0,0:0:0:0:
444,328,48499,5,0,0:0:0:0:
460,248,48954,2,0,L|468:160,2,80,8|0|8,0:0|0:0|0:0,0:0:0:0:
380,240,50318,2,0,L|387:160,1,80,0|8,0:0|0:0,0:0:0:0:
312,128,51227,2,0,L|319:48,1,80,0|8,0:0|0:0,0:0:0:0:
240,36,52136,6,0,P|164:16|80:32,1,160,4|0,1:0|0:0,0:0:0:0:
40,96,53499,1,8,0:0:0:0:
84,164,53954,2,0,P|76:232|84:288,1,120,4|4,1:0|1:0,0:0:0:0:
176,360,55318,1,8,0:0:0:0:
232,300,55772,6,0,L|216:220,2,80,4|8|0,1:0|0:0|0:0,0:0:0:0:
292,352,57136,1,8,0:0:0:0:
356,304,57590,2,0,L|372:224,2,80,2|10|2,0:0|0:0|0:0,0:0:0:0:
292,352,58954,1,10,0:0:0:0:
216,380,59409,6,0,P|136:352|56:368,1,160,4|0,0:0|0:0,0:0:0:0:
48,204,61227,2,0,L|128:196,1,80,0|2,0:0|0:0,0:0:0:0:
192,148,62136,2,0,L|272:156,1,80,2|2,0:0|0:0,0:0:0:0:
332,212,63045,6,0,B|304:188|304:188|292:108|348:60,1,160,4|4,1:0|1:0,0:0:0:0:
448,188,64863,2,0,B|476:212|476:212|488:292|432:340,1,160,4|4,1:0|1:0,0:0:0:0:
292,368,66681,6,0,L|212:372,1,80,4|0,1:0|0:0,0:0:0:0:
152,320,67590,2,0,L|72:324,1,80,0|0,0:0|0:0,0:0:0:0:
8,272,68499,2,0,B|0:228|0:228|4:188,1,80,0|2,0:0|0:0,0:0:0:0:
76,156,69409,2,0,B|79:120|79:120|71:76,1,80,2|2,0:0|0:0,0:0:0:0:
256,192,70318,12,4,72136,1:0:0:0:
384,296,73954,6,0,P|344:300|304:296,1,80,4|8,1:0|0:0,0:0:0:0:
244,240,74863,2,0,P|204:236|164:240,1,80,0|8,0:0|0:0,0:0:0:0:
104,292,75772,1,0,0:0:0:0:
168,340,76227,2,0,P|207:343|247:340,2,80,8|0|8,0:0|0:0|0:0,0:0:0:0:
104,292,77590,6,0,B|112:256|112:256|104:212,1,80,0|8,0:0|0:0,0:0:0:0:
32,176,78499,2,0,B|24:140|24:140|32:96,1,80,0|8,0:0|0:0,0:0:0:0:
100,52,79409,2,0,P|176:76|252:52,1,160,0|0,0:0|0:0,0:0:0:0:
388,132,81227,6,0,L|372:212,1,80,4|8,1:0|0:0,0:0:0:0:
292,216,82136,2,0,L|308:296,1,80,0|8,0:0|0:0,0:0:0:0:
364,348,83045,1,0,0:0:0:0:
288,372,83499,2,0,P|244:364|204:368,1,80,8|0,0:0|0:0,0:0:0:0:
136,336,84409,1,8,0:0:0:0:
64,372,84863,6,0,P|60:304|140:256,1,160,0|0,0:0|0:0,0:0:0:0:
288,284,86681,2,0,P|353:244|353:167,1,160,0|4,0:0|1:0,0:0:0:0:
316,96,88045,1,8,0:0:0:0:
288,20,88499,6,0,P|244:24|200:24,1,80,4|8,1:0|0:0,0:0:0:0:
176,96,89409,2,0,P|136:95|96:91,1,80,0|8,0:0|0:0,0:0:0:0:
32,48,90318,2,0,P|20:104|36:140,1,80,0|8,0:0|0:0,0:0:0:0:
88,176,91227,2,0,P|95:214|82:252,1,80,0|8,0:0|0:0,0:0:0:0:
28,312,92136,5,0,0:0:0:0:
92,360,92590,2,0,L|176:352,1,80,8|0,0:0|0:0,0:0:0:0:
244,316,93499,1,8,0:0:0:0:
312,356,93954,2,0,P|372:344|436:360,2,120,8|4|8,0:0|1:0|0:0,0:0:0:0:
244,316,95772,6,0,L|236:228,1,80,4|8,1:0|0:0,0:0:0:0:
296,184,96681,2,0,L|304:96,1,80,0|8,0:0|0:0,0:0:0:0:
244,52,97590,1,0,0:0:0:0:
176,96,98045,2,0,P|136:94|88:104,1,80,8|0,0:0|0:0,0:0:0:0:
20,72,98954,1,8,0:0:0:0:
256,192,99409,12,0,101227,0:0:0:0:
456,328,103045,6,0,B|416:336|416:336|376:336,1,80,4|8,0:0|0:0,0:0:0:0:
348,260,103954,2,0,B|308:260|308:260|268:268,1,80,0|8,0:0|0:0,0:0:0:0:
220,332,104863,1,0,0:0:0:0:
156,284,105318,2,0,P|144:236|144:188,1,80,8|0,0:0|0:0,0:0:0:0:
184,136,106227,1,8,0:0:0:0:
252,180,106681,6,0,L|332:172,2,80,0|8|0,0:0|0:0|0:0,0:0:0:0:
184,136,108045,1,8,0:0:0:0:
120,184,108499,2,0,L|40:176,2,80,0|8|0,0:0|0:0|0:0,0:0:0:0:
184,136,109863,1,8,0:0:0:0:
252,96,110318,6,0,L|332:88,1,80,4|8,1:0|0:0,0:0:0:0:
392,36,111227,2,0,P|412:80|404:124,1,80,0|8,0:0|0:0,0:0:0:0:
376,184,112136,2,0,B|364:224|364:224|368:264|400:296,1,120,4|4,1:0|1:0,0:0:0:0:
296,356,113499,1,8,0:0:0:0:
220,332,113954,6,0,L|136:336,1,80,4|8,1:0|0:0,0:0:0:0:
128,256,114863,2,0,L|44:260,1,80,0|8,0:0|0:0,0:0:0:0:
40,180,115772,1,2,0:0:0:0:
88,116,116227,2,0,L|80:32,2,80,10|2|10,0:0|0:0|0:0,0:0:0:0:
160,148,117590,6,0,P|232:120|312:136,1,160,4|0,0:0|0:0,0:0:0:0:
344,292,119409,2,0,L|348:208,1,80,0|2,0:0|0:0,0:0:0:0:
268,208,120318,2,0,L|264:292,1,80,2|2,0:0|0:0,0:0:0:0:
208,344,121227,6,0,B|128:356|128:356|40:336,1,160,4|4,1:0|1:0,0:0:0:0:
28,180,123045,2,0,B|108:168|108:168|196:188,1,160,4|4,1:0|1:0,0:0:0:0:
336,128,124863,6,0,L|328:48,1,80,4|0,1:0|0:0,0:0:0:0:
408,40,125772,2,0,L|416:120,1,80,0|0,0:0|0:0,0:0:0:0:
384,192,126681,2,0,P|300:168|228:188,1,160,0|2,0:0|0:0,0:0:0:0:
256,192,128499,12,4,130318,1:0:0:0:
116,80,132136,6,0,P|104:140|104:172,1,80,4|8,1:0|0:0,0:0:0:0:
164,208,133045,2,0,P|176:268|176:300,1,80,0|8,0:0|0:0,0:0:0:0:
132,352,133954,1,0,0:0:0:0:
68,304,134409,2,0,P|56:244|56:212,2,80,8|0|8,0:0|0:0|0:0,0:0:0:0:
132,352,135772,6,0,L|216:344,1,80,0|8,0:0|0:0,0:0:0:0:
292,332,136681,2,0,L|376:324,1,80,0|8,0:0|0:0,0:0:0:0:
448,348,137590,2,0,B|392:296|408:240|408:240|448:208,1,160,0|0,0:0|0:0,0:0:0:0:
352,80,139409,6,0,L|268:92,1,80,4|8,0:0|0:0,0:0:0:0:
200,60,140318,2,0,L|133:112,1,80,0|8,0:0|0:0,0:0:0:0:
72,156,141227,1,0,0:0:0:0:
120,220,141681,2,0,P|128:244|132:304,2,80,8|0|8,0:0|0:0|0:0,0:0:0:0:
188,180,143045,6,0,L|360:168,1,160,0|0,0:0|0:0,0:0:0:0:
460,280,144863,2,0,L|288:268,1,160,0|4,0:0|1:0,0:0:0:0:
220,272,146227,1,8,0:0:0:0:
140,284,146681,6,0,L|128:368,1,80,4|8,1:0|0:0,0:0:0:0:
52,344,147590,2,0,L|64:260,1,80,0|8,0:0|0:0,0:0:0:0:
24,196,148499,1,0,0:0:0:0:
104,192,148954,2,0,L|92:108,2,80,8|0|8,0:0|0:0|0:0,0:0:0:0:
184,200,150318,6,0,P|224:188|276:188,1,80,0|8,0:0|0:0,0:0:0:0:
320,240,151227,2,0,P|360:252|412:252,1,80,0|8,0:0|0:0,0:0:0:0:
476,232,152136,2,0,B|436:288|472:352,2,120,8|4|8,0:0|1:0|0:0,0:0:0:0:
460,152,153954,6,0,L|444:64,1,80,4|8,1:0|0:0,0:0:0:0:
364,76,154863,2,0,L|276:92,1,80,0|8,0:0|0:0,0:0:0:0:
300,168,155772,2,0,L|316:256,2,80,0|8|0,0:0|0:0|0:0,0:0:0:0:
224,144,157136,1,8,0:0:0:0:
256,192,157590,12,0,161227,0:0:0:0:
112,64,168499,6,0,P|104:116|108:152,1,80,4|8,1:0|0:0,0:0:0:0:
176,184,169409,2,0,P|184:236|180:272,1,80,0|8,0:0|0:0,0:0:0:0:
116,312,170318,2,0,L|28:308,2,80,0|8|0,0:0|0:0|0:0,0:0:0:0:
192,340,171681,1,8,0:0:0:0:
248,284,172136,6,0,L|327:280,1,80,0|8,0:0|0:0,0:0:0:0:
376,344,173045,2,0,L|455:340,1,80,0|8,0:0|0:0,0:0:0:0:
500,276,173954,2,0,P|476:216|496:144,2,120,0|0|8,0:0|0:0|0:0,0:0:0:0:
455,341,175772,5,4,1:0:0:0:
392,288,176227,2,0,L|312:284,1,80,8|0,0:0|0:0,0:0:0:0:
252,336,177136,1,8,0:0:0:0:
184,296,177590,2,0,P|172:248|172:200,1,80,0|8,0:0|0:0,0:0:0:0:
260,84,178954,1,8,0:0:0:0:
332,120,179409,6,0,L|412:116,1,80,0|8,0:0|0:0,0:0:0:0:
420,196,180318,2,0,L|340:200,1,80,0|8,0:0|0:0,0:0:0:0:
284,256,181227,2,0,P|232:236|168:256,2,120,0|4|0,0:0|1:0|0:0,0:0:0:0:
228,316,183045,5,4,0:0:0:0:
148,332,183499,2,0,P|96:328|64:328,1,80,8|0,0:0|0:0,0:0:0:0:
12,268,184409,1,8,0:0:0:0:
64,208,184863,2,0,P|80:136|40:52,1,160,0|0,0:0|0:0,0:0:0:0:
188,132,186681,6,0,P|232:132|268:128,1,80,0|8,0:0|0:0,0:0:0:0:
328,76,187590,2,0,P|372:76|408:80,1,80,0|8,0:0|0:0,0:0:0:0:
256,192,188499,12,4,190318,1:0:0:0:
120,124,199409,6,0,L|288:136,1,160,4|0,1:0|0:0,0:0:0:0:
396,248,201227,2,0,L|236:259,1,160,4|0,1:0|0:0,0:0:0:0:
256,192,203045,12,0,204863,0:0:0:0:
176,92,206681,5,4,1:0:0:0:
228,152,207136,2,0,L|320:144,2,80,8|0|8,0:0|0:0|0:0,0:0:0:0:
172,208,208499,2,0,P|120:208|84:200,1,80,0|8,0:0|0:0,0:0:0:0:
32,148,209409,2,0,P|12:192|20:236,1,80,0|8,0:0|0:0,0:0:0:0:
64,288,210318,5,0,0:0:0:0:
128,336,210772,2,0,L|216:328,1,80,8|0,0:0|0:0,0:0:0:0:
256,264,211681,1,8,0:0:0:0:
320,312,212136,2,0,P|380:296|448:304,2,120,8|4|8,2:0|1:0|0:0,0:0:0:0:
256,264,213954,6,0,P|240:216|240:172,1,80,4|8,1:0|0:0,0:0:0:0:
300,136,214863,2,0,P|296:96|282:58,1,80,0|8,0:0|0:0,0:0:0:0:
212,20,215772,1,0,0:0:0:0:
144,60,216227,2,0,B|104:48|104:48|44:52,2,80,8|0|8,0:0|0:0|0:0,0:0:0:0:
120,136,217590,6,0,L|92:212,1,80,0|8,0:0|0:0,0:0:0:0:
24,252,218499,2,0,L|52:328,1,80,0|8,0:0|0:0,0:0:0:0:
256,192,219409,12,4,221227,1:0:0:0:
104,72,223045,6,0,P|80:160|96:236,1,160,0|0,0:0|0:0,0:0:0:0:
220,320,224863,6,0,B|312:296|288:332|380:312,2,160,0|0|0,0:0|0:0|0:0,0:0:0:0:
152,276,227136,1,8,0:0:0:0:
204,216,227590,2,0,P|212:160|208:128,1,80,0|8,0:0|0:0,0:0:0:0:
144,92,228499,6,0,B|224:100|224:100|312:80,1,160,4|0,1:0|0:0,0:0:0:0:
368,128,229863,1,8,0:0:0:0:
428,180,230318,2,0,B|348:172|348:172|270:189,1,160,0|0,0:0|0:0,0:0:0:0:
140,280,232136,6,0,L|20:276,2,120,4|4|8,1:0|1:0|0:0,0:0:0:0:
200,332,233954,2,0,L|280:312,1,80,0|4,0:0|1:0,0:0:0:0:
316,244,234863,2,0,L|396:264,1,80,0|8,0:0|0:0,0:0:0:0:
460,308,235772,6,0,P|472:256|460:216,1,80,4|8,1:0|0:0,0:0:0:0:
408,180,236681,2,0,P|402:140|414:102,1,80,0|8,0:0|0:0,0:0:0:0:
464,44,237590,1,0,0:0:0:0:
385,28,238045,2,0,L|297:24,1,80,8|0,0:0|0:0,0:0:0:0:
240,72,238954,1,8,0:0:0:0:
276,144,239409,6,0,P|204:116|116:140,1,160,0|0,0:0|0:0,0:0:0:0:
80,288,241227,2,0,L|160:280,1,80,0|8,0:0|0:0,0:0:0:0:
228,324,242136,2,0,L|308:316,1,80,0|8,0:0|0:0,0:0:0:0:
376,360,243045,6,0,B|388:308|388:308|344:200,1,160,4|0,1:0|0:0,0:0:0:0:
224,108,244863,2,0,B|212:160|212:160|256:268,1,160,4|0,1:0|0:0,0:0:0:0:
96,236,246681,6,0,L|44:112,2,120,4|4|8,1:0|1:0|0:0,0:0:0:0:
256,192,248499,12,0,250318,0:0:0:0:
