osu file format v14

[General]
AudioFilename: Handoru nigitte.mp3
AudioLeadIn: 773
PreviewTime: 73272
Countdown: 0
SampleSet: Soft
StackLeniency: 0.7
Mode: 0
LetterboxInBreaks: 0
WidescreenStoryboard: 0

[Editor]
DistanceSpacing: 1.2
BeatDivisor: 4
GridSize: 4
TimelineZoom: 1.2

[Metadata]
Title:Handle Nigitte
TitleUnicode:ハンドル握って
Artist:senya
ArtistUnicode:senya
Creator:Alex Li
Version:Insane
Source:
Tags:HiZuMi Saa kogou kamasetora yuuhei satellite mayumi morinaga
BeatmapID:569363
BeatmapSetID:247319

[Difficulty]
HPDrainRate:6
CircleSize:4
OverallDifficulty:7
ApproachRate:8
SliderMultiplier:1.6
SliderTickRate:1

[Events]
//Background and Video events
0,0,"Untitled.jpg",0,0
//Break Periods
2,161427,165931
2,192336,196840
//Storyboard Layer 0 (Background)
//Storyboard Layer 1 (Fail)
//Storyboard Layer 2 (Pass)
//Storyboard Layer 3 (Foreground)
//Storyboard Sound Samples

[TimingPoints]
-591,454.545454545455,4,2,1,40,1,0
1227,-133.333333333333,4,2,1,40,0,0
8497,-100,4,2,1,65,0,0
30316,-133.333333333333,4,2,1,65,0,0
43954,-133.333333333333,4,2,1,70,0,0
44181,-133.333333333333,4,2,1,75,0,0
44409,-133.333333333333,4,2,1,80,0,0
44636,-133.333333333333,4,2,1,85,0,0
44863,-111.111111111111,4,2,1,65,0,0
59409,-133.333333333333,4,2,1,40,0,0
73954,-100,4,2,1,65,0,1
103045,-111.111111111111,4,2,1,65,0,0
117590,-133.333333333333,4,2,1,40,0,0
132136,-100,4,2,1,65,0,1
161227,-100,4,2,1,65,0,0
190318,-200,4,2,1,65,0,0
197590,-100,4,2,1,65,0,0
199409,-111.111111111111,4,2,1,65,0,0
206681,-100,4,2,1,65,0,1
221227,-100,4,2,1,65,0,0
243045,-133.333333333333,4,2,1,65,0,0
250318,-133.333333333333,4,2,1,5,0,0

[Colours]
Combo1 : 149,66,189
Combo2 : 44,122,141
Combo3 : 167,167,167
Combo4 : 58,18,248

[HitObjects]
271,127,1227,6,0,P|241:128|212:132,1,60.0000022888184,4|0,0:0|0:0,0:0:0:0:
92,175,1681,2,0,P|122:176|152:180,1,60.0000022888184,0|0,0:0|0:0,0:0:0:0:
202,241,2136,2,0,P|228:188|211:132,1,120.000004577637,2|0,0:0|0:0,0:0:0:0:
48,48,3045,6,0,P|52:76|52:124,1,60.0000022888184
91,176,3499,2,0,P|81:203|74:233,1,60.0000022888184
156,132,3954,1,2,0:0:0:0:
276,300,4636,1,0,0:0:0:0:
272,304,4749,1,0,0:0:0:0:
268,308,4863,6,0,P|232:312|204:308,1,60.0000022888184
92,257,5318,2,0,P|122:253|152:256,1,60.0000022888184
240,136,5772,1,2,0:0:0:0:
312,164,5999,2,0,P|344:152|376:148,2,60.0000022888184,0|0|0,0:0|0:0|0:0,0:0:0:0:
264,312,6681,6,0,L|270:371,1,60.0000022888184
305,225,7136,2,0,L|311:165,1,60.0000022888184
480,344,7590,1,0,0:0:0:0:
408,296,7818,1,0,0:0:0:0:
408,296,7931,2,0,P|396:248|400:208,1,90.0000034332277,2|0,0:0|0:0,0:0:0:0:
412,192,8386,1,0,0:0:0:0:
428,180,8499,6,0,P|380:178|328:184,1,80,4|0,1:0|0:0,0:0:0:0:
292,240,8840,2,0,P|252:234|212:233,1,80
136,256,9181,1,0,0:0:0:0:
48,136,9409,2,0,P|56:200|56:248,1,80,0|0,0:0|0:0,0:0:0:0:
140,32,9863,1,8,0:0:0:0:
125,58,9977,1,0,0:0:0:0:
121,87,10090,1,0,0:0:0:0:
128,116,10204,1,0,0:0:0:0:
145,141,10318,6,0,B|204:144|204:144|224:132,1,80,4|0,1:0|0:0,0:0:0:0:
360,192,10659,2,0,B|302:194|302:194|284:184,1,80,0|0,0:0|0:0,0:0:0:0:
224,236,10999,1,0,0:0:0:0:
396,328,11227,1,0,0:0:0:0:
396,328,11340,1,8,0:0:0:0:
437,120,11568,1,0,0:0:0:0:
440,144,11681,2,0,L|448:236,1,80,8|0,0:0|0:0,0:0:0:0:
344,32,12136,5,4,1:0:0:0:
324,48,12363,1,0,0:0:0:0:
136,144,12590,2,0,L|215:151,1,80,8|8,0:0|0:0,0:0:0:0:
104,112,13045,1,4,1:0:0:0:
120,128,13272,1,0,0:0:0:0:
284,244,13499,2,0,L|363:236,1,80,8|8,0:0|0:0,0:0:0:0:
207,204,13954,6,0,P|199:242|207:281,1,80,0|0,0:0|1:0,0:0:0:0:
360,284,14409,2,0,P|368:245|360:206,1,80,0|0,1:0|0:0,0:0:0:0:
256,144,14863,1,0,0:0:0:0:
231,150,14977,1,8,0:0:0:0:
207,153,15090,1,0,0:0:0:0:
182,152,15204,1,0,0:0:0:0:
157,147,15318,1,8,0:0:0:0:
133,141,15431,1,0,0:0:0:0:
108,139,15545,1,0,0:0:0:0:
83,142,15659,1,0,0:0:0:0:
59,147,15772,6,0,B|44:188|44:188|56:264,1,120,4|0,1:0|0:0,0:0:0:0:
80,340,16227,2,0,L|0:332,1,80,8|0,0:0|0:0,0:0:0:0:
184,284,16681,2,0,L|264:276,1,80
372,348,17136,1,8,0:0:0:0:
264,364,17363,1,0,0:0:0:0:
448,384,17590,6,0,B|456:344|456:344|460:304|444:264,1,120
376,228,18045,2,0,P|348:224|292:228,1,80,8|0,0:0|0:0,0:0:0:0:
88,171,18499,1,0,0:0:0:0:
114,158,18613,1,8,0:0:0:0:
56,268,18840,1,0,0:0:0:0:
28,258,18954,1,8,0:0:0:0:
152,244,19181,1,0,0:0:0:0:
84,128,19409,6,0,P|68:68|104:12,1,120
148,80,19863,2,0,L|232:76,1,80,8|0,0:0|0:0,0:0:0:0:
296,216,20318,2,0,L|212:212,1,80
392,112,20772,1,8,0:0:0:0:
392,112,20999,1,0,0:0:0:0:
476,172,21227,6,0,P|468:224|468:260,1,80,0|2,0:0|0:0,0:0:0:0:
384,304,21681,2,0,P|392:356|392:392,1,80,10|2,0:0|0:0,0:0:0:0:
300,256,22136,2,0,P|224:224|144:260,1,160,2|8,0:0|0:0,0:0:0:0:
132,348,22818,1,0,0:0:0:0:
224,324,23045,6,0,P|224:236|228:160,1,160,4|8,0:0|0:0,0:0:0:0:
308,96,23727,1,0,0:0:0:0:
308,96,23954,2,0,P|352:100|388:100,1,80,2|0,0:0|0:0,0:0:0:0:
200,52,24409,2,0,P|156:56|120:56,1,80,8|0,0:0|0:0,0:0:0:0:
60,4,24863,6,0,P|40:56|68:116,1,120,2|0,0:0|0:0,0:0:0:0:
140,140,25318,2,0,L|228:136,1,80,8|0,0:0|0:0,0:0:0:0:
212,25,25772,1,2,0:0:0:0:
200,52,25886,1,8,0:0:0:0:
347,146,26113,1,0,0:0:0:0:
358,174,26227,2,0,P|368:140|372:96,1,80,8|0,0:0|0:0,0:0:0:0:
296,236,26681,6,0,P|372:216|420:228,2,120,0|0|4,1:0|1:0|1:0,0:0:0:0:
200,280,27590,2,0,P|192:240|200:188,1,80
255,41,28045,1,8,0:0:0:0:
262,67,28159,1,0,0:0:0:0:
263,93,28272,1,0,0:0:0:0:
260,120,28386,1,0,0:0:0:0:
48,192,28727,5,4,1:0:0:0:
48,192,28954,2,0,P|56:240|56:280,1,80,4|0,1:0|0:0,0:0:0:0:
160,360,29409,5,2,0:0:0:0:
189,358,29522,1,8,0:0:0:0:
219,356,29636,1,0,0:0:0:0:
249,354,29749,1,0,0:0:0:0:
279,353,29863,1,10,0:0:0:0:
309,348,29977,1,0,0:0:0:0:
331,328,30090,1,0,0:0:0:0:
342,301,30204,1,0,0:0:0:0:
344,271,30318,6,0,P|340:232|344:200,1,60.0000022888184,4|0,0:0|0:0,0:0:0:0:
401,84,30772,2,0,P|405:114|404:144,1,60.0000022888184
280,112,31227,2,0,P|216:108|152:112,1,120.000004577637
24,216,31909,1,0,0:0:0:0:
80,288,32136,6,0,P|116:288|144:296,1,60.0000022888184
220,256,32590,2,0,P|244:288|256:316,1,60.0000022888184
304,380,33045,2,0,P|364:360|424:360,1,120.000004577637
500,312,33727,1,0,0:0:0:0:
344,212,33954,6,0,P|320:160|348:104,1,120.000004577637
416,48,34636,1,0,0:0:0:0:
456,176,34863,2,0,L|444:240,1,60.0000022888184
384,304,35318,2,0,L|395:362,1,60.0000022888184
312,252,35772,6,0,P|257:246|192:244,2,120.000004577637,0|0|0,0:0|0:0|0:0,0:0:0:0:
188,324,36909,1,0,1:0:0:0:
159,314,37022,1,0,1:0:0:0:
129,312,37136,1,0,1:0:0:0:
100,318,37249,1,0,1:0:0:0:
16,360,37477,1,0,1:0:0:0:
24,332,37590,6,0,B|36:280|36:280|32:264|32:264|44:212,1,120.000004577637,4|0,1:0|0:0,0:0:0:0:
128,104,38272,1,0,0:0:0:0:
128,104,38499,2,0,P|136:136|140:168,1,60.0000022888184
188,286,38954,2,0,P|192:257|200:228,1,60.0000022888184
272,116,39409,6,0,P|340:100|400:104,1,120.000004577637,4|0,1:0|0:0,0:0:0:0:
332,172,40090,2,0,P|348:104|316:44,1,120.000004577637,4|0,1:0|0:0,0:0:0:0:
212,60,40772,1,0,0:0:0:0:
199,87,40885,1,0,0:0:0:0:
195,116,40999,1,0,0:0:0:0:
200,146,41112,1,0,0:0:0:0:
214,172,41227,6,0,L|284:176,1,60.0000022888184,4|0,1:0|0:0,0:0:0:0:
124,268,41681,2,0,L|54:272,1,60.0000022888184
220,276,42136,2,0,L|279:272,1,60.0000022888184
124,180,42590,2,0,L|64:176,1,60.0000022888184
160,328,43045,6,0,P|224:352|288:316,1,120.000004577637
328,192,43727,1,0,0:0:0:0:
456,308,43954,1,0,0:0:0:0:
463,278,44067,1,0,0:0:0:0:
466,249,44181,1,2,0:0:0:0:
463,219,44294,1,0,0:0:0:0:
453,191,44408,1,2,0:0:0:0:
444,162,44522,1,0,0:0:0:0:
441,132,44635,1,2,0:0:0:0:
444,103,44749,1,0,0:0:0:0:
452,74,44863,6,0,B|376:68|376:68|344:88,1,107.999996704102,6|0,0:0|0:0,0:0:0:0:
340,120,45318,2,0,P|332:164|328:212,1,71.9999978027344,8|0,0:0|0:0,0:0:0:0:
228,4,45772,2,0,P|232:39|238:75,1,71.9999978027344
256,168,46227,1,8,0:0:0:0:
256,168,46454,1,0,0:0:0:0:
168,196,46681,6,0,P|120:172|32:196,1,143.999995605469,0|8,0:0|0:0,0:0:0:0:
140,328,47363,1,0,0:0:0:0:
220,280,47590,1,0,0:0:0:0:
254,272,47703,1,8,0:0:0:0:
340,372,47931,1,0,0:0:0:0:
376,384,48045,2,0,L|300:380,1,71.9999978027344,8|0,0:0|0:0,0:0:0:0:
392,192,48499,6,0,P|380:248|396:304,1,107.999996704102
412,304,48954,2,0,L|488:300,1,71.9999978027344,8|0,0:0|0:0,0:0:0:0:
392,192,49409,2,0,L|316:188,1,71.9999978027344
436,80,49863,1,8,0:0:0:0:
436,80,50090,1,0,0:0:0:0:
288,120,50318,6,0,P|256:156|280:252,2,143.999995605469,0|8|2,0:0|0:0|0:0,0:0:0:0:
236,40,51454,1,2,0:0:0:0:
156,84,51681,2,0,P|116:88|72:88,1,71.9999978027344,10|2,0:0|0:0,0:0:0:0:
16,192,52136,6,0,P|8:248|20:300,1,107.999996704102,4|0,1:0|0:0,0:0:0:0:
28,312,52590,2,0,L|108:304,1,71.9999978027344,8|0,0:0|0:0,0:0:0:0:
184,200,53045,2,0,L|104:192,1,71.9999978027344
248,288,53499,1,8,0:0:0:0:
248,288,53727,1,0,0:0:0:0:
328,239,53954,6,0,P|393:212|463:223,1,143.999995605469,4|8,1:0|0:0,0:0:0:0:
312,332,54636,2,0,P|240:304|168:320,1,143.999995605469,4|8,1:0|0:0,0:0:0:0:
100,368,55318,2,0,L|20:364,1,71.9999978027344,8|0,0:0|0:0,0:0:0:0:
180,210,55772,6,0,P|188:263|176:316,1,107.999996704102,4|0,1:0|0:0,0:0:0:0:
196,316,56227,2,0,L|276:312,1,71.9999978027344,8|0,0:0|0:0,0:0:0:0:
408,292,56681,2,0,P|411:327|412:363,1,71.9999978027344
356,212,57136,2,0,P|356:176|360:140,1,71.9999978027344,8|0,0:0|0:0,0:0:0:0:
424,72,57590,6,0,P|448:124|448:216,1,143.999995605469,2|10,0:0|0:0,0:0:0:0:
408,292,58272,1,0,0:0:0:0:
328,340,58499,1,2,0:0:0:0:
305,342,58612,1,8,0:0:0:0:
283,342,58726,1,0,0:0:0:0:
261,338,58839,1,0,0:0:0:0:
240,329,58953,1,10,0:0:0:0:
219,320,59067,1,0,0:0:0:0:
197,316,59180,1,0,0:0:0:0:
175,315,59294,1,0,0:0:0:0:
152,317,59409,6,0,P|120:332|96:352,1,60.0000022888184,4|0,0:0|0:0,0:0:0:0:
27,324,59863,2,0,P|17:351|12:381,1,60.0000022888184
80,268,60318,2,0,P|76:200|68:136,2,120.000004577637,0|0|0,0:0|0:0|0:0,0:0:0:0:
168,204,61681,6,0,P|204:208|240:216,1,60.0000022888184,2|0,0:0|0:0,0:0:0:0:
252,136,62136,2,0,P|288:132|324:124,1,60.0000022888184,2|0,0:0|0:0,0:0:0:0:
348,196,62590,2,0,P|384:200|420:208,1,60.0000022888184,2|0,0:0|0:0,0:0:0:0:
284,332,63045,6,0,L|224:337,1,60.0000022888184,4|0,1:0|0:0,0:0:0:0:
344,280,63499,1,0,0:0:0:0:
344,280,63727,1,0,0:0:0:0:
408,324,63954,2,0,L|467:329,1,60.0000022888184,4|0,1:0|0:0,0:0:0:0:
512,232,64409,2,0,L|452:237,1,60.0000022888184
368,176,64863,6,0,P|360:132|360:48,1,120.000004577637,4|0,1:0|0:0,0:0:0:0:
432,32,65545,1,0,0:0:0:0:
416,112,65772,2,0,P|340:132|288:104,1,120.000004577637,4|0,1:0|0:0,0:0:0:0:
132,72,66681,6,0,P|136:108|144:136,1,60.0000022888184,4|0,1:0|0:0,0:0:0:0:
192,192,67136,2,0,P|188:228|180:256,1,60.0000022888184
136,312,67590,2,0,P|104:252|120:196,2,120.000004577637,0|0|0,0:0|0:0|0:0,0:0:0:0:
248,368,68954,6,0,P|296:364|320:364,1,60.0000022888184,2|0,0:0|0:0,0:0:0:0:
376,272,69409,2,0,P|328:268|304:268,1,60.0000022888184,2|0,0:0|0:0,0:0:0:0:
512,188,69863,2,0,P|482:189|452:192,1,60.0000022888184,2|0,0:0|0:0,0:0:0:0:
396,140,70318,6,0,B|360:136|336:120|336:120|308:132|268:132,1,120.000004577637,4|0,1:0|0:0,0:0:0:0:
396,244,71227,2,0,B|360:248|336:264|336:264|308:252|268:252,1,120.000004577637,4|0,1:0|0:0,0:0:0:0:
136,192,72136,1,4,1:0:0:0:
256,192,72249,12,0,73499,0:0:0:0:
64,280,73954,6,0,B|144:272|144:272|184:288,1,120,4|0,1:0|0:0,0:0:0:0:
252,328,74409,2,0,P|260:284|256:248,1,80,8|0,0:0|0:0,0:0:0:0:
192,89,74863,2,0,P|184:128|188:168,1,80
340,232,75318,1,8,0:0:0:0:
340,232,75545,1,0,0:0:0:0:
396,292,75772,6,0,P|420:212|400:176,1,120
392,172,76227,2,0,P|444:164|500:172,1,80,8|0,0:0|0:0,0:0:0:0:
288,112,76681,1,0,0:0:0:0:
312,120,76795,1,8,0:0:0:0:
296,296,77022,1,0,0:0:0:0:
272,304,77136,1,8,0:0:0:0:
184,220,77363,1,0,0:0:0:0:
184,220,77477,1,0,0:0:0:0:
184,220,77590,6,0,L|56:212,1,120
40,216,78045,2,0,L|44:296,1,80,8|0,0:0|0:0,0:0:0:0:
96,128,78499,2,0,L|100:48,1,80
184,220,78954,1,8,0:0:0:0:
184,220,79181,1,0,0:0:0:0:
288,216,79409,6,0,P|327:215|367:218,1,80,0|2,0:0|0:0,0:0:0:0:
228,300,79863,2,0,P|188:302|148:302,1,80,10|2,0:0|0:0,0:0:0:0:
40,236,80318,5,2,0:0:0:0:
21,219,80431,1,8,0:0:0:0:
7,199,80545,1,0,0:0:0:0:
0,175,80658,1,0,0:0:0:0:
0,150,80772,1,10,0:0:0:0:
0,126,80886,1,0,0:0:0:0:
10,103,80999,1,0,0:0:0:0:
25,83,81113,1,0,0:0:0:0:
45,68,81227,6,0,B|108:64|108:64|172:72,1,120,4|0,1:0|0:0,0:0:0:0:
176,88,81681,2,0,P|172:148|168:176,1,80,8|0,0:0|0:0,0:0:0:0:
244,307,82136,2,0,P|247:267|252:228,1,80
328,80,82590,1,8,0:0:0:0:
400,156,82818,1,0,0:0:0:0:
400,156,82931,1,0,0:0:0:0:
400,156,83045,6,0,B|416:184|416:224|416:224|408:280,1,120
336,308,83499,2,0,P|332:260|340:228,1,80,8|0,0:0|0:0,0:0:0:0:
404,352,83954,1,0,0:0:0:0:
404,352,84068,1,8,0:0:0:0:
224,276,84295,1,0,0:0:0:0:
224,276,84409,1,8,0:0:0:0:
164,332,84636,1,0,0:0:0:0:
96,292,84863,6,0,B|84:248|84:248|92:156,1,120,4|0,0:0|0:0,0:0:0:0:
168,160,85318,2,0,L|156:272,1,80,8|0,0:0|0:0,0:0:0:0:
244,96,85772,2,0,L|232:-16,1,80,4|0,0:0|0:0,0:0:0:0:
316,160,86227,1,8,0:0:0:0:
428,112,86454,1,0,0:0:0:0:
360,224,86681,6,0,P|300:216|268:216,1,80,2|0,0:0|0:0,0:0:0:0:
264,220,87022,1,0,0:0:0:0:
252,232,87136,1,10,0:0:0:0:
248,248,87249,1,2,0:0:0:0:
252,264,87363,1,2,0:0:0:0:
264,280,87477,1,0,0:0:0:0:
280,288,87590,2,0,L|328:276,3,40,10|2|2|0,2:0|0:0|0:0|0:0,0:0:0:0:
348,280,88045,1,10,2:0:0:0:
372,288,88159,1,2,0:0:0:0:
388,304,88272,1,10,0:0:0:0:
392,328,88386,1,8,0:0:0:0:
384,356,88499,6,0,B|304:380|304:380|264:372,1,120,4|0,1:0|0:0,0:0:0:0:
204,316,88954,2,0,P|148:312|96:316,1,80,8|0,0:0|0:0,0:0:0:0:
60,364,89409,1,0,0:0:0:0:
168,200,89636,1,0,0:0:0:0:
240,236,89863,2,0,P|279:236|319:232,1,80,8|0,0:0|0:0,0:0:0:0:
424,316,90318,6,0,P|408:248|428:196,1,120
472,140,90772,2,0,P|464:84|464:36,1,80,8|0,0:0|0:0,0:0:0:0:
504,236,91227,1,0,0:0:0:0:
500,260,91340,1,8,0:0:0:0:
328,336,91568,1,0,0:0:0:0:
336,360,91681,1,8,0:0:0:0:
220,300,91909,1,0,0:0:0:0:
220,300,92022,1,0,0:0:0:0:
220,300,92136,6,0,P|220:240|212:160,1,120
144,216,92590,2,0,L|56:208,1,80,8|0,0:0|0:0,0:0:0:0:
184,92,93045,1,8,0:0:0:0:
312,352,93272,1,8,0:0:0:0:
456,316,93499,1,8,0:0:0:0:
220,300,93727,1,8,0:0:0:0:
352,108,93954,5,12,0:0:0:0:
96,228,94295,5,8,0:0:0:0:
356,276,94636,5,4,1:0:0:0:
332,280,94863,5,0,0:0:0:0:
312,282,94976,1,8,0:0:0:0:
292,285,95090,1,2,0:0:0:0:
272,288,95203,1,0,0:0:0:0:
244,316,95317,1,8,0:0:0:0:
224,312,95431,1,0,0:0:0:0:
204,310,95544,1,0,0:0:0:0:
184,308,95658,1,0,0:0:0:0:
164,304,95772,6,0,P|156:260|160:220,1,80,4|2,1:0|0:0,0:0:0:0:
224,184,96113,2,0,P|226:144|218:105,1,80,0|2,0:0|0:0,0:0:0:0:
160,52,96454,1,0,0:0:0:0:
80,204,96681,2,0,L|0:212,1,80
240,264,97136,1,8,0:0:0:0:
328,200,97363,1,0,0:0:0:0:
328,200,97477,1,0,0:0:0:0:
328,200,97590,6,0,L|416:212,1,80,0|2,0:0|0:0,0:0:0:0:
511,277,97931,2,0,L|432:288,1,80,0|2,0:0|0:0,0:0:0:0:
368,332,98272,1,2,0:0:0:0:
344,192,98499,1,0,0:0:0:0:
328,200,98613,1,8,0:0:0:0:
256,300,98840,1,0,0:0:0:0:
240,292,98954,2,0,P|203:292|160:296,1,80,8|0,0:0|0:0,0:0:0:0:
84,360,99409,6,0,P|96:300|84:184,1,160,0|8,0:0|0:0,0:0:0:0:
24,80,100090,1,0,0:0:0:0:
24,80,100318,2,0,L|124:68,1,80
240,156,100772,2,0,L|340:168,1,80,8|0,0:0|0:0,0:0:0:0:
457,284,101227,6,0,P|380:265|304:284,1,160,2|8,0:0|0:0,0:0:0:0:
160,360,101909,1,2,0:0:0:0:
144,348,102022,1,2,0:0:0:0:
136,332,102136,1,2,0:0:0:0:
136,312,102249,1,8,0:0:0:0:
148,296,102363,1,2,0:0:0:0:
120,308,102477,1,2,0:0:0:0:
92,308,102590,1,10,0:0:0:0:
64,300,102704,1,0,0:0:0:0:
40,280,102818,1,2,0:0:0:0:
28,256,102931,1,2,0:0:0:0:
28,228,103045,6,0,L|44:112,1,107.999996704102,6|0,0:0|0:0,0:0:0:0:
48,104,103499,2,0,P|88:100|152:104,1,71.9999978027344,8|0,0:0|0:0,0:0:0:0:
219,211,103954,2,0,P|183:211|148:208,1,71.9999978027344
308,104,104409,1,8,0:0:0:0:
308,104,104636,1,0,0:0:0:0:
367,196,104863,6,0,P|366:231|369:267,1,71.9999978027344
288,312,105318,2,0,P|284:347|286:383,1,71.9999978027344,8|0,0:0|0:0,0:0:0:0:
220,248,105772,2,0,P|156:272|72:244,1,143.999995605469,0|8,0:0|0:0,0:0:0:0:
52,156,106454,1,0,0:0:0:0:
148,65,106681,6,0,B|156:96|156:96|148:172,1,107.999996704102
164,168,107136,2,0,L|256:160,1,71.9999978027344,8|0,0:0|0:0,0:0:0:0:
412,232,107590,1,0,0:0:0:0:
328,264,107818,2,0,L|256:257,1,71.9999978027344,0|8,0:0|0:0,0:0:0:0:
368,112,108272,1,0,0:0:0:0:
456,168,108499,6,0,P|488:236|448:304,2,143.999995605469,0|8|2,0:0|0:0|0:0,0:0:0:0:
368,112,109636,1,2,0:0:0:0:
436,36,109863,2,0,L|508:32,1,71.9999978027344,10|2,0:0|0:0,0:0:0:0:
276,76,110318,6,0,P|224:60|160:64,1,107.999996704102,4|0,1:0|0:0,0:0:0:0:
156,72,110772,2,0,P|112:76|76:72,1,71.9999978027344,8|0,0:0|0:0,0:0:0:0:
304,172,111227,2,0,P|260:168|224:172,1,71.9999978027344
128,252,111681,1,8,0:0:0:0:
128,252,111909,1,0,0:0:0:0:
244,300,112136,6,0,P|284:296|392:296,1,143.999995605469,4|8,1:0|0:0,0:0:0:0:
304,228,112818,2,0,P|280:296|312:368,1,143.999995605469,4|8,1:0|0:0,0:0:0:0:
112,276,113499,1,0,0:0:0:0:
112,276,113613,1,0,0:0:0:0:
112,276,113727,1,0,0:0:0:0:
112,276,113840,1,0,0:0:0:0:
112,276,113954,6,0,L|40:283,1,71.9999978027344,4|0,1:0|0:0,0:0:0:0:
196,212,114409,2,0,L|130:182,1,71.9999978027344,8|0,0:0|0:0,0:0:0:0:
304,204,114863,2,0,L|261:145,1,71.9999978027344
404,248,115318,1,8,0:0:0:0:
404,248,115545,1,0,0:0:0:0:
404,140,115772,6,0,B|428:108|428:108|384:68|400:12,1,143.999995605469,2|10,0:0|0:0,0:0:0:0:
108,140,116681,2,0,B|84:108|84:108|128:68|112:12,1,143.999995605469,2|10,0:0|0:0,0:0:0:0:
183,252,117590,6,0,P|153:254|124:260,1,60.0000022888184,4|0,0:0|0:0,0:0:0:0:
232,188,118045,1,0,0:0:0:0:
232,188,118272,1,0,0:0:0:0:
264,260,118499,2,0,P|268:312|264:380,2,120.000004577637,0|0|0,0:0|0:0|0:0,0:0:0:0:
347,212,119863,6,0,P|353:182|355:152,1,60.0000022888184,2|0,0:0|0:0,0:0:0:0:
300,35,120318,2,0,P|323:54|348:72,1,60.0000022888184,2|0,0:0|0:0,0:0:0:0:
474,83,120772,2,0,P|446:93|419:106,1,60.0000022888184,2|0,0:0|0:0,0:0:0:0:
280,160,121227,5,4,1:0:0:0:
216,192,121454,2,0,P|184:188|148:176,1,60.0000022888184
280,160,121909,1,0,0:0:0:0:
280,232,122136,2,0,P|236:264|160:244,1,120.000004577637,4|0,1:0|0:0,0:0:0:0:
284,344,122818,1,0,0:0:0:0:
352,320,123045,6,0,P|420:308|484:304,1,120.000004577637,4|0,1:0|0:0,0:0:0:0:
376,252,123727,1,0,0:0:0:0:
404,184,123954,2,0,P|336:172|272:168,1,120.000004577637,4|0,1:0|0:0,0:0:0:0:
196,72,124863,6,0,P|152:76|128:80,1,60.0000022888184,4|0,1:0|0:0,0:0:0:0:
104,144,125318,2,0,P|74:139|44:137,1,60.0000022888184
148,200,125772,2,0,P|208:180|272:192,2,120.000004577637,0|0|0,0:0|0:0|0:0,0:0:0:0:
112,304,126909,6,0,L|124:368,1,60.0000022888184,2|0,0:0|0:0,0:0:0:0:
192,344,127363,1,0,0:0:0:0:
256,376,127590,2,0,P|316:360|392:372,1,120.000004577637,2|0,0:0|0:0,0:0:0:0:
464,340,128272,1,0,0:0:0:0:
436,248,128499,6,0,P|444:188|408:132,1,120.000004577637,4|0,1:0|0:0,0:0:0:0:
322,247,129409,2,0,P|314:189|343:138,1,120.000004577637,4|0,1:0|0:0,0:0:0:0:
380,300,130318,1,4,1:0:0:0:
256,192,130431,12,8,131681,3:0:0:0:
104,68,132136,6,0,B|92:128|92:128|112:188,1,120,4|0,1:0|0:0,0:0:0:0:
168,240,132590,2,0,P|208:236|252:236,1,80,8|0,0:0|0:0,0:0:0:0:
332,344,133045,2,0,P|292:343|252:339,1,80
436,240,133499,1,8,0:0:0:0:
436,240,133727,1,0,0:0:0:0:
496,292,133954,6,0,P|512:232|480:168,1,120
412,164,134409,2,0,P|380:184|360:220,1,80,8|0,0:0|0:0,0:0:0:0:
416,348,134863,1,0,0:0:0:0:
420,328,134977,1,8,0:0:0:0:
288,296,135204,1,0,0:0:0:0:
284,276,135318,1,8,0:0:0:0:
152,328,135545,1,0,0:0:0:0:
152,328,135659,1,0,0:0:0:0:
152,328,135772,6,0,B|104:344|60:336|60:336|76:320|92:308,1,120
156,252,136227,2,0,P|160:206|142:155,1,80,8|0,0:0|0:0,0:0:0:0:
0,178,136681,2,0,P|-4:223|13:274,1,80
78,215,137136,1,8,0:0:0:0:
78,215,137363,1,0,0:0:0:0:
160,127,137590,6,0,L|168:48,1,80,0|2,0:0|0:0,0:0:0:0:
224,232,138045,2,0,L|231:311,1,80,10|2,0:0|0:0,0:0:0:0:
312,160,138499,1,2,0:0:0:0:
330,152,138612,1,8,0:0:0:0:
349,147,138726,1,0,0:0:0:0:
369,144,138839,1,0,0:0:0:0:
389,143,138953,1,8,0:0:0:0:
409,144,139067,1,0,0:0:0:0:
429,147,139180,1,0,0:0:0:0:
448,152,139294,1,0,0:0:0:0:
467,159,139409,6,0,L|456:280,1,120,4|0,0:0|0:0,0:0:0:0:
456,300,139863,2,0,L|464:380,1,80,8|0,0:0|0:0,0:0:0:0:
364,180,140318,2,0,L|356:260,1,80
272,368,140772,1,8,0:0:0:0:
168,312,140999,1,0,0:0:0:0:
168,312,141113,1,0,0:0:0:0:
168,312,141227,6,0,B|116:312|76:324|76:324|44:312,1,120
39,299,141681,2,0,P|28:261|31:222,1,80,8|0,0:0|0:0,0:0:0:0:
143,158,142136,1,0,0:0:0:0:
153,196,142249,1,8,0:0:0:0:
0,140,142477,1,0,0:0:0:0:
4,100,142590,1,8,0:0:0:0:
88,32,142818,1,0,0:0:0:0:
128,104,143045,6,0,B|204:108|204:108|244:84,1,120,4|0,0:0|0:0,0:0:0:0:
260,76,143499,2,0,P|300:72|348:88,1,80,8|0,0:0|0:0,0:0:0:0:
288,220,143954,2,0,P|249:230|210:226,1,80,4|0,0:0|0:0,0:0:0:0:
376,160,144409,1,8,0:0:0:0:
356,328,144636,1,0,0:0:0:0:
192,368,144863,6,0,P|148:368|108:348,1,80,2|0,0:0|0:0,0:0:0:0:
96,328,145204,1,0,0:0:0:0:
80,304,145318,2,0,P|72:280|68:260,3,40,10|2|2|0,0:0|0:0|0:0|0:0,0:0:0:0:
96,192,145772,1,10,2:0:0:0:
122,189,145885,1,2,0:0:0:0:
149,186,145999,1,2,0:0:0:0:
175,184,146112,1,0,0:0:0:0:
208,212,146227,1,10,2:0:0:0:
234,214,146340,1,2,0:0:0:0:
261,217,146454,1,10,0:0:0:0:
287,219,146567,1,8,0:0:0:0:
316,224,146681,6,0,B|400:220|400:220|432:196,1,120,4|0,1:0|0:0,0:0:0:0:
480,136,147136,2,0,P|476:92|480:48,1,80,8|0,0:0|0:0,0:0:0:0:
504,280,147590,1,0,0:0:0:0:
400,360,147818,2,0,L|312:356,2,80,0|8|0,0:0|0:0|0:0,0:0:0:0:
232,320,148499,6,0,P|192:304|108:324,1,120
60,372,148954,2,0,P|40:336|44:292,1,80,8|0,0:0|0:0,0:0:0:0:
104,128,149409,1,0,0:0:0:0:
84,124,149522,1,8,0:0:0:0:
192,228,149749,1,0,0:0:0:0:
168,236,149863,1,8,0:0:0:0:
252,40,150090,1,0,0:0:0:0:
252,40,150204,1,0,0:0:0:0:
252,40,150318,6,0,L|392:32,1,120
404,104,150772,2,0,P|380:104|320:112,1,80,8|0,0:0|0:0,0:0:0:0:
264,336,151227,1,8,0:0:0:0:
424,356,151454,1,8,0:0:0:0:
116,352,151681,1,8,0:0:0:0:
232,224,151909,1,8,0:0:0:0:
128,188,152136,5,12,0:0:0:0:
332,264,152477,5,8,0:0:0:0:
220,108,152818,5,4,1:0:0:0:
240,120,153045,5,0,0:0:0:0:
264,124,153158,1,8,0:0:0:0:
289,126,153272,1,2,0:0:0:0:
314,123,153385,1,0,0:0:0:0:
338,117,153499,1,8,0:0:0:0:
362,110,153613,1,0,0:0:0:0:
387,107,153726,1,0,0:0:0:0:
412,108,153840,1,0,0:0:0:0:
436,111,153954,6,0,L|440:192,1,80,4|0,1:0|0:0,0:0:0:0:
380,244,154295,2,0,L|384:325,1,80,0|0,0:0|0:0,0:0:0:0:
444,376,154636,1,0,0:0:0:0:
232,328,154863,1,0,0:0:0:0:
220,352,154977,1,8,0:0:0:0:
96,272,155204,1,0,0:0:0:0:
104,296,155318,1,8,0:0:0:0:
184,192,155545,1,0,0:0:0:0:
184,192,155659,1,0,0:0:0:0:
184,192,155772,6,0,L|96:188,1,80
0,115,156113,2,0,L|80:112,1,80,0|0,0:0|0:0,0:0:0:0:
160,108,156454,1,0,0:0:0:0:
280,256,156681,1,0,0:0:0:0:
272,280,156795,1,8,0:0:0:0:
340,144,157022,1,0,0:0:0:0:
352,160,157136,2,0,P|356:120|352:76,1,80,10|2,0:0|0:0,0:0:0:0:
432,224,157590,6,0,P|420:280|452:352,1,120,2|0,0:0|0:0,0:0:0:0:
364,360,158045,2,0,L|280:356,1,80,8|0,0:0|0:0,0:0:0:0:
200,260,158499,2,0,L|284:256,1,80
352,160,158954,1,8,0:0:0:0:
352,160,159181,1,0,0:0:0:0:
112,40,159409,5,0,0:0:0:0:
108,60,159522,1,0,0:0:0:0:
104,80,159636,1,0,0:0:0:0:
100,100,159749,1,0,0:0:0:0:
96,120,159863,2,0,L|88:168,3,40,8|0|2|2,0:0|0:0|0:0|0:0,0:0:0:0:
120,188,160318,2,0,L|128:236,3,40,2|8|2|2,0:0|0:0|0:0|0:0,0:0:0:0:
130,247,160772,1,10,0:0:0:0:
134,266,160886,1,0,0:0:0:0:
138,285,160999,1,2,0:0:0:0:
142,304,161113,1,2,0:0:0:0:
146,323,161227,1,4,1:0:0:0:
124,115,166681,5,4,1:0:0:0:
216,272,167136,2,0,L|260:268,3,40,0|0|0|0,0:0|0:0|0:0|0:0,0:0:0:0:
296,196,167590,2,0,L|336:200,3,40,0|0|0|0,0:0|0:0|0:0|0:0,0:0:0:0:
384,272,168045,1,8,3:0:0:0:
456,168,168499,6,0,P|464:128|460:84,1,80,4|0,1:0|0:0,0:0:0:0:
348,20,168954,1,10,0:0:0:0:
296,196,169181,1,0,0:0:0:0:
380,128,169409,1,2,0:0:0:0:
176,168,169636,2,0,L|92:160,1,80,0|10,0:0|0:0,0:0:0:0:
260,308,170090,1,0,0:0:0:0:
120,336,170318,6,0,L|40:343,1,80,2|0,0:0|0:0,0:0:0:0:
196,232,170772,1,10,0:0:0:0:
364,328,170999,1,0,0:0:0:0:
468,220,171227,1,2,0:0:0:0:
468,220,171454,1,0,0:0:0:0:
328,164,171681,1,10,0:0:0:0:
328,164,171909,1,0,0:0:0:0:
216,328,172136,6,0,P|257:322|316:320,1,80,2|0,0:0|0:0,0:0:0:0:
68,192,172590,1,10,0:0:0:0:
100,280,172818,1,0,0:0:0:0:
160,128,173045,2,0,L|172:36,1,80,2|0,0:0|0:0,0:0:0:0:
224,220,173499,2,0,L|234:299,1,80,10|0,0:0|0:0,0:0:0:0:
296,132,173954,6,0,P|304:76|288:0,2,120,4|8|8,1:0|0:0|0:0,0:0:0:0:
420,288,174863,1,2,0:0:0:0:
395,286,174976,1,8,0:0:0:0:
370,287,175090,1,0,0:0:0:0:
345,289,175203,1,0,0:0:0:0:
320,292,175317,1,10,0:0:0:0:
295,294,175431,1,0,0:0:0:0:
270,295,175544,1,0,0:0:0:0:
245,294,175658,1,0,0:0:0:0:
220,290,175772,6,0,B|168:276|168:276|64:296,1,160,4|10,1:0|0:0,0:0:0:0:
12,368,176454,1,0,0:0:0:0:
68,132,176681,2,0,P|68:92|60:28,1,80,2|0,0:0|0:0,0:0:0:0:
136,288,177136,2,0,P|136:328|144:392,1,80,10|0,0:0|0:0,0:0:0:0:
204,160,177590,6,0,P|224:80|192:0,2,160,0|10|0,0:0|0:0|0:0,0:0:0:0:
352,144,178727,1,0,0:0:0:0:
396,284,178954,1,10,0:0:0:0:
396,284,179181,1,0,0:0:0:0:
396,284,179409,6,0,L|388:364,1,80,2|0,0:0|0:0,0:0:0:0:
376,120,179863,2,0,L|384:40,1,80,10|0,0:0|0:0,0:0:0:0:
300,256,180318,2,0,L|292:336,1,80,2|0,0:0|0:0,0:0:0:0:
280,92,180772,2,0,L|288:12,1,80,10|0,0:0|0:0,0:0:0:0:
204,224,181227,6,0,L|188:352,2,120,4|10|14,0:0|0:0|2:0,0:0:0:0:
40,56,182136,1,0,0:0:0:0:
12,212,182363,1,0,0:0:0:0:
164,144,182590,1,8,0:0:0:0:
193,145,182703,1,0,0:0:0:0:
223,147,182817,1,0,0:0:0:0:
253,149,182930,1,0,0:0:0:0:
283,151,183045,6,0,P|324:144|372:136,1,80,6|0,0:0|0:0,0:0:0:0:
428,288,183499,2,0,P|388:281|349:273,1,80,10|0,0:0|0:0,0:0:0:0:
480,176,183954,1,2,0:0:0:0:
372,372,184181,1,0,0:0:0:0:
248,324,184409,2,0,P|208:331|169:338,1,80,10|0,0:0|0:0,0:0:0:0:
28,216,184863,5,2,0:0:0:0:
92,328,185090,1,0,0:0:0:0:
104,128,185318,2,0,P|99:104|94:48,1,80,10|0,0:0|0:0,0:0:0:0:
192,212,185772,1,0,0:0:0:0:
272,304,185999,2,0,P|268:326|262:383,1,80,0|10,0:0|0:0,0:0:0:0:
400,196,186454,1,0,0:0:0:0:
312,112,186681,6,0,P|288:108|224:104,1,80,2|0,0:0|0:0,0:0:0:0:
444,60,187136,1,8,0:0:0:0:
444,60,187363,1,0,0:0:0:0:
384,260,187590,2,0,P|408:256|472:252,1,80,2|0,0:0|0:0,0:0:0:0:
296,360,188045,1,8,0:0:0:0:
296,360,188272,1,0,0:0:0:0:
52,283,188499,5,4,1:0:0:0:
176,120,188727,1,2,0:0:0:0:
52,56,188954,1,8,0:0:0:0:
232,320,189181,1,2,0:0:0:0:
312,192,189409,1,0,0:0:0:0:
132,244,189636,1,2,0:0:0:0:
336,328,189863,1,8,0:0:0:0:
208,88,190090,1,2,0:0:0:0:
408,136,190318,6,0,B|464:108|528:128|528:128|500:152,1,160,4|2,1:0|0:0,0:0:0:0:
484,160,192136,1,4,1:0:0:0:
184,88,197590,6,0,L|176:128,3,40,4|0|2|0,1:0|0:0|0:0|0:0,0:0:0:0:
120,192,198045,2,0,L|128:232,3,40,2|0|2|0,0:0|0:0|0:0|0:0,0:0:0:0:
180,292,198499,1,2,0:0:0:0:
199,293,198612,1,0,0:0:0:0:
219,294,198726,1,2,0:0:0:0:
239,295,198839,1,0,0:0:0:0:
259,297,198953,1,2,0:0:0:0:
279,298,199067,1,0,0:0:0:0:
299,299,199180,1,2,0:0:0:0:
319,301,199294,1,0,0:0:0:0:
339,302,199409,6,0,L|412:296,1,71.9999978027344,4|0,1:0|0:0,0:0:0:0:
507,213,199863,2,0,L|436:208,1,71.9999978027344,8|0,0:0|0:0,0:0:0:0:
368,144,200318,2,0,P|360:96|356:28,2,107.999996704102,2|2|2,0:0|0:0|0:0,0:0:0:0:
275,164,201227,6,0,P|278:199|279:235,1,71.9999978027344,4|0,1:0|0:0,0:0:0:0:
200,108,201681,2,0,P|200:72|202:36,1,71.9999978027344,8|0,0:0|0:0,0:0:0:0:
136,176,202136,2,0,P|88:172|16:176,2,107.999996704102,2|2|2,0:0|0:0|0:0,0:0:0:0:
111,268,203045,6,0,P|76:274|40:276,1,71.9999978027344,4|0,1:0|0:0,0:0:0:0:
196,312,203499,2,0,P|216:316|272:320,1,71.9999978027344,8|0,0:0|0:0,0:0:0:0:
344,196,203954,2,0,P|308:197|272:204,1,71.9999978027344,4|0,1:0|0:0,0:0:0:0:
428,300,204409,1,8,0:0:0:0:
428,300,204636,1,0,0:0:0:0:
256,212,204863,5,8,0:0:0:0:
352,104,205090,1,8,0:0:0:0:
316,296,205318,1,8,0:0:0:0:
240,104,205545,1,8,0:0:0:0:
436,176,205772,1,4,1:0:0:0:
64,160,206454,5,0,0:0:0:0:
64,160,206568,1,0,0:0:0:0:
64,160,206681,2,0,B|60:256|60:256|76:284,1,120,4|0,1:0|0:0,0:0:0:0:
136,328,207136,2,0,P|188:336|236:332,1,80,8|0,0:0|0:0,0:0:0:0:
300,212,207590,2,0,P|260:211|220:219,1,80
408,344,208045,1,8,0:0:0:0:
408,344,208272,1,0,0:0:0:0:
468,252,208499,6,0,P|488:200|480:136,1,120
412,96,208954,2,0,L|332:100,1,80,8|0,0:0|0:0,0:0:0:0:
212,272,209409,1,2,0:0:0:0:
220,296,209522,1,8,0:0:0:0:
392,188,209749,1,0,0:0:0:0:
388,212,209863,1,8,0:0:0:0:
340,304,210090,1,0,0:0:0:0:
340,304,210204,1,0,0:0:0:0:
340,304,210318,6,0,L|216:312,1,120
148,348,210772,2,0,P|104:344|60:348,1,80,8|0,0:0|0:0,0:0:0:0:
180,220,211227,1,8,0:0:0:0:
244,96,211454,1,8,0:0:0:0:
292,336,211681,1,8,0:0:0:0:
72,120,211909,1,8,0:0:0:0:
409,162,212136,5,12,0:0:0:0:
204,339,212477,5,8,0:0:0:0:
153,73,212818,5,4,1:0:0:0:
164,264,213045,1,2,0:0:0:0:
140,272,213158,1,8,0:0:0:0:
116,277,213272,1,2,0:0:0:0:
91,277,213385,1,0,0:0:0:0:
68,268,213499,1,8,0:0:0:0:
54,247,213613,1,0,0:0:0:0:
43,225,213726,1,0,0:0:0:0:
34,202,213840,1,0,0:0:0:0:
28,177,213954,6,0,P|32:128|32:92,1,80,4|2,1:0|0:0,0:0:0:0:
108,0,214295,2,0,P|108:40|112:80,1,80,0|2,0:0|0:0,0:0:0:0:
164,144,214636,1,0,0:0:0:0:
352,184,214863,2,0,P|397:178|432:176,1,80
288,336,215318,1,8,0:0:0:0:
184,280,215545,1,0,0:0:0:0:
184,280,215659,1,0,0:0:0:0:
184,280,215772,6,0,P|152:288|104:312,1,80,0|2,0:0|0:0,0:0:0:0:
31,292,216113,2,0,P|21:330|19:370,1,80,0|2,0:0|0:0,0:0:0:0:
88,232,216454,1,0,0:0:0:0:
108,144,216681,1,2,0:0:0:0:
132,156,216795,1,8,0:0:0:0:
224,264,217022,1,0,0:0:0:0:
248,252,217136,2,0,B|288:244|288:244|328:252,1,80,8|0,0:0|0:0,0:0:0:0:
376,312,217590,6,0,P|400:272|380:192,2,120,0|2|2,0:0|0:0|0:0,0:0:0:0:
192,352,218499,1,0,0:0:0:0:
92,288,218727,2,0,P|84:232|88:204,1,80,2|8,0:0|0:0,0:0:0:0:
152,164,219068,2,0,P|160:108|156:80,1,80,2|0,0:0|0:0,0:0:0:0:
88,44,219409,6,0,P|148:8|232:48,1,160,0|8,0:0|0:0,0:0:0:0:
296,140,220090,1,0,0:0:0:0:
290,159,220203,1,0,0:0:0:0:
288,179,220317,1,0,0:0:0:0:
288,199,220430,1,8,0:0:0:0:
289,219,220544,1,0,0:0:0:0:
290,239,220658,1,0,0:0:0:0:
291,259,220771,1,8,0:0:0:0:
291,279,220885,1,0,0:0:0:0:
290,299,220999,1,0,0:0:0:0:
288,318,221112,1,0,0:0:0:0:
285,338,221227,6,0,B|200:332|200:332|164:352,2,120,4|2|2,1:0|0:0|0:0,0:0:0:0:
180,136,222136,1,0,0:0:0:0:
16,279,222363,2,0,L|96:272,1,80,2|8,0:0|0:0,0:0:0:0:
243,235,222704,2,0,L|164:228,1,80,2|0,0:0|0:0,0:0:0:0:
100,180,223045,6,0,P|88:128|132:56,2,120,0|2|2,0:0|0:0|0:0,0:0:0:0:
272,60,223954,1,0,0:0:0:0:
272,60,224181,2,0,P|304:84|336:112,1,80,2|8,0:0|0:0,0:0:0:0:
412,100,224522,2,0,P|407:139|398:181,1,80,2|0,0:0|0:0,0:0:0:0:
424,256,224863,6,0,P|344:244|288:264,2,120,0|2|2,0:0|0:0|0:0,0:0:0:0:
232,348,225772,1,0,0:0:0:0:
115,227,225999,2,0,P|76:217|37:215,1,80,2|8,0:0|0:0,0:0:0:0:
212,262,226340,2,0,P|201:223|184:188,1,80,2|0,0:0|0:0,0:0:0:0:
116,144,226681,5,0,0:0:0:0:
336,160,226909,1,0,0:0:0:0:
212,262,227136,2,0,P|204:314|208:342,1,80,8|0,0:0|0:0,0:0:0:0:
400,312,227590,1,0,0:0:0:0:
404,287,227703,1,8,0:0:0:0:
406,262,227817,1,0,0:0:0:0:
403,237,227930,1,0,0:0:0:0:
396,213,228044,1,8,0:0:0:0:
389,189,228158,1,0,0:0:0:0:
386,164,228271,1,0,0:0:0:0:
386,139,228385,1,0,0:0:0:0:
389,115,228499,6,0,B|324:108|324:108|300:120|300:120|232:112,1,160,4|8,1:0|0:0,0:0:0:0:
68,52,229181,1,0,0:0:0:0:
68,52,229409,2,0,L|60:148,1,80
108,352,229863,2,0,L|116:256,1,80,8|0,0:0|0:0,0:0:0:0:
208,208,230318,6,0,P|280:192|336:212,1,120
372,268,230772,2,0,B|376:308|376:308|372:352,1,80,8|0,0:0|0:0,0:0:0:0:
464,188,231227,1,0,0:0:0:0:
440,184,231340,1,8,0:0:0:0:
292,36,231568,1,0,0:0:0:0:
316,52,231681,1,8,0:0:0:0:
344,61,231794,1,0,0:0:0:0:
374,64,231908,1,0,0:0:0:0:
404,60,232021,1,0,0:0:0:0:
432,51,232136,6,0,L|420:148,1,80,4|0,1:0|0:0,0:0:0:0:
362,188,232477,2,0,L|374:284,1,80,4|0,1:0|0:0,0:0:0:0:
428,324,232818,1,4,1:0:0:0:
428,324,233272,1,0,0:0:0:0:
272,360,233499,1,8,0:0:0:0:
242,355,233612,1,0,0:0:0:0:
212,353,233726,1,0,0:0:0:0:
182,351,233839,1,0,0:0:0:0:
152,351,233954,5,0,0:0:0:0:
136,216,234181,1,8,0:0:0:0:
224,256,234409,2,0,P|263:261|303:264,1,80,8|0,2:0|0:0,0:0:0:0:
396,120,234863,1,0,0:0:0:0:
368,128,234977,1,8,0:0:0:0:
340,136,235090,1,0,0:0:0:0:
312,144,235204,1,0,0:0:0:0:
280,121,235318,1,8,0:0:0:0:
251,118,235432,1,0,0:0:0:0:
222,116,235545,1,0,0:0:0:0:
193,113,235659,1,0,0:0:0:0:
164,111,235772,6,0,P|129:159|145:228,1,120,4|0,1:0|0:0,0:0:0:0:
92,284,236227,2,0,P|40:280|0:280,1,80,8|0,0:0|0:0,0:0:0:0:
132,376,236681,2,0,P|171:375|211:371,1,80
356,256,237136,1,8,0:0:0:0:
356,256,237363,1,0,0:0:0:0:
408,316,237590,6,0,P|432:236|404:192,1,120
344,172,238045,2,0,P|280:176|248:176,1,80,8|0,0:0|0:0,0:0:0:0:
192,76,238499,1,0,0:0:0:0:
212,80,238613,1,8,0:0:0:0:
168,228,238840,1,0,0:0:0:0:
148,232,238954,2,0,P|138:270|133:310,1,80,8|0,0:0|0:0,0:0:0:0:
232,348,239409,6,0,P|308:320|368:340,1,120
416,368,239863,2,0,P|472:368|500:364,1,80,8|0,0:0|0:0,0:0:0:0:
392,232,240318,2,0,P|352:227|312:228,1,80
156,304,240772,1,8,0:0:0:0:
156,304,240999,1,0,0:0:0:0:
55,199,241227,6,0,P|30:169|10:134,1,80,2|0,0:0|0:0,0:0:0:0:
163,147,241681,2,0,P|157:108|157:68,1,80,10|0,0:0|0:0,0:0:0:0:
284,172,242136,2,0,P|298:134|318:100,1,80,2|0,0:0|0:0,0:0:0:0:
352,280,242590,1,10,0:0:0:0:
352,280,242818,1,0,0:0:0:0:
288,328,243045,6,0,L|160:336,2,120.000004577637,4|8|0,1:0|0:0|0:0,0:0:0:0:
400,160,244181,1,0,0:0:0:0:
444,235,244409,2,0,P|444:265|446:295,1,60.0000022888184,8|0,0:0|0:0,0:0:0:0:
484,156,244863,6,0,L|488:32,2,120.000004577637,4|8|0,1:0|0:0|0:0,0:0:0:0:
484,176,245886,1,8,0:0:0:0:
368,160,246113,1,0,0:0:0:0:
352,160,246227,2,0,P|332:160|272:164,1,60.0000022888184,8|0,0:0|0:0,0:0:0:0:
212,124,246681,6,0,P|208:156|208:192,1,60.0000022888184,4|0,1:0|0:0,0:0:0:0:
136,216,247022,2,0,P|148:245|166:276,1,60.0000022888184,4|0,1:0|0:0,0:0:0:0:
124,340,247363,2,0,P|149:359|180:377,1,60.0000022888184,4|0,1:0|0:0,0:0:0:0:
312,300,247818,1,0,0:0:0:0:
456,372,248045,2,0,P|424:372|396:368,1,60.0000022888184,8|8,0:0|0:0,0:0:0:0:
504,268,248499,1,4,1:0:0:0:
256,192,248613,12,0,250318,0:0:0:0:
