osu file format v14

[General]
AudioFilename: Handoru nigitte.mp3
AudioLeadIn: 773
PreviewTime: 73272
Countdown: 0
SampleSet: Soft
StackLeniency: 0.7
Mode: 0
LetterboxInBreaks: 0
WidescreenStoryboard: 0

[Editor]
DistanceSpacing: 1.4
BeatDivisor: 4
GridSize: 4
TimelineZoom: 1.2

[Metadata]
Title:Handle Nigitte
TitleUnicode:ハンドル握って
Artist:senya
ArtistUnicode:senya
Creator:Alex Li
Version:Hard
Source:
Tags:HiZuMi Saa kogou kamasetora yuuhei satellite mayumi morinaga
BeatmapID:572117
BeatmapSetID:247319

[Difficulty]
HPDrainRate:5
CircleSize:4
OverallDifficulty:6
ApproachRate:7
SliderMultiplier:1.4
SliderTickRate:1

[Events]
//Background and Video events
0,0,"Untitled.jpg",0,0
//Break Periods
2,161427,167145
2,192336,196690
//Storyboard Layer 0 (Background)
//Storyboard Layer 1 (Fail)
//Storyboard Layer 2 (Pass)
//Storyboard Layer 3 (Foreground)
//Storyboard Sound Samples

[TimingPoints]
-591,454.545454545455,4,2,1,40,1,0
1227,-111.111111111111,4,2,1,40,0,0
8497,-100,4,2,1,65,0,0
30316,-111.111111111111,4,2,1,65,0,0
44863,-100,4,2,1,65,0,0
59409,-111.111111111111,4,2,1,40,0,0
73954,-100,4,2,1,65,0,1
103045,-111.111111111111,4,2,1,65,0,0
117590,-111.111111111111,4,2,1,40,0,0
132136,-100,4,2,1,65,0,1
161227,-100,4,2,1,65,0,0
197590,-111.111111111111,4,2,1,65,0,0
206681,-100,4,2,1,65,0,1
221227,-100,4,2,1,65,0,0
243045,-111.111111111111,4,2,1,65,0,0
250318,-111.111111111111,4,2,1,5,0,0

[Colours]
Combo1 : 149,66,189
Combo2 : 44,122,141
Combo3 : 167,167,167
Combo4 : 58,18,248

[HitObjects]
48,104,1227,6,0,L|112:100,1,62.9999980773926,0|0,0:0|0:0,0:0:0:0:
168,160,1681,2,0,L|232:156,1,62.9999980773926,0|0,0:0|0:0,0:0:0:0:
288,216,2136,2,0,P|312:152|288:100,1,125.999996154785,2|0,0:0|0:0,0:0:0:0:
420,168,3045,6,0,L|423:105,1,62.9999980773926,0|0,0:0|0:0,0:0:0:0:
372,236,3499,2,0,L|368:298,1,62.9999980773926,0|0,0:0|0:0,0:0:0:0:
416,364,3954,2,0,B|364:352|364:352|288:360,1,125.999996154785,2|0,0:0|0:0,0:0:0:0:
80,304,4863,6,0,P|64:260|64:228,1,62.9999980773926,0|0,0:0|0:0,0:0:0:0:
106,128,5318,2,0,P|119:156|124:188,1,62.9999980773926,0|0,0:0|0:0,0:0:0:0:
168,256,5772,2,0,B|212:268|212:268|304:256,1,125.999996154785,2|0,0:0|0:0,0:0:0:0:
444,344,6681,6,0,L|432:272,1,62.9999980773926,0|0,0:0|0:0,0:0:0:0:
468,208,7136,2,0,L|456:136,1,62.9999980773926,0|0,0:0|0:0,0:0:0:0:
400,88,7590,1,2,0:0:0:0:
312,160,7818,2,0,L|280:156,1,31.4999990386963,0|2,0:0|0:0,0:0:0:0:
104,268,8272,1,0,0:0:0:0:
104,268,8386,1,0,0:0:0:0:
104,268,8499,6,0,L|208:264,2,105,4|0|0,1:0|0:0|0:0,0:0:0:0:
36,208,9409,2,0,L|32:136,1,70,0|0,0:0|0:0,0:0:0:0:
112,30,9863,2,0,L|116:100,1,70,8|0,0:0|0:0,0:0:0:0:
164,180,10318,6,0,P|200:132|200:72,2,105,4|0|0,1:0|0:0|0:0,0:0:0:0:
252,164,11227,2,0,L|320:152,1,70,0|0,0:0|0:0,0:0:0:0:
412,284,11681,2,0,L|344:272,1,70,8|0,0:0|0:0,0:0:0:0:
468,220,12136,6,0,P|492:296|456:356,1,140,4|8,1:0|0:0,0:0:0:0:
380,372,12818,1,0,0:0:0:0:
292,348,13045,2,0,L|224:336,1,70,4|0,1:0|0:0,0:0:0:0:
112,272,13499,2,0,L|44:284,1,70,8|0,0:0|0:0,0:0:0:0:
164,168,14181,5,0,1:0:0:0:
164,168,14409,2,0,L|176:80,1,70,0|0,1:0|0:0,0:0:0:0:
272,28,14863,1,0,0:0:0:0:
284,32,14977,1,0,0:0:0:0:
296,36,15090,1,0,0:0:0:0:
400,128,15318,1,8,0:0:0:0:
336,200,15545,1,0,0:0:0:0:
324,204,15658,1,0,0:0:0:0:
312,208,15772,6,0,L|304:352,1,140,4|8,1:0|0:0,0:0:0:0:
220,316,16454,1,0,0:0:0:0:
136,352,16681,2,0,L|52:344,1,70,0|0,0:0|0:0,0:0:0:0:
72,256,17136,2,0,L|2:262,1,70,8|0,0:0|0:0,0:0:0:0:
128,184,17590,6,0,L|272:188,1,140,0|8,0:0|0:0,0:0:0:0:
340,244,18272,2,0,L|332:313,1,70,0|0,0:0|0:0,0:0:0:0:
396,172,18727,1,0,0:0:0:0:
396,172,18954,2,0,L|388:102,1,70,8|0,0:0|0:0,0:0:0:0:
466,234,19409,6,0,P|405:264|340:244,1,140,0|8,0:0|0:0,0:0:0:0:
268,192,20090,1,0,0:0:0:0:
196,252,20318,2,0,P|156:256|128:264,1,70,0|0,0:0|0:0,0:0:0:0:
36,255,20772,2,0,P|21:287|12:321,1,70,8|0,0:0|0:0,0:0:0:0:
100,192,21227,6,0,P|100:88|96:48,1,140,0|10,0:0|0:0,0:0:0:0:
200,104,21909,2,0,P|234:98|284:96,1,70,2|2,0:0|0:0,0:0:0:0:
284,100,22249,1,8,0:0:0:0:
364,232,22477,1,0,0:0:0:0:
348,236,22590,2,0,P|313:233|278:228,1,70,8|0,0:0|0:0,0:0:0:0:
416,168,23045,6,0,P|444:252|408:300,1,140,4|8,0:0|0:0,0:0:0:0:
336,328,23727,1,0,0:0:0:0:
336,328,23954,2,0,L|264:320,1,70,0|0,0:0|0:0,0:0:0:0:
252,184,24409,2,0,L|180:192,1,70,8|0,0:0|0:0,0:0:0:0:
120,256,24863,6,0,P|96:216|124:124,1,140,0|8,0:0|0:0,0:0:0:0:
205,106,25545,1,0,0:0:0:0:
252,184,25772,2,0,L|248:268,1,70,0|0,0:0|0:0,0:0:0:0:
331,369,26227,2,0,L|328:300,1,70,8|0,0:0|0:0,0:0:0:0:
388,232,26681,6,0,L|504:236,2,105,8|8|4,0:0|0:0|1:0,0:0:0:0:
296,228,27590,1,0,0:0:0:0:
296,228,27818,2,0,L|282:296,1,70,0|8,0:0|0:0,0:0:0:0:
240,156,28272,1,0,0:0:0:0:
240,156,28386,1,0,0:0:0:0:
240,156,28499,6,0,P|205:155|170:152,1,70,0|4,0:0|1:0,0:0:0:0:
308,92,28954,2,0,P|342:92|377:95,1,70,4|0,1:0|0:0,0:0:0:0:
460,132,29409,2,0,P|480:200|456:264,1,140,0|8,0:0|0:0,0:0:0:0:
328,324,30090,1,0,0:0:0:0:
328,324,30204,1,0,0:0:0:0:
328,324,30318,6,0,P|244:312|192:316,1,125.999996154785,4|0,0:0|0:0,0:0:0:0:
128,344,30999,1,0,0:0:0:0:
72,284,31227,2,0,B|60:216|80:220|68:152,1,125.999996154785,0|0,0:0|0:0,0:0:0:0:
24,48,31909,1,0,0:0:0:0:
24,48,32136,6,0,L|156:60,1,125.999996154785,0|0,0:0|0:0,0:0:0:0:
232,72,32818,1,0,0:0:0:0:
320,176,33045,2,0,L|194:187,1,125.999996154785,0|0,0:0|0:0,0:0:0:0:
376,108,33954,6,0,P|404:176|392:224,1,125.999996154785,0|0,0:0|0:0,0:0:0:0:
328,276,34636,1,0,0:0:0:0:
384,336,34863,2,0,P|441:340|440:276,1,125.999996154785,0|0,0:0|0:0,0:0:0:0:
328,276,35545,1,0,0:0:0:0:
264,328,35772,6,0,L|200:336,1,62.9999980773926,0|0,0:0|0:0,0:0:0:0:
140,224,36227,2,0,L|202:231,1,62.9999980773926,0|0,0:0|0:0,0:0:0:0:
64,304,36681,1,0,0:0:0:0:
64,304,36909,1,0,1:0:0:0:
48,192,37136,2,0,L|52:224,1,31.4999990386963,0|0,1:0|1:0,0:0:0:0:
88,97,37477,1,0,1:0:0:0:
104,96,37590,6,0,B|164:92|164:92|180:100|180:100|240:96,1,125.999996154785,4|0,1:0|0:0,0:0:0:0:
308,88,38272,1,0,0:0:0:0:
380,132,38499,2,0,P|400:208|380:252,1,125.999996154785,0|0,0:0|0:0,0:0:0:0:
320,192,39181,1,0,0:0:0:0:
252,300,39409,6,0,P|176:304|120:280,1,125.999996154785,4|0,1:0|0:0,0:0:0:0:
199,179,40090,2,0,P|275:175|331:199,1,125.999996154785,0|0,1:0|0:0,0:0:0:0:
340,312,40772,1,0,0:0:0:0:
340,312,40886,1,0,0:0:0:0:
340,312,40999,1,0,0:0:0:0:
340,312,41113,1,0,0:0:0:0:
340,312,41227,6,0,P|380:308|412:308,1,62.9999980773926,4|0,1:0|0:0,0:0:0:0:
308,196,41681,2,0,P|268:192|236:192,1,62.9999980773926,0|0,0:0|0:0,0:0:0:0:
456,204,42136,2,0,P|472:152|448:68,1,125.999996154785,0|0,0:0|0:0,0:0:0:0:
500,12,42818,1,0,0:0:0:0:
500,12,43045,6,0,L|360:20,1,125.999996154785,0|0,0:0|0:0,0:0:0:0:
204,60,43727,1,0,0:0:0:0:
258,120,43954,2,0,L|384:128,1,125.999996154785,0|0,0:0|0:0,0:0:0:0:
364,264,44636,1,0,0:0:0:0:
424,328,44863,6,0,P|452:280|424:196,1,140,4|8,0:0|0:0,0:0:0:0:
364,264,45545,1,0,0:0:0:0:
304,196,45772,2,0,P|276:244|304:328,1,140,0|8,0:0|0:0,0:0:0:0:
228,380,46454,1,0,0:0:0:0:
148,336,46681,6,0,P|132:240|148:180,1,140,0|8,0:0|0:0,0:0:0:0:
216,148,47363,2,0,L|304:140,1,70,0|0,0:0|0:0,0:0:0:0:
144,64,47818,1,0,0:0:0:0:
72,116,48045,2,0,L|0:108,1,70,8|0,0:0|0:0,0:0:0:0:
124,187,48499,6,0,P|160:130|144:64,1,140,0|8,0:0|0:0,0:0:0:0:
44,228,49181,1,0,0:0:0:0:
120,280,49409,2,0,L|196:272,1,70,0|0,0:0|0:0,0:0:0:0:
316,364,49863,2,0,L|246:356,1,70,8|0,0:0|0:0,0:0:0:0:
408,308,50318,6,0,P|408:280|416:164,2,140,0|8|0,0:0|0:0|0:0,0:0:0:0:
324,272,51454,2,0,P|304:268|254:264,1,70,0|8,0:0|0:0,0:0:0:0:
164,268,51909,1,0,0:0:0:0:
80,360,52136,6,0,B|88:320|88:320|60:268|88:216,1,140,4|8,1:0|0:0,0:0:0:0:
140,152,52818,1,0,0:0:0:0:
228,172,53045,2,0,L|235:102,1,70,0|0,0:0|0:0,0:0:0:0:
280,248,53499,2,0,L|272:324,1,70,8|0,0:0|0:0,0:0:0:0:
348,368,53954,6,0,P|396:312|384:236,1,140,4|0,1:0|0:0,0:0:0:0:
479,172,54636,2,0,L|340:176,1,140,4|0,1:0|0:0,0:0:0:0:
224,160,55318,2,0,L|232:196,3,35,8|0|0|0,0:0|0:0|0:0|0:0,0:0:0:0:
216,224,55772,6,0,B|120:228|120:228|76:208,1,140,4|8,1:0|0:0,0:0:0:0:
8,156,56454,1,0,0:0:0:0:
76,96,56681,2,0,B|115:77|115:77|211:81,1,140,0|8,0:0|0:0,0:0:0:0:
300,104,57363,1,0,0:0:0:0:
348,180,57590,6,0,P|344:204|336:332,2,140,2|10|2,0:0|0:0|0:0,0:0:0:0:
428,132,58954,1,10,0:0:0:0:
476,208,59409,6,0,P|456:248|448:276,1,62.9999980773926,4|0,0:0|0:0,0:0:0:0:
407,331,59863,2,0,P|424:358|444:382,1,62.9999980773926,0|0,0:0|0:0,0:0:0:0:
344,284,60318,2,0,P|260:288|216:284,2,125.999996154785,0|0|0,0:0|0:0|0:0,0:0:0:0:
320,160,61681,5,2,0:0:0:0:
312,156,62136,1,2,0:0:0:0:
304,152,62590,1,2,0:0:0:0:
274,89,63045,6,0,P|282:119|296:148,1,62.9999980773926,4|0,1:0|0:0,0:0:0:0:
269,274,63499,2,0,P|261:244|248:216,1,62.9999980773926,0|0,0:0|0:0,0:0:0:0:
176,176,63954,2,0,P|168:224|204:300,1,125.999996154785,4|0,1:0|0:0,0:0:0:0:
298,293,64863,6,0,P|325:237|319:175,1,125.999996154785,4|0,1:0|0:0,0:0:0:0:
384,124,65545,2,0,P|415:124|446:120,1,62.9999980773926,0|4,0:0|1:0,0:0:0:0:
68,240,66681,5,4,1:0:0:0:
116,308,66909,1,0,0:0:0:0:
104,164,67136,2,0,L|100:100,1,62.9999980773926,0|0,0:0|0:0,0:0:0:0:
152,232,67590,2,0,L|280:240,2,125.999996154785,0|0|0,0:0|0:0|0:0,0:0:0:0:
264,128,68954,6,0,L|392:120,2,125.999996154785,2|2|2,0:0|0:0|0:0,0:0:0:0:
196,176,70090,1,0,0:0:0:0:
296,268,70318,5,4,1:0:0:0:
308,264,71227,1,4,1:0:0:0:
320,260,72136,1,4,1:0:0:0:
256,192,72249,12,0,73499,0:0:0:0:
416,72,73954,6,0,B|432:116|432:116|416:172,2,105,4|2|2,1:0|0:0|0:0,0:0:0:0:
332,36,74863,2,0,P|292:32|256:32,1,70,0|0,0:0|0:0,0:0:0:0:
192,160,75318,2,0,P|226:159|261:155,1,70,8|0,0:0|0:0,0:0:0:0:
120,119,75772,6,0,P|110:170|130:218,2,105,0|2|2,0:0|0:0|0:0,0:0:0:0:
172,292,76681,2,0,L|132:304,1,35,0|8,0:0|0:0,0:0:0:0:
48,356,77022,2,0,L|84:364,1,35,0|8,0:0|0:0,0:0:0:0:
224,356,77363,1,0,0:0:0:0:
292,320,77590,6,0,B|360:304|360:304|444:316,1,140,0|8,0:0|0:0,0:0:0:0:
484,244,78272,1,0,0:0:0:0:
484,244,78499,2,0,P|484:200|480:164,1,70,0|0,0:0|0:0,0:0:0:0:
415,108,78954,2,0,P|446:90|475:70,1,70,8|0,0:0|0:0,0:0:0:0:
391,195,79409,6,0,P|323:183|253:191,2,140,0|8|0,0:0|0:0|0:0,0:0:0:0:
444,272,80545,1,0,0:0:0:0:
316,344,80772,2,0,L|236:340,1,70,8|0,0:0|0:0,0:0:0:0:
166,219,81227,6,0,L|156:324,2,105,4|0|0,1:0|0:0|0:0,0:0:0:0:
240,164,82136,2,0,L|250:59,2,105,2|2|2,0:0|0:0|0:0,0:0:0:0:
248,256,83045,6,0,L|352:266,2,105,0|0|0,0:0|0:0|0:0,0:0:0:0:
156,132,83954,2,0,L|51:142,2,105,2|2|2,0:0|0:0|0:0,0:0:0:0:
84,76,84863,6,0,P|68:148|108:212,1,140,0|8,0:0|0:0,0:0:0:0:
180,244,85545,1,0,0:0:0:0:
180,244,85772,2,0,L|256:236,1,70,0|0,0:0|0:0,0:0:0:0:
108,312,86227,2,0,L|38:304,1,70,8|0,0:0|0:0,0:0:0:0:
200,368,86681,5,0,0:0:0:0:
276,320,86909,1,0,0:0:0:0:
356,360,87136,2,0,L|400:364,2,35,2|2|2,0:0|0:0|0:0,0:0:0:0:
340,164,87590,2,0,L|348:128,4,35,2|2|2|0|10,0:0|0:0|0:0|0:0|0:0,0:0:0:0:
204,156,88272,1,8,0:0:0:0:
204,156,88386,1,8,0:0:0:0:
204,156,88499,6,0,P|148:172|96:152,2,105,4|2|2,1:0|0:0|0:0,0:0:0:0:
148,22,89409,2,0,L|152:92,1,70,0|0,0:0|0:0,0:0:0:0:
224,213,89863,2,0,L|228:144,1,70,8|0,0:0|0:0,0:0:0:0:
312,48,90318,6,0,B|384:36|384:36|428:44,2,105,0|2|2,0:0|0:0|0:0,0:0:0:0:
407,119,91227,2,0,P|442:116|474:102,1,70,0|0,0:0|0:0,0:0:0:0:
340,180,91681,1,8,0:0:0:0:
420,224,91909,1,0,0:0:0:0:
420,224,92022,1,0,0:0:0:0:
420,224,92136,6,0,L|408:304,1,70,0|0,0:0|0:0,0:0:0:0:
330,381,92590,2,0,L|320:312,1,70,8|0,0:0|0:0,0:0:0:0:
256,244,93045,1,0,0:0:0:0:
256,244,93272,1,0,0:0:0:0:
124,288,93499,1,8,0:0:0:0:
124,288,93727,1,0,0:0:0:0:
56,228,93954,6,0,L|48:123,2,105,8|8|4,0:0|0:0|1:0,0:0:0:0:
132,156,94863,2,0,L|216:164,1,70,0|0,0:0|0:0,0:0:0:0:
288,104,95318,1,8,0:0:0:0:
305,102,95431,1,0,0:0:0:0:
322,100,95545,1,0,0:0:0:0:
340,99,95658,1,0,0:0:0:0:
357,97,95772,6,0,L|472:84,2,105,4|0|0,1:0|0:0|0:0,0:0:0:0:
312,176,96681,2,0,P|384:184|424:164,2,105,2|2|2,0:0|0:0|0:0,0:0:0:0:
160,200,97590,6,0,L|156:316,2,105,0|0|0,0:0|0:0|0:0,0:0:0:0:
116,120,98499,2,0,P|188:112|228:132,2,105,2|2|2,0:0|0:0|0:0,0:0:0:0:
68,200,99409,6,0,L|64:280,1,70,0|0,0:0|0:0,0:0:0:0:
148,365,99863,2,0,L|152:296,1,70,8|0,0:0|0:0,0:0:0:0:
220,236,100318,1,0,0:0:0:0:
316,320,100545,2,0,L|392:316,1,70,0|8,0:0|0:0,0:0:0:0:
416,232,100999,1,0,0:0:0:0:
492,284,101227,6,0,P|500:240|500:144,2,140,0|8|0,0:0|0:0|0:0,0:0:0:0:
416,232,102363,1,0,0:0:0:0:
412,140,102590,2,0,P|415:105|424:71,1,70,8|0,0:0|0:0,0:0:0:0:
304,204,103045,6,0,B|256:208|220:192|220:192|160:216,1,125.999996154785,4|8,0:0|0:0,0:0:0:0:
136,276,103727,1,0,0:0:0:0:
188,340,103954,2,0,P|124:356|72:328,1,125.999996154785,0|8,0:0|0:0,0:0:0:0:
30,205,104636,1,0,0:0:0:0:
30,205,104863,6,0,L|20:268,1,62.9999980773926,0|0,0:0|0:0,0:0:0:0:
93,105,105318,2,0,L|104:168,1,62.9999980773926,8|0,0:0|0:0,0:0:0:0:
156,228,105772,2,0,P|172:200|164:100,1,125.999996154785,0|8,0:0|0:0,0:0:0:0:
204,292,106681,6,0,B|164:276|164:276|120:276|83:292,1,125.999996154785,0|8,0:0|0:0,0:0:0:0:
180,372,107363,1,0,0:0:0:0:
260,352,107590,2,0,P|296:344|332:340,1,62.9999980773926,0|0,0:0|0:0,0:0:0:0:
383,287,108045,2,0,P|405:311|424:336,1,62.9999980773926,8|0,0:0|0:0,0:0:0:0:
308,252,108499,6,0,P|320:188|312:124,1,125.999996154785,0|8,0:0|0:0,0:0:0:0:
248,76,109181,1,0,0:0:0:0:
120,184,109409,2,0,L|182:187,1,62.9999980773926,0|0,0:0|0:0,0:0:0:0:
60,128,109863,2,0,L|56:52,1,62.9999980773926,8|0,0:0|0:0,0:0:0:0:
48,232,110318,6,0,L|44:360,1,125.999996154785,4|8,1:0|0:0,0:0:0:0:
124,328,110999,1,0,0:0:0:0:
124,328,111113,1,0,0:0:0:0:
124,328,111227,2,0,L|212:324,1,62.9999980773926,0|0,0:0|0:0,0:0:0:0:
240,236,111681,2,0,L|177:233,1,62.9999980773926,8|0,0:0|0:0,0:0:0:0:
308,296,112136,6,0,B|296:248|296:248|304:208|324:176,1,125.999996154785,4|8,1:0|0:0,0:0:0:0:
380,112,112818,2,0,P|410:166|392:225,1,125.999996154785,4|0,1:0|0:0,0:0:0:0:
224,104,113499,2,0,L|196:128,3,31.4999990386963,8|0|0|0,0:0|0:0|0:0|0:0,0:0:0:0:
168,120,113954,6,0,B|80:112|80:112|44:128,1,125.999996154785,4|8,1:0|0:0,0:0:0:0:
28,252,114863,2,0,B|62:267|62:267|150:259,1,125.999996154785,0|8,0:0|0:0,0:0:0:0:
308,192,115772,5,2,0:0:0:0:
312,204,116227,1,10,0:0:0:0:
316,216,116681,1,2,0:0:0:0:
320,228,117136,1,10,0:0:0:0:
324,236,117590,6,0,L|308:304,1,62.9999980773926,4|0,0:0|0:0,0:0:0:0:
244,348,118045,2,0,L|181:351,1,62.9999980773926,0|0,0:0|0:0,0:0:0:0:
320,376,118499,2,0,P|368:360|456:376,2,125.999996154785,0|0|0,0:0|0:0|0:0,0:0:0:0:
160,240,119863,5,2,0:0:0:0:
152,236,120318,1,2,0:0:0:0:
144,232,120772,1,2,0:0:0:0:
68,304,121227,6,0,L|0:308,1,62.9999980773926,4|0,1:0|0:0,0:0:0:0:
144,352,121681,2,0,L|206:355,1,62.9999980773926,0|0,0:0|0:0,0:0:0:0:
280,316,122136,2,0,L|272:190,1,125.999996154785,4|0,1:0|0:0,0:0:0:0:
324,128,123045,6,0,P|352:184|332:244,1,125.999996154785,4|0,1:0|0:0,0:0:0:0:
264,284,123727,1,0,0:0:0:0:
188,256,123954,2,0,B|104:248|104:248|64:280,1,125.999996154785,4|0,1:0|0:0,0:0:0:0:
312,360,124863,6,0,P|344:360|376:352,1,62.9999980773926,4|0,1:0|0:0,0:0:0:0:
440,292,125318,2,0,P|472:292|504:300,1,62.9999980773926,0|0,0:0|0:0,0:0:0:0:
368,239,125772,2,0,P|324:284|264:284,2,125.999996154785,0|0|0,0:0|0:0|0:0,0:0:0:0:
440,196,126909,6,0,P|432:156|432:128,1,62.9999980773926,2|0,0:0|0:0,0:0:0:0:
460,56,127363,1,0,0:0:0:0:
380,68,127590,2,0,P|320:52|256:68,1,125.999996154785,2|0,0:0|0:0,0:0:0:0:
200,124,128272,1,0,0:0:0:0:
256,240,128499,5,4,1:0:0:0:
244,244,129409,1,4,1:0:0:0:
232,248,130318,1,4,1:0:0:0:
256,192,130431,12,8,131681,3:0:0:0:
128,92,132136,6,0,L|120:212,2,105,4|2|2,1:0|0:0|0:0,0:0:0:0:
212,56,133045,2,0,L|208:128,1,70,0|0,0:0|0:0,0:0:0:0:
280,280,133499,2,0,L|276:210,1,70,8|0,0:0|0:0,0:0:0:0:
228,356,133954,6,0,P|300:372|344:348,2,105,0|2|2,0:0|0:0|0:0,0:0:0:0:
156,288,134863,2,0,L|152:324,1,35,0|8,0:0|0:0,0:0:0:0:
56,340,135204,2,0,L|60:376,1,35,0|8,0:0|0:0,0:0:0:0:
60,232,135545,1,0,0:0:0:0:
128,172,135772,6,0,P|200:180|272:168,1,140,0|8,0:0|0:0,0:0:0:0:
336,112,136454,1,0,0:0:0:0:
335,112,136681,2,0,P|334:77|329:42,1,70,0|0,0:0|0:0,0:0:0:0:
396,180,137136,2,0,P|390:214|389:249,1,70,8|0,0:0|0:0,0:0:0:0:
297,326,137590,6,0,B|348:324|380:312|380:312|432:332,2,140,0|8|0,0:0|0:0|0:0,0:0:0:0:
212,296,138727,1,0,0:0:0:0:
88,352,138954,2,0,P|53:348|18:347,1,70,8|0,0:0|0:0,0:0:0:0:
128,268,139409,6,0,P|140:176|132:144,2,105,4|0|0,0:0|0:0|0:0,0:0:0:0:
208,352,140318,2,0,L|324:348,2,105,2|2|2,0:0|0:0|0:0,0:0:0:0:
370,268,141227,6,0,P|319:256|268:264,2,105,0|0|0,0:0|0:0|0:0,0:0:0:0:
452,340,142136,2,0,B|476:304|476:268|476:268|476:212,2,105,2|2|2,0:0|0:0|0:0,0:0:0:0:
344,372,143045,6,0,B|284:380|284:380|192:360,1,140,0|8,0:0|0:0,0:0:0:0:
120,332,143727,1,0,0:0:0:0:
40,287,143954,2,0,P|31:321|34:356,1,70,0|0,0:0|0:0,0:0:0:0:
120,240,144409,2,0,P|123:205|114:171,1,70,8|0,0:0|0:0,0:0:0:0:
40,120,144863,5,0,0:0:0:0:
120,64,145090,1,0,0:0:0:0:
200,124,145318,1,10,0:0:0:0:
200,124,145432,1,2,0:0:0:0:
200,124,145545,1,2,0:0:0:0:
328,80,145772,2,0,L|364:76,4,35,10|2|2|0|4,2:0|0:0|0:0|0:0|1:0,0:0:0:0:
480,160,146454,1,8,0:0:0:0:
480,160,146568,1,8,0:0:0:0:
480,160,146681,6,0,L|472:268,2,105,4|2|2,1:0|0:0|0:0,0:0:0:0:
380,256,147590,2,0,P|388:284|392:324,1,70,0|0,0:0|0:0,0:0:0:0:
304,340,148045,2,0,P|283:360|251:384,1,70,8|0,0:0|0:0,0:0:0:0:
172,340,148499,6,0,B|136:336|136:336|64:352,2,105,0|2|2,0:0|0:0|0:0,0:0:0:0:
112,240,149409,2,0,L|72:236,1,35,0|8,0:0|0:0,0:0:0:0:
224,188,149749,2,0,L|184:192,1,35,0|8,0:0|0:0,0:0:0:0:
208,104,150090,1,0,0:0:0:0:
208,104,150204,1,0,0:0:0:0:
208,104,150318,6,0,B|252:132|300:104|300:104|348:112,1,140,0|8,0:0|0:0,0:0:0:0:
416,164,150999,1,0,0:0:0:0:
416,164,151227,2,0,L|408:248,1,70,0|0,0:0|0:0,0:0:0:0:
318,373,151681,2,0,L|312:304,1,70,8|0,0:0|0:0,0:0:0:0:
224,247,152136,6,0,L|236:352,2,105,8|8|4,0:0|0:0|1:0,0:0:0:0:
128,188,153045,2,0,L|56:184,1,70,0|0,0:0|0:0,0:0:0:0:
216,120,153499,1,8,0:0:0:0:
233,119,153612,1,0,0:0:0:0:
250,118,153726,1,0,0:0:0:0:
268,117,153839,1,0,0:0:0:0:
285,116,153954,6,0,L|390:119,2,105,4|0|0,1:0|0:0|0:0,0:0:0:0:
464,172,154863,2,0,P|480:116|468:68,2,105,2|2|2,0:0|0:0|0:0,0:0:0:0:
380,204,155772,6,0,L|394:307,2,105,0|0|0,0:0|0:0|0:0,0:0:0:0:
308,148,156681,2,0,P|292:204|304:252,2,105,2|2|2,0:0|0:0|0:0,0:0:0:0:
392,72,157590,6,0,B|304:100|304:100|244:80,1,140,0|8,0:0|0:0,0:0:0:0:
172,112,158272,1,0,0:0:0:0:
172,112,158499,2,0,P|180:156|180:184,1,70,0|0,0:0|0:0,0:0:0:0:
95,301,158954,2,0,P|102:266|104:232,1,70,8|0,0:0|0:0,0:0:0:0:
188,268,159409,6,0,P|248:248|332:264,1,140,0|8,0:0|0:0,0:0:0:0:
368,340,160090,1,2,0:0:0:0:
368,340,160204,1,2,0:0:0:0:
368,340,160318,2,0,L|440:332,1,70,2|0,0:0|0:0,0:0:0:0:
504,268,160772,2,0,P|512:236|512:188,1,70,8|0,0:0|0:0,0:0:0:0:
448,136,161227,1,4,1:0:0:0:
68,296,168045,5,8,3:0:0:0:
80,304,168499,6,0,L|156:296,1,70,4|0,1:0|0:0,0:0:0:0:
272,216,168954,2,0,L|202:208,1,70,8|0,0:0|0:0,0:0:0:0:
332,284,169409,1,0,0:0:0:0:
332,284,169636,1,0,0:0:0:0:
332,284,169863,2,0,B|316:232|320:188|320:188|328:140,1,140,8|0,0:0|0:0,0:0:0:0:
392,84,170545,5,0,0:0:0:0:
432,164,170772,2,0,L|503:157,1,70,8|0,0:0|0:0,0:0:0:0:
402,291,171227,2,0,L|332:284,1,70,0|0,0:0|0:0,0:0:0:0:
284,360,171681,2,0,P|224:336|148:348,1,140,8|0,0:0|0:0,0:0:0:0:
108,152,172363,5,0,0:0:0:0:
64,230,172590,2,0,L|72:300,1,70,8|0,0:0|0:0,0:0:0:0:
156,228,173045,2,0,P|196:168|180:100,1,140,0|8,0:0|0:0,0:0:0:0:
64,68,173727,1,0,0:0:0:0:
136,12,173954,6,0,B|172:28|216:20|216:20|244:4,2,105,0|0|0,0:0|0:0|0:0,0:0:0:0:
300,76,174863,2,0,P|352:74|380:80,1,70,0|0,0:0|0:0,0:0:0:0:
444,152,175318,1,8,0:0:0:0:
440,160,175431,1,0,0:0:0:0:
436,168,175545,1,0,0:0:0:0:
432,176,175659,1,0,0:0:0:0:
428,184,175772,6,0,B|404:224|416:276|416:276|440:316,1,140,4|8,1:0|0:0,0:0:0:0:
368,372,176454,1,0,0:0:0:0:
292,320,176681,2,0,B|248:332|248:332|152:316,2,140,0|8|0,0:0|0:0|0:0,0:0:0:0:
336,160,178045,6,0,P|341:119|344:84,1,70,8|0,0:0|0:0,0:0:0:0:
285,250,178499,2,0,P|287:284|292:319,1,70,0|0,0:0|0:0,0:0:0:0:
188,168,178954,2,0,P|144:160|80:172,1,105,8|0,0:0|0:0,0:0:0:0:
72,184,179409,6,0,P|60:288|60:328,1,140,0|8,0:0|0:0,0:0:0:0:
216,232,180318,2,0,P|228:128|228:88,1,140,0|8,0:0|0:0,0:0:0:0:
340,40,181227,6,0,B|380:32|380:32|444:43,2,105,0|0|4,0:0|0:0|1:0,0:0:0:0:
280,108,182136,1,0,0:0:0:0:
408,144,182363,1,0,0:0:0:0:
360,220,182590,1,0,0:0:0:0:
359,237,182703,1,0,0:0:0:0:
358,254,182817,1,0,0:0:0:0:
357,272,182930,1,0,0:0:0:0:
356,289,183045,6,0,B|320:312|320:312|212:304,1,140,4|8,0:0|0:0,0:0:0:0:
132,304,183727,1,0,0:0:0:0:
56,252,183954,2,0,P|46:218|43:183,1,70,0|0,0:0|0:0,0:0:0:0:
103,59,184409,2,0,P|112:93|115:128,1,70,8|0,0:0|0:0,0:0:0:0:
196,172,184863,5,0,0:0:0:0:
311,228,185090,1,0,0:0:0:0:
282,142,185318,1,8,0:0:0:0:
225,258,185545,1,0,0:0:0:0:
311,228,185772,2,0,L|392:232,1,70,0|0,0:0|0:0,0:0:0:0:
225,258,186227,2,0,L|155:254,1,70,8|0,0:0|0:0,0:0:0:0:
275,320,186681,6,0,P|304:258|277:195,1,140,0|8,0:0|0:0,0:0:0:0:
192,352,187363,1,0,0:0:0:0:
100,340,187590,2,0,L|30:336,1,70,0|0,0:0|0:0,0:0:0:0:
156,262,188045,2,0,L|226:258,1,70,8|0,0:0|0:0,0:0:0:0:
80,212,188499,6,0,P|72:160|72:120,1,70,4|0,1:0|0:0,0:0:0:0:
187,10,188954,2,0,P|193:45|195:80,1,70,8|0,0:0|0:0,0:0:0:0:
312,160,189409,5,0,0:0:0:0:
328,152,189636,1,0,0:0:0:0:
344,144,189863,1,8,0:0:0:0:
360,136,190090,1,0,0:0:0:0:
376,127,190318,1,4,1:0:0:0:
392,120,192136,5,4,1:0:0:0:
84,200,197590,6,0,L|22:206,1,62.9999980773926,0|0,0:0|0:0,0:0:0:0:
148,252,198045,2,0,L|213:258,1,62.9999980773926,0|0,0:0|0:0,0:0:0:0:
360,330,198499,2,0,P|300:315|240:331,1,125.999996154785,0|0,0:0|0:0,0:0:0:0:
279,165,199409,6,0,L|276:260,2,94.499997116089,4|0|0,1:0|0:0|0:0,0:0:0:0:
348,116,200318,2,0,L|351:21,2,94.499997116089,0|0|0,0:0|0:0|0:0,0:0:0:0:
408,172,201227,6,0,P|428:112|416:72,2,94.499997116089,4|0|0,1:0|0:0|0:0,0:0:0:0:
288,60,202136,2,0,P|268:102|274:148,2,94.499997116089,0|0|0,0:0|0:0|0:0,0:0:0:0:
324,216,203045,6,0,B|288:224|288:224|248:232|204:196,1,125.999996154785,4|8,1:0|0:0,0:0:0:0:
148,140,203727,1,0,0:0:0:0:
80,184,203954,2,0,P|64:104|76:52,1,125.999996154785,4|8,1:0|0:0,0:0:0:0:
168,280,204863,5,0,0:0:0:0:
184,284,205090,1,0,0:0:0:0:
308,332,205318,1,0,0:0:0:0:
324,328,205545,1,0,0:0:0:0:
420,260,205772,1,4,1:0:0:0:
324,88,206454,5,0,0:0:0:0:
324,88,206568,1,0,0:0:0:0:
324,88,206681,2,0,L|316:208,2,105,4|2|2,1:0|0:0|0:0,0:0:0:0:
228,30,207590,2,0,L|232:100,1,70,0|0,0:0|0:0,0:0:0:0:
132,188,208045,2,0,L|128:118,1,70,8|0,0:0|0:0,0:0:0:0:
96,272,208499,6,0,B|128:260|128:260|204:272,2,105,0|2|2,0:0|0:0|0:0,0:0:0:0:
176,360,209409,2,0,L|128:352,1,35,0|8,0:0|0:0,0:0:0:0:
233,265,209749,2,0,L|185:273,1,35,0|8,0:0|0:0,0:0:0:0:
312,292,210090,1,0,0:0:0:0:
380,352,210318,6,0,P|404:280|372:224,1,140,0|8,0:0|0:0,0:0:0:0:
296,184,210999,1,0,0:0:0:0:
296,184,211227,2,0,L|224:192,1,70,0|0,0:0|0:0,0:0:0:0:
424,112,211681,2,0,L|493:104,1,70,8|0,0:0|0:0,0:0:0:0:
292,68,212136,6,0,L|184:82,2,105,8|8|4,0:0|0:0|1:0,0:0:0:0:
128,148,213045,1,0,0:0:0:0:
80,68,213272,1,0,0:0:0:0:
36,184,213499,1,8,0:0:0:0:
35,201,213612,1,0,0:0:0:0:
34,218,213726,1,0,0:0:0:0:
33,236,213839,1,0,0:0:0:0:
32,253,213954,6,0,P|28:312|32:364,2,105,4|0|0,1:0|0:0|0:0,0:0:0:0:
108,304,214863,2,0,L|216:308,2,105,2|2|2,0:0|0:0|0:0,0:0:0:0:
292,192,215772,6,0,L|187:195,2,105,0|0|0,0:0|0:0|0:0,0:0:0:0:
364,248,216681,2,0,P|380:200|368:140,2,105,2|2|2,0:0|0:0|0:0,0:0:0:0:
288,300,217590,6,0,B|336:280|384:288|384:288|422:304,1,140,0|8,0:0|0:0,0:0:0:0:
488,368,218272,1,0,0:0:0:0:
468,224,218499,2,0,P|472:172|476:148,1,70,0|0,0:0|0:0,0:0:0:0:
384,40,218954,2,0,P|388:92|392:116,1,70,8|0,0:0|0:0,0:0:0:0:
336,184,219409,6,0,B|296:196|268:180|268:180|236:196|196:176,1,140,0|8,0:0|0:0,0:0:0:0:
120,96,220090,1,0,0:0:0:0:
112,100,220204,1,0,0:0:0:0:
104,104,220318,2,0,L|96:176,1,70,0|0,0:0|0:0,0:0:0:0:
27,293,220772,2,0,L|20:224,1,70,8|0,0:0|0:0,0:0:0:0:
104,339,221227,6,0,P|154:328|206:336,2,105,4|2|2,1:0|0:0|0:0,0:0:0:0:
236,248,222136,2,0,L|304:236,1,70,0|0,0:0|0:0,0:0:0:0:
376,156,222590,2,0,L|308:144,1,70,8|0,0:0|0:0,0:0:0:0:
421,234,223045,6,0,P|432:285|420:336,2,105,0|2|2,0:0|0:0|0:0,0:0:0:0:
476,160,223954,2,0,P|464:124|460:88,1,70,0|0,0:0|0:0,0:0:0:0:
387,0,224409,2,0,P|383:34|372:68,1,70,8|0,0:0|0:0,0:0:0:0:
260,136,224863,6,0,B|200:140|164:104|164:104|112:120,1,140,0|8,0:0|0:0,0:0:0:0:
48,156,225545,1,0,0:0:0:0:
157,227,225772,2,0,P|122:229|88:236,1,70,0|0,0:0|0:0,0:0:0:0:
280,328,226227,2,0,P|245:326|210:319,1,70,8|0,0:0|0:0,0:0:0:0:
356,236,226681,5,0,0:0:0:0:
356,236,226909,1,0,0:0:0:0:
420,348,227136,1,8,0:0:0:0:
420,348,227363,1,0,0:0:0:0:
492,292,227590,2,0,B|500:244|500:244|484:148,1,140,0|8,0:0|0:0,0:0:0:0:
288,100,228499,6,0,P|232:136|144:108,1,140,4|8,1:0|0:0,0:0:0:0:
96,184,229181,1,0,0:0:0:0:
168,240,229409,2,0,P|224:232|256:232,1,70,0|0,0:0|0:0,0:0:0:0:
84,312,229863,2,0,P|49:309|14:303,1,70,8|0,0:0|0:0,0:0:0:0:
148,384,230318,6,0,P|216:364|288:380,1,140,0|8,0:0|0:0,0:0:0:0:
344,312,230999,1,0,0:0:0:0:
344,312,231227,2,0,P|378:319|412:323,1,70,0|0,0:0|0:0,0:0:0:0:
226,264,231681,2,0,P|259:254|292:240,1,70,8|0,0:0|0:0,0:0:0:0:
336,160,232136,6,0,L|335:33,2,105,4|4|4,1:0|1:0|1:0,0:0:0:0:
208,80,233272,1,0,0:0:0:0:
112,144,233499,2,0,L|104:184,3,35,8|0|0|0,0:0|0:0|0:0|0:0,0:0:0:0:
100,212,233954,6,0,P|96:264|100:292,1,70,0|4,0:0|1:0,0:0:0:0:
184,312,234409,2,0,P|186:346|181:381,1,70,4|0,1:0|0:0,0:0:0:0:
256,256,234863,2,0,P|328:276|400:248,1,140,0|8,0:0|0:0,0:0:0:0:
464,308,235545,1,0,0:0:0:0:
444,180,235772,6,0,L|452:40,2,140,4|8|0,1:0|0:0|0:0,0:0:0:0:
364,136,236909,1,0,0:0:0:0:
280,168,237136,2,0,L|204:156,1,70,8|0,0:0|0:0,0:0:0:0:
144,96,237590,6,0,P|124:132|120:164,1,70,0|0,0:0|0:0,0:0:0:0:
36,200,238045,2,0,P|36:241|49:270,1,70,8|0,0:0|0:0,0:0:0:0:
124,320,238499,2,0,P|200:300|264:324,1,140,0|8,0:0|0:0,0:0:0:0:
332,368,239181,1,0,0:0:0:0:
420,344,239409,6,0,B|440:276|440:276|432:200,1,140,0|8,0:0|0:0,0:0:0:0:
412,120,240090,1,0,0:0:0:0:
320,128,240318,2,0,B|300:196|300:196|308:272,1,140,0|8,0:0|0:0,0:0:0:0:
72,336,241227,6,0,L|108:264,1,70,0|0,0:0|0:0,0:0:0:0:
84,184,241681,2,0,L|164:179,1,70,8|0,0:0|0:0,0:0:0:0:
220,244,242136,2,0,P|240:192|212:112,1,140,0|8,0:0|0:0,0:0:0:0:
360,320,243045,5,4,1:0:0:0:
352,312,243499,2,0,L|289:308,1,62.9999980773926,8|0,0:0|0:0,0:0:0:0:
436,244,243954,2,0,L|448:172,1,62.9999980773926,0|0,0:0|0:0,0:0:0:0:
456,344,244409,1,8,0:0:0:0:
304,112,244863,5,0,0:0:0:0:
296,124,245318,2,0,L|232:140,1,62.9999980773926,8|0,0:0|0:0,0:0:0:0:
444,68,245772,2,0,L|380:52,1,62.9999980773926,0|0,0:0|0:0,0:0:0:0:
496,160,246227,1,8,0:0:0:0:
408,276,246681,6,0,L|308:272,2,94.499997116089,4|4|4,1:0|1:0|1:0,0:0:0:0:
196,360,247818,1,0,0:0:0:0:
124,284,248045,2,0,P|116:252|116:216,1,62.9999980773926,8|0,0:0|0:0,0:0:0:0:
192,128,248499,1,4,1:0:0:0:
256,192,248613,12,0,250318,0:0:0:0:
