osu file format v12

[General]
AudioFilename: The satellite jail - Psychology glass.mp3
AudioLeadIn: 1500
PreviewTime: 193786
Countdown: 0
SampleSet: Normal
StackLeniency: 0.7
Mode: 0
LetterboxInBreaks: 0

[Editor]
DistanceSpacing: 1.1
BeatDivisor: 4
GridSize: 4

[Metadata]
Title:Glass-like Psychology
TitleUnicode:硝子的サイコロジー
Artist:senya
ArtistUnicode:senya
Creator:eLtigreXXx
Version:Easy Collab
Source:Touhou
Tags:spboxer3 Sp3 Regou XinCrin Hong Meiling Shanghai Teahouse Chinese Tea Yuuhei Satellite Kurenai Misuzu Replica no Koi HiZuMi C80 ke-ta Kamasetora ZUN arrangement
BeatmapID:163637
BeatmapSetID:47065

[Difficulty]
HPDrainRate:2
CircleSize:2
OverallDifficulty:2
ApproachRate:2
SliderMultiplier:0.9
SliderTickRate:1

[Events]
//Background and Video events
0,0,"BG.jpg",0,0
//Break Periods
2,166512,175038
//Storyboard Layer 0 (Background)
//Storyboard Layer 1 (Fail)
//Storyboard Layer 2 (Pass)
//Storyboard Layer 3 (Foreground)
//Storyboard Sound Samples
//Background Colour Transformations
3,100,163,162,255

[TimingPoints]
1741,428.571428571429,4,2,0,65,1,0
8598,-100,4,1,0,60,0,0
15883,-100,4,1,0,55,0,0
24883,-100,4,1,0,50,0,0
29169,-100,4,1,0,50,0,0
42883,-100,4,1,0,55,0,0
70312,-100,4,1,0,50,0,1
97741,-100,4,1,0,55,0,0
111455,-100,4,2,0,65,0,0
125169,-100,4,1,0,50,0,0
137169,-100,4,2,0,55,0,0
138883,-100,4,1,0,50,0,1
166312,-100,4,1,0,55,0,0
192026,-100,4,2,0,60,0,0
207455,-100,4,1,0,55,0,1
234883,-100,4,1,0,50,0,0

[Colours]
Combo1 : 189,177,94
Combo2 : 108,163,101
Combo3 : 151,96,242
Combo4 : 188,49,37
SliderBorder : 255,255,255

[HitObjects]
400,88,1741,2,0,B|336:16|280:40|224:16|160:88,1,270,4|2,0:0|0:0,0:0:0:0:
40,244,3883,1,2,0:0:0:0:
228,300,4741,1,2,0:0:0:0:
328,296,5169,6,0,B|408:232|360:176|408:120|324:56,1,270,4|2,0:1|0:0,0:0:0:0:
224,56,6883,2,0,B|144:32|144:104|48:56,2,180,4|0|4,0:1|0:0|0:0,0:0:0:0:
320,80,9026,5,8,0:0:0:0:
512,128,9883,1,8,0:0:0:0:
420,304,10740,1,8,0:0:0:0:
256,192,11598,1,8,0:0:0:0:
200,272,12026,6,0,B|144:232|168:196|144:156|200:120,1,180,4|4,0:0|0:0,0:0:0:0:
280,64,13312,1,8,0:0:0:0:
356,124,13740,2,0,B|412:160|388:200|412:240|356:276,1,180,4|0,0:0|0:0,0:0:0:0:
268,316,15026,1,8,0:0:0:0:
172,336,15455,6,0,B|128:364|84:336,2,90,4|8|0,0:0|0:0|0:0,0:0:0:0:
128,248,16740,1,8,0:0:0:0:
56,180,17169,2,0,B|112:116|144:180|216:108,1,180
304,64,18455,1,8,0:0:0:0:
404,56,18883,5,0,0:0:0:0:
456,240,19741,1,0,0:0:0:0:
296,352,20598,1,0,0:0:0:0:
120,264,21455,1,0,0:0:0:0:
64,184,21883,1,8,0:0:0:0:
120,104,22312,6,0,B|152:56|196:72|240:56|280:104,1,180,4|0,0:0|0:0,0:0:0:0:
352,176,23598,1,8,0:0:0:0:
280,248,24026,2,0,B|240:296|200:280|152:296|120:248,1,180
96,56,25741,6,0,B|224:120|224:8|360:56,1,270,2|8,0:0|0:0,0:0:0:0:
256,192,27455,12,4,29169,0:0:0:0:
376,152,30026,5,0,0:0:0:0:
284,112,30455,2,0,B|244:88|196:96,2,90,8|0|8,0:0|0:0|0:0,0:0:0:0:
224,192,31741,2,0,B|260:220|308:212,2,90,0|8|0,0:0|0:0|0:0,0:0:0:0:
80,56,33455,5,0,0:0:0:0:
80,252,34312,1,0,0:0:0:0:
276,252,35169,1,0,0:0:0:0:
304,156,35598,1,8,0:0:0:0:
364,76,36026,6,0,B|404:52|452:76,2,90,4|8|0,0:0|0:0|0:0,0:0:0:0:
408,164,37312,1,8,0:0:0:0:
488,224,37741,2,0,B|448:272|408:264|368:272|328:224,1,180
308,132,39026,1,8,0:0:0:0:
240,204,39455,1,0,0:0:0:0:
256,192,39669,12,0,42026,0:0:0:0:
168,136,42883,5,4,0:0:0:0:
96,68,43312,2,0,B|52:48|8:68,2,90,8|0|8,0:0|0:0|0:0,0:0:0:0:
196,44,44598,2,0,B|240:60|284:44,1,90,0|8,0:0|0:0,0:0:0:0:
384,40,45455,2,0,B|432:128|352:128|384:216,1,180
236,344,47169,5,0,0:0:0:0:
68,240,48026,1,0,0:0:0:0:
244,148,48883,1,0,0:0:0:0:
336,180,49312,1,8,0:0:0:0:
320,84,49740,6,0,B|288:36|244:44|200:36|164:84,1,180,4|0,0:0|0:0,0:0:0:0:
76,116,51026,1,8,0:0:0:0:
76,216,51455,1,0,0:0:0:0:
136,292,51883,2,0,B|200:372|304:372|376:292,1,270,8|0,0:0|0:0,0:0:0:0:
256,192,53383,12,0,55740,0:0:0:0:
396,216,56598,21,4,0:0:0:0:
256,76,57455,1,0,0:0:0:0:
116,216,58312,2,0,B|96:260|116:304,1,90,0|8,0:0|0:0,0:0:0:0:
200,260,59169,1,0,0:0:0:0:
328,108,60026,6,0,B|376:88|416:108,1,90,4|8,0:0|0:0,0:0:0:0:
372,196,60883,1,0,0:0:0:0:
372,296,61312,1,8,0:0:0:0:
276,316,61740,2,0,B|244:372|196:340|156:372|116:316,1,180
116,124,63455,6,0,B|164:76|200:100|236:76|284:124,1,180,4|0,0:0|0:0,0:0:0:0:
320,212,64740,1,8,0:0:0:0:
416,216,65169,2,0,B|472:168|440:136|472:96|416:56,1,180,4|0,0:0|0:0,0:0:0:0:
320,60,66455,1,8,0:0:0:0:
220,56,66883,6,0,B|240:204|116:152|100:280,1,270,4|8,0:0|0:0,0:0:0:0:
256,192,68598,12,4,70312,0:0:0:0:
316,272,71169,6,0,B|360:296|408:272,1,90,0|2,0:0|0:0,0:0:0:0:
420,176,72026,2,0,B|420:80,1,90,0|2,0:0|0:0,0:0:0:0:
332,40,72883,1,0,0:0:0:0:
232,28,73312,1,2,0:0:0:0:
136,40,73740,5,4,0:0:0:0:
64,112,74169,2,0,B|64:208,1,90,2|0,0:0|0:0,0:0:0:0:
68,300,75026,1,2,0:0:0:0:
164,272,75455,2,0,B|248:284|236:336|344:336,2,180,4|0|4,0:0|0:0|0:0,0:0:0:0:
160,76,78026,6,0,B|72:76,2,90,0|2|0,0:0|0:0|0:0,0:0:0:0:
256,88,79312,1,2,0:0:0:0:
348,128,79740,1,0,0:0:0:0:
348,228,80169,1,2,0:0:0:0:
256,268,80598,1,4,0:0:0:0:
60,264,81455,6,0,B|60:360,2,90,4|2|4,0:0|0:0|0:0,0:0:0:0:
76,168,82740,1,2,0:0:0:0:
164,124,83169,1,0,0:0:0:0:
168,320,84026,6,2,B|216:368|248:344|280:368|336:320,1,180,4|2,0:0|0:0,0:0:0:0:
400,252,85312,2,0,B|444:240|488:252,2,90,2|0|2,0:0|0:0|0:0,0:0:0:0:
300,240,86598,1,0,0:0:0:0:
176,88,87455,6,2,B|144:32|100:64|56:32|16:88,1,180,2|2,0:0|0:0,0:0:0:0:
100,144,88740,1,2,0:0:0:0:
60,236,89169,2,0,B|224:336|220:156|400:244,1,360,4|4,0:0|0:0,0:0:0:0:
468,172,91312,6,0,B|468:84,1,90,2|0,0:0|0:0,0:0:0:0:
368,44,92169,1,2,0:0:0:0:
260,44,92598,1,0,0:0:0:0:
172,88,93026,2,0,B|172:188,1,90,2|0,0:0|0:0,0:0:0:0:
172,276,93883,1,2,0:0:0:0:
268,256,94312,6,0,B|312:236|360:256,2,90,4|2|4,0:0|0:0|0:0,0:0:0:0:
312,344,95598,1,2,0:0:0:0:
256,192,96026,12,4,97740,0:0:0:0:
472,200,98598,5,0,0:0:0:0:
372,188,99026,2,0,B|328:168|284:176,2,90,8|0|8,0:0|0:0|0:0,0:0:0:0:
316,268,100312,2,0,B|356:292|404:280,2,90,0|8|0,0:0|0:0|0:0,0:0:0:0:
188,120,102026,5,0,0:0:0:0:
48,260,102883,1,0,0:0:0:0:
236,192,103740,1,0,0:0:0:0:
312,128,104169,1,8,0:0:0:0:
388,192,104598,6,0,B|432:208|431:182|476:192,2,90,4|8|0,0:0|0:0|0:0,0:0:0:0:
348,284,105883,1,8,0:0:0:0:
248,284,106312,6,0,B|208:332|169:312|128:332|88:284,1,180
32,204,107598,1,8,0:0:0:0:
84,120,108026,2,0,B|220:60|220:156|348:120,1,270,0|8,0:0|0:0,0:0:0:0:
256,192,109740,12,4,111455,0:0:0:0:
212,72,112312,5,0,0:0:0:0:
256,164,112740,2,0,B|212:180|164:164,2,90,2|0|2,0:0|0:0|0:0,0:0:0:0:
344,116,114026,2,0,B|384:204|312:204|344:292,1,180,0|2,0:0|0:0,0:0:0:0:
152,344,115741,5,0,0:0:0:0:
80,160,116598,1,2,0:0:0:0:
256,252,117455,1,0,0:0:0:0:
336,92,118312,6,0,B|296:44|256:68|216:44|176:92,1,180,4|4,0:1|0:0,0:0:0:0:
256,152,119598,1,2,0:0:0:0:
256,252,120026,1,4,0:1:0:0:
212,340,120455,2,0,B|256:356|304:340,1,90,2|0,0:0|0:0,0:0:0:0:
400,344,121312,2,0,B|444:328|488:344,1,90,2|4,0:0|0:1,0:0:0:0:
484,144,122598,5,4,0:1:0:0:
292,200,123455,1,4,0:1:0:0:
292,100,123883,1,4,0:1:0:0:
216,36,124312,1,4,0:1:0:0:
124,64,124740,1,4,0:1:0:0:
164,148,125169,6,0,B|124:236,2,90,4|8|0,0:0|0:0|0:0,0:0:0:0:
264,148,126455,1,8,0:0:0:0:
364,148,126883,2,0,B|400:236,2,90,0|8|0,0:0|0:0|0:0,0:0:0:0:
300,72,128169,1,8,0:0:0:0:
200,72,128598,6,0,B|132:72|96:132|104:196,1,180,4|0,0:0|0:0,0:0:0:0:
164,276,129883,1,8,0:0:0:0:
248,332,130312,2,0,B|352:332,2,90,0|8|0,0:0|0:0|0:0,0:0:0:0:
420,160,132026,6,0,B|504:220|468:320,1,180,4|0,0:0|0:0,0:0:0:0:
368,316,133312,1,8,0:0:0:0:
268,312,133740,2,0,B|224:312|196:264|196:264|168:312|124:312,2,180,4|0|4,0:0|0:0|0:0,0:0:0:0:
368,316,135883,2,0,B|368:268|408:240,2,90,8|0|8,0:0|0:0|0:0,0:0:0:0:
468,320,137169,5,2,0:0:0:0:
412,132,138026,1,2,0:0:0:0:
224,196,138883,6,0,B|160:196|160:196|136:228|136:228|56:228,2,180,4|2|2,0:0|0:0|0:0,0:0:0:0:
324,196,141026,1,0,0:0:0:0:
424,196,141455,1,2,0:0:0:0:
256,84,142312,6,2,B|280:44|280:44|328:44,2,90,2|0|2,0:0|0:0|0:0,0:0:0:0:
156,84,143598,1,0,0:0:0:0:
56,84,144026,1,2,0:0:0:0:
180,240,144883,1,2,0:0:0:0:
368,304,145741,6,0,B|440:236|396:136,1,180,4|2,0:0|0:0,0:0:0:0:
308,100,147026,1,0,0:0:0:0:
212,128,147455,2,0,B|180:164|192:212,1,90,2|0,0:0|0:0,0:0:0:0:
264,280,148312,2,0,B|296:244|284:196,1,90,2|0,0:0|0:0,0:0:0:0:
308,100,149169,5,4,0:0:0:0:
488,184,150026,1,4,0:0:0:0:
360,332,150883,1,4,0:0:0:0:
264,360,151312,1,4,0:0:0:0:
224,268,151741,1,2,0:0:0:0:
112,120,152598,6,0,B|68:164|68:164|120:228|68:300|68:300|112:340,1,270,4|0,0:0|0:0,0:0:0:0:
192,280,154312,1,2,0:0:0:0:
268,216,154741,1,0,0:0:0:0:
304,308,155169,2,0,B|352:292|356:240,1,90,2|0,0:0|0:0,0:0:0:0:
336,144,156026,5,6,0:0:0:0:
148,76,156883,1,2,0:0:0:0:
80,140,157312,1,0,0:0:0:0:
176,168,157741,2,0,B|164:216|112:228,2,90,2|0|2,0:0|0:0|0:0,0:0:0:0:
272,176,159026,1,0,0:0:0:0:
324,92,159455,6,0,B|388:148|488:128|488:128|488:232|488:232|388:216|324:268,1,450,4|0,0:0|0:0,0:0:0:0:
224,260,162026,1,2,0:0:0:0:
124,252,162455,2,0,B|96:212|52:204,2,90,0|2|0,0:0|0:0|0:0,0:0:0:0:
184,332,163741,1,2,0:0:0:0:
380,332,164598,6,0,B|396:284|448:276,2,90,4|0|2,0:0|0:0|0:0,0:0:0:0:
256,180,166312,1,4,0:0:0:0:
256,192,176598,12,4,178312,0:0:0:0:
164,72,180026,6,0,B|68:92|68:92|168:156|68:224|68:224|164:240,1,360,4|0,0:0|0:0,0:0:0:0:
252,276,182169,1,8,0:0:0:0:
344,236,182598,2,0,B|348:192|348:192|388:160,2,90,0|8|0,0:0|0:0|0:0,0:0:0:0:
164,316,184312,6,0,B|120:296|120:296|104:256,2,90,0|8|0,0:0|0:0|0:0,0:0:0:0:
64,144,186026,1,0,0:0:0:0:
240,48,186883,5,4,0:0:0:0:
440,52,187741,1,0,0:0:0:0:
488,244,188598,2,0,L|212:240,1,270
152,312,190312,5,0,0:0:0:0:
252,336,190741,2,0,B|432:336,1,180,8|8,0:0|0:0,0:0:0:0:
440,236,192026,1,2,0:0:0:0:
444,40,192883,1,2,0:0:0:0:
256,104,193741,6,2,B|212:68|176:104|176:104|132:68|96:104,1,180,4|2,0:1|0:0,0:0:0:0:
232,248,195455,2,2,B|268:284|312:248|312:248|348:284|392:248,1,180,2|2,0:0|0:0,0:0:0:0:
468,64,197169,5,4,0:1:0:0:
468,260,198026,1,2,0:0:0:0:
272,244,198883,2,0,B|188:304|100:244,1,180,4|2,0:1|0:0,0:0:0:0:
188,68,200598,5,4,0:1:0:0:
384,84,201455,2,0,B|388:128|432:152|432:152|388:188|388:232,2,180,2|4|2,0:0|0:1|0:0,0:0:0:0:
188,80,204026,2,0,B|184:124|144:156|144:156|184:188|184:232,2,180,4|4|4,0:1|0:1|0:1,0:0:0:0:
284,104,206169,6,0,B|284:136|300:144|300:144|284:152|284:184,2,90,0|0|0,0:0|0:0|0:0,0:0:0:0:
196,148,207455,5,4,0:0:0:0:
76,304,208312,1,0,0:0:0:0:
176,312,208741,2,0,B|228:280|276:336|276:336|340:316,1,180,2|2,0:0|0:0,0:0:0:0:
416,256,210026,1,0,0:0:0:0:
376,64,210883,6,2,B|332:100|300:56|300:56|264:96|220:60,1,180
120,68,212169,1,0,0:0:0:0:
36,120,212598,2,2,B|72:164|28:196|28:196|72:236|28:276,1,180
216,348,214312,6,0,B|264:340|292:304,1,90,4|2,0:0|0:0,0:0:0:0:
208,252,215169,2,0,B|160:244|132:208,1,90,0|2,0:0|0:0,0:0:0:0:
220,164,216026,1,2,0:0:0:0:
68,36,216883,5,2,0:0:0:0:
264,80,217741,2,2,B|324:164|268:248,2,180,2|6|6,0:0|0:0|0:0,0:0:0:0:
72,136,220312,1,2,0:0:0:0:
80,332,221169,6,2,B|136:228|180:332|224:244,1,180,6|2,0:0|0:0,0:0:0:0:
172,164,222455,1,2,0:0:0:0:
252,108,222883,1,0,0:0:0:0:
344,68,223312,1,2,0:0:0:0:
444,68,223741,2,0,B|444:156,1,90,0|2,0:0|0:0,0:0:0:0:
444,256,224598,5,4,0:0:0:0:
256,324,225455,1,2,0:0:0:0:
148,156,226312,2,0,B|36:156|36:44,2,180,4|0|4,0:0|0:0|0:0,0:0:0:0:
344,156,228883,5,2,0:0:0:0:
436,332,229741,2,0,B|252:332,1,180,2|2,0:0|0:0,0:0:0:0:
60,328,231455,5,6,0:0:0:0:
92,132,232312,2,0,B|108:80|156:72,2,90,6|0|6,0:0|0:0|0:0,0:0:0:0:
184,164,233598,1,0,0:0:0:0:
284,164,234026,2,0,B|464:164,1,180,2|4,0:0|0:0,0:0:0:0:
