osu file format v14

[General]
AudioFilename: senya+-+Cinderella+Avatar.mp3
AudioLeadIn: 0
PreviewTime: 54922
Countdown: 0
SampleSet: Soft
StackLeniency: 0.7
Mode: 3
LetterboxInBreaks: 0
SpecialStyle: 0
WidescreenStoryboard: 0

[Editor]
Bookmarks: 15612
DistanceSpacing: 1.2
BeatDivisor: 4
GridSize: 32
TimelineZoom: 2.199999

[Metadata]
Title:Cinderella Avatar
TitleUnicode:シンデレラアバター
Artist:senya
ArtistUnicode:senya
Creator:Envory
Version:Lunatic
Source:東方風神録 ~ Mountain of Faith.
Tags:yuuhei satellite th10 native moriya suwako iceon kamase-tora 幽閉サテライト ネイティブフェイス 東方風神録 Verniy_Chan FAMoss yuzu__rinrin [R] atian540 - Ly0572 - Syadow-
BeatmapID:1408469
BeatmapSetID:665542

[Difficulty]
HPDrainRate:8
CircleSize:4
OverallDifficulty:8
ApproachRate:5
SliderMultiplier:1.4
SliderTickRate:1

[Events]
//Background and Video events
0,0,"696623.jpg",0,0
//Break Periods
//Storyboard Layer 0 (Background)
//Storyboard Layer 1 (Fail)
//Storyboard Layer 2 (Pass)
//Storyboard Layer 3 (Foreground)
//Storyboard Sound Samples
Sample,14991,0,"S.wav",30
Sample,15509,0,"S.wav",30
Sample,28543,0,"S.wav",50
Sample,28647,0,"S.wav",50
Sample,28750,0,"S.wav",50
Sample,68474,0,"S.wav",30
Sample,81509,0,"S.wav",30
Sample,81716,0,"S.wav",30
Sample,94957,0,"S.wav",30
Sample,108198,0,"S.wav",30

[TimingPoints]
716,413.793103448276,4,2,1,50,1,0
54922,-333.333333333333,4,2,1,50,0,0
55129,-83.3333333333333,4,2,1,50,0,0
55336,-100,4,2,1,50,0,1
65060,-166.666666666667,4,2,1,50,0,1
65164,-71.4285714285714,4,2,1,50,0,1
65267,-100,4,2,1,50,0,1
65474,-333.333333333333,4,2,1,50,0,1
65578,-83.3333333333333,4,2,1,50,0,1
65681,-100,4,2,1,50,0,1
65888,-166.666666666667,4,2,1,50,0,1
65991,-71.4285714285714,4,2,1,50,0,1
66095,-100,4,2,1,50,0,1
67750,-100,4,2,1,50,0,0
68578,-100,4,2,1,50,0,1
78302,-166.666666666667,4,2,1,50,0,1
78405,-71.4285714285714,4,2,1,50,0,1
78509,-100,4,2,1,50,0,1
78716,-333.333333333333,4,2,1,50,0,1
78819,-83.3333333333333,4,2,1,50,0,1
78922,-100,4,2,1,50,0,1
79129,-166.666666666667,4,2,1,50,0,1
79233,-71.4285714285714,4,2,1,50,0,1
79336,-100,4,2,1,50,0,1
81819,-100,4,2,1,50,0,0
95060,-100,4,2,1,50,0,1
104784,-166.666666666667,4,2,1,50,0,1
104888,-71.4285714285714,4,2,1,50,0,1
104991,-100,4,2,1,50,0,1
105198,-333.333333333333,4,2,1,50,0,1
105302,-83.3333333333333,4,2,1,50,0,1
105405,-100,4,2,1,50,0,1
105612,-166.666666666667,4,2,1,50,0,1
105716,-71.4285714285714,4,2,1,50,0,1
105819,-100,4,2,1,50,0,1
108302,-142.857142857143,4,2,1,50,0,0
109957,416.666666666667,4,2,1,40,1,0
109957,-116.279069767442,4,2,1,40,0,0
114123,461.538461538462,4,2,1,30,1,0
114123,-117.647058823529,4,2,1,30,0,0
115046,480,4,2,1,20,1,0
115046,-125,4,2,1,20,0,0
115526,517.241379310345,4,2,1,10,1,0
115526,-135.135135135135,4,2,1,10,0,0
115784,600,4,2,1,10,1,0
115784,-133.333333333333,4,2,1,10,0,0

[HitObjects]
448,192,819,128,0,1543:0:0:0:0:
64,192,1543,1,0,0:0:0:30:S.wav
192,192,1543,1,0,0:0:0:0:
320,192,1647,1,0,0:0:0:30:S.wav
448,192,1647,1,0,0:0:0:0:
64,192,1750,1,0,0:0:0:30:S.wav
192,192,1750,1,0,0:0:0:0:
320,192,1853,1,0,0:0:0:30:S.wav
448,192,1853,1,0,0:0:0:0:
64,192,1957,1,0,0:0:0:30:S.wav
192,192,1957,1,0,0:0:0:0:
320,192,2060,1,0,0:0:0:30:S.wav
448,192,2060,1,0,0:0:0:0:
64,192,2164,1,0,0:0:0:30:S.wav
192,192,2164,1,0,0:0:0:0:
320,192,2267,1,0,0:0:0:30:S.wav
64,192,2371,1,2,0:0:0:0:
192,192,2371,1,4,0:0:0:0:
448,192,2371,1,0,0:0:0:0:
192,192,2578,1,0,0:0:0:0:
448,192,2578,1,0,0:0:0:0:
320,192,2681,1,0,0:0:0:0:
64,192,2784,1,8,0:0:0:0:
448,192,2784,1,0,0:0:0:0:
64,192,2991,1,0,0:0:0:0:
192,192,2991,1,0,0:0:0:0:
320,192,3198,1,2,0:0:0:0:
448,192,3198,1,0,0:0:0:0:
64,192,3405,1,0,0:0:0:0:
448,192,3405,1,0,0:0:0:0:
320,192,3509,1,0,0:0:0:0:
64,192,3612,1,8,0:0:0:0:
192,192,3612,1,0,0:0:0:0:
192,192,3819,1,0,0:0:0:0:
448,192,3819,1,0,0:0:0:0:
320,192,4026,1,2,0:0:0:0:
448,192,4026,1,0,0:0:0:0:
64,192,4233,1,0,0:0:0:0:
192,192,4233,1,0,0:0:0:0:
320,192,4336,1,0,0:0:0:0:
64,192,4440,1,8,0:0:0:0:
448,192,4440,1,0,0:0:0:0:
192,192,4647,1,0,0:0:0:0:
320,192,4647,1,0,0:0:0:0:
64,192,4853,1,2,0:0:0:0:
448,192,4853,1,0,0:0:0:0:
192,192,5060,1,0,0:0:0:0:
448,192,5060,1,0,0:0:0:0:
320,192,5164,1,0,0:0:0:0:
64,192,5267,1,8,0:0:0:0:
448,192,5267,128,0,5474:0:0:0:0:
192,192,5474,128,0,5681:0:0:0:0:
320,192,5474,1,0,0:0:0:0:
64,192,5681,1,2,0:0:0:0:
320,192,5681,1,0,0:0:0:0:
448,192,5681,1,0,0:0:0:0:
64,192,5888,1,0,0:0:0:0:
448,192,5888,1,0,0:0:0:0:
192,192,5991,1,0,0:0:0:0:
320,192,6095,1,8,0:0:0:0:
448,192,6095,1,0,0:0:0:0:
64,192,6302,1,0,0:0:0:0:
192,192,6302,1,0,0:0:0:0:
64,192,6509,1,2,0:0:0:0:
320,192,6509,1,0,0:0:0:0:
448,192,6509,1,0,0:0:0:0:
192,192,6716,1,0,0:0:0:0:
448,192,6716,1,0,0:0:0:0:
320,192,6819,1,0,0:0:0:0:
64,192,6922,1,8,0:0:0:0:
192,192,6922,1,0,0:0:0:0:
320,192,7129,1,0,0:0:0:0:
448,192,7129,1,0,0:0:0:0:
64,192,7336,1,2,0:0:0:0:
192,192,7336,1,0,0:0:0:0:
448,192,7336,1,0,0:0:0:0:
64,192,7543,1,0,0:0:0:0:
320,192,7543,1,0,0:0:0:0:
192,192,7647,1,0,0:0:0:0:
64,192,7750,1,8,0:0:0:0:
448,192,7750,1,0,0:0:0:0:
192,192,7957,1,0,0:0:0:0:
320,192,7957,1,0,0:0:0:0:
64,192,8164,1,2,0:0:0:0:
448,192,8164,1,0,0:0:0:0:
192,192,8371,1,0,0:0:0:0:
448,192,8371,1,0,0:0:0:0:
320,192,8474,1,0,0:0:0:0:
64,192,8578,128,8,8784:0:0:0:0:
192,192,8578,1,0,0:0:0:0:
320,192,8784,128,2,8991:0:0:0:0:
448,192,8784,1,0,0:0:0:0:
64,192,8991,1,2,0:0:0:0:
192,192,8991,1,4,0:0:0:0:
448,192,8991,1,0,0:0:0:0:
64,192,9198,1,0,0:0:0:0:
320,192,9198,1,0,0:0:0:0:
192,192,9302,1,0,0:0:0:0:
320,192,9405,1,8,0:0:0:0:
448,192,9405,1,0,0:0:0:0:
64,192,9612,1,0,0:0:0:0:
192,192,9612,1,0,0:0:0:0:
448,192,9716,1,0,0:0:0:0:
64,192,9819,1,2,0:0:0:0:
320,192,9819,1,0,0:0:0:0:
320,192,10026,1,0,0:0:0:0:
448,192,10026,1,0,0:0:0:0:
192,192,10129,1,0,0:0:0:0:
64,192,10233,1,8,0:0:0:0:
448,192,10233,1,0,0:0:0:0:
192,192,10440,1,0,0:0:0:0:
320,192,10440,1,0,0:0:0:0:
64,192,10647,1,2,0:0:0:0:
448,192,10647,1,0,0:0:0:0:
64,192,10853,1,0,0:0:0:0:
320,192,10853,1,0,0:0:0:0:
448,192,10957,1,0,0:0:0:0:
192,192,11060,1,8,0:0:0:0:
320,192,11060,1,0,0:0:0:0:
64,192,11267,1,0,0:0:0:0:
192,192,11267,1,0,0:0:0:0:
320,192,11474,1,2,0:0:0:0:
448,192,11474,1,0,0:0:0:0:
64,192,11681,1,0,0:0:0:0:
192,192,11681,1,0,0:0:0:0:
320,192,11784,1,0,0:0:0:0:
64,192,11888,1,8,0:0:0:0:
448,192,11888,1,0,0:0:0:0:
192,192,12095,1,0,0:0:0:0:
320,192,12095,1,0,0:0:0:0:
64,192,12302,1,2,0:0:0:0:
192,192,12302,1,4,0:0:0:0:
448,192,12302,1,0,0:0:0:0:
320,192,12509,1,0,0:0:0:0:
448,192,12509,1,0,0:0:0:0:
192,192,12612,1,0,0:0:0:0:
64,192,12716,1,8,0:0:0:0:
448,192,12716,1,0,0:0:0:0:
192,192,12922,1,0,0:0:0:0:
320,192,12922,1,0,0:0:0:0:
64,192,13129,1,2,0:0:0:0:
320,192,13129,1,4,0:0:0:0:
448,192,13129,1,0,0:0:0:0:
64,192,13336,1,0,0:0:0:0:
192,192,13336,1,0,0:0:0:0:
448,192,13440,1,0,0:0:0:0:
64,192,13543,1,8,0:0:0:0:
320,192,13543,1,0,0:0:0:0:
192,192,13750,1,0,0:0:0:0:
448,192,13750,1,0,0:0:0:0:
64,192,13957,1,2,0:0:0:0:
320,192,13957,1,4,0:0:0:0:
448,192,13957,1,0,0:0:0:0:
192,192,14164,1,0,0:0:0:0:
320,192,14164,1,0,0:0:0:0:
64,192,14267,1,0,0:0:0:0:
192,192,14371,1,8,0:0:0:0:
448,192,14371,1,4,0:0:0:0:
320,192,14578,1,4,0:0:0:0:
448,192,14578,1,0,0:0:0:0:
64,192,14784,1,2,0:0:0:0:
192,192,14784,1,4,0:0:0:0:
320,192,14888,1,0,0:0:0:30:S.wav
64,192,14991,1,4,0:0:0:0:
448,192,15095,1,0,0:0:0:30:S.wav
64,192,15198,1,2,0:0:0:0:
192,192,15198,1,4,0:0:0:0:
320,192,15302,1,2,0:0:0:0:
448,192,15302,1,0,0:0:0:30:S.wav
64,192,15405,1,6,0:0:0:0:
192,192,15405,1,0,0:0:0:30:S.wav
320,192,15509,1,2,0:0:0:0:
64,192,15612,1,4,0:0:0:0:
192,192,15612,1,2,0:0:0:0:
448,192,15612,1,0,0:0:0:0:
320,192,15819,1,0,0:0:0:0:
448,192,15819,1,0,0:0:0:0:
192,192,15922,1,0,0:0:0:0:
64,192,16026,1,8,0:0:0:0:
448,192,16026,1,0,0:0:0:0:
64,192,16233,1,0,0:0:0:0:
192,192,16233,1,0,0:0:0:0:
448,192,16336,1,0,0:0:0:0:
320,192,16336,1,0,0:0:0:0:
192,192,16440,1,2,0:0:0:0:
64,192,16440,1,0,0:0:0:0:
448,192,16647,1,0,0:0:0:0:
320,192,16750,1,0,0:0:0:0:
192,192,16750,1,0,0:0:0:0:
64,192,16853,1,8,0:0:0:0:
448,192,16853,1,0,0:0:0:0:
320,192,17060,1,0,0:0:0:0:
192,192,17060,1,0,0:0:0:0:
64,192,17267,1,2,0:0:0:0:
192,192,17267,1,0,0:0:0:0:
448,192,17267,1,0,0:0:0:0:
320,192,17371,1,0,0:0:0:0:
64,192,17474,1,0,0:0:0:0:
192,192,17474,1,0,0:0:0:0:
320,192,17681,1,8,0:0:0:0:
448,192,17681,1,0,0:0:0:0:
192,192,17888,1,0,0:0:0:0:
448,192,17888,1,0,0:0:0:0:
320,192,17991,1,0,0:0:0:0:
64,192,18095,1,2,0:0:0:0:
192,192,18095,1,0,0:0:0:0:
448,192,18095,1,0,0:0:0:0:
320,192,18198,1,0,0:0:0:0:
192,192,18302,1,0,0:0:0:0:
448,192,18405,1,0,0:0:0:0:
64,192,18509,1,8,0:0:0:0:
320,192,18509,1,0,0:0:0:0:
192,192,18612,1,0,0:0:0:0:
448,192,18716,1,0,0:0:0:0:
320,192,18819,1,0,0:0:0:0:
64,192,18922,1,2,0:0:0:0:
192,192,18922,1,0,0:0:0:0:
448,192,18922,1,0,0:0:0:0:
192,192,19129,1,0,0:0:0:0:
320,192,19129,1,0,0:0:0:0:
448,192,19233,1,0,0:0:0:0:
64,192,19336,1,8,0:0:0:0:
320,192,19336,1,0,0:0:0:0:
192,192,19543,1,0,0:0:0:0:
448,192,19543,1,0,0:0:0:0:
320,192,19647,1,0,0:0:0:0:
64,192,19750,1,2,0:0:0:0:
192,192,19750,1,0,0:0:0:0:
448,192,19750,1,0,0:0:0:0:
64,192,19957,1,0,0:0:0:0:
320,192,19957,1,0,0:0:0:0:
448,192,20060,1,0,0:0:0:0:
192,192,20164,1,8,0:0:0:0:
320,192,20164,1,0,0:0:0:0:
64,192,20267,1,0,0:0:0:0:
192,192,20371,1,0,0:0:0:0:
448,192,20371,1,0,0:0:0:0:
320,192,20474,1,0,0:0:0:0:
64,192,20578,1,2,0:0:0:0:
192,192,20578,1,0,0:0:0:0:
448,192,20578,1,0,0:0:0:0:
192,192,20784,1,0,0:0:0:0:
320,192,20784,1,0,0:0:0:0:
448,192,20888,1,0,0:0:0:0:
64,192,20991,1,8,0:0:0:0:
320,192,20991,1,0,0:0:0:0:
448,192,21095,1,0,0:0:0:0:
64,192,21198,1,0,0:0:0:0:
192,192,21198,1,0,0:0:0:0:
192,192,21405,1,2,0:0:0:0:
448,192,21405,1,0,0:0:0:0:
64,192,21612,1,0,0:0:0:0:
320,192,21612,1,0,0:0:0:0:
192,192,21716,1,0,0:0:0:0:
64,192,21819,1,8,0:0:0:0:
448,192,21819,1,0,0:0:0:0:
320,192,21922,1,0,0:0:0:0:
64,192,22026,1,2,0:0:0:0:
448,192,22026,1,0,0:0:0:0:
192,192,22129,1,0,0:0:0:0:
64,192,22233,1,4,0:0:0:0:
320,192,22233,1,2,0:0:0:0:
448,192,22233,1,0,0:0:0:0:
192,192,22440,1,0,0:0:0:0:
320,192,22440,1,0,0:0:0:0:
448,192,22543,1,0,0:0:0:0:
64,192,22647,1,8,0:0:0:0:
320,192,22647,1,0,0:0:0:0:
64,192,22853,1,0,0:0:0:0:
192,192,22853,1,0,0:0:0:0:
192,192,23060,1,2,0:0:0:0:
320,192,23060,1,0,0:0:0:0:
448,192,23060,1,0,0:0:0:0:
64,192,23267,1,0,0:0:0:0:
448,192,23267,1,0,0:0:0:0:
320,192,23371,1,0,0:0:0:0:
64,192,23474,1,8,0:0:0:0:
192,192,23474,1,0,0:0:0:0:
448,192,23578,1,0,0:0:0:0:
192,192,23681,1,0,0:0:0:0:
320,192,23681,1,0,0:0:0:0:
64,192,23888,1,2,0:0:0:0:
320,192,23888,1,0,0:0:0:0:
448,192,23888,1,0,0:0:0:0:
64,192,23991,1,0,0:0:0:0:
192,192,24095,1,0,0:0:0:0:
448,192,24095,1,0,0:0:0:0:
320,192,24198,1,0,0:0:0:0:
64,192,24302,1,8,0:0:0:0:
192,192,24302,1,0,0:0:0:0:
448,192,24302,1,0,0:0:0:0:
64,192,24509,1,0,0:0:0:0:
320,192,24509,1,0,0:0:0:0:
192,192,24716,1,2,0:0:0:0:
320,192,24716,1,0,0:0:0:0:
448,192,24716,1,0,0:0:0:0:
64,192,24922,1,0,0:0:0:0:
192,192,24922,1,0,0:0:0:0:
320,192,25026,1,0,0:0:0:0:
64,192,25129,1,8,0:0:0:0:
192,192,25129,1,0,0:0:0:0:
448,192,25129,1,0,0:0:0:0:
320,192,25233,1,0,0:0:0:0:
64,192,25336,1,0,0:0:0:0:
192,192,25440,1,0,0:0:0:0:
64,192,25543,1,2,0:0:0:0:
448,192,25543,1,0,0:0:0:0:
320,192,25543,1,0,0:0:0:0:
192,192,25647,1,0,0:0:0:0:
448,192,25750,1,0,0:0:0:0:
320,192,25853,1,0,0:0:0:0:
64,192,25957,1,8,0:0:0:0:
192,192,25957,1,0,0:0:0:0:
448,192,25957,1,0,0:0:0:0:
320,192,26060,1,0,0:0:0:0:
192,192,26164,1,0,0:0:0:0:
64,192,26267,1,0,0:0:0:0:
192,192,26371,1,2,0:0:0:0:
320,192,26371,1,0,0:0:0:0:
448,192,26371,1,0,0:0:0:0:
320,192,26578,1,0,0:0:0:0:
192,192,26681,1,0,0:0:0:0:
64,192,26784,1,8,0:0:0:0:
320,192,26784,1,0,0:0:0:0:
448,192,26784,1,0,0:0:0:0:
192,192,26991,1,0,0:0:0:0:
320,192,26991,1,0,0:0:0:0:
64,192,27198,1,4,0:0:0:0:
192,192,27198,1,2,0:0:0:0:
448,192,27198,1,0,0:0:0:0:
192,192,27405,1,2,0:0:0:0:
320,192,27405,1,4,0:0:0:0:
448,192,27405,1,0,0:0:0:0:
64,192,27612,1,2,0:0:0:0:
192,192,27612,1,4,0:0:0:0:
320,192,27716,1,2,0:0:0:0:
448,192,27716,1,4,0:0:0:0:
64,192,27922,1,2,0:0:0:0:
192,192,27922,1,4,0:0:0:0:
320,192,28026,1,0,0:0:0:0:
448,192,28026,1,0,0:0:0:0:
64,192,28129,1,0,0:0:0:30:S.wav
192,192,28129,1,0,0:0:0:0:
320,192,28233,1,0,0:0:0:30:S.wav
448,192,28233,1,0,0:0:0:0:
192,192,28336,1,0,0:0:0:30:S.wav
64,192,28440,1,4,0:0:0:0:
320,192,28440,1,2,0:0:0:0:
448,192,28440,1,0,0:0:0:30:S.wav
192,192,28543,1,2,0:0:0:0:
320,192,28647,1,2,0:0:0:0:
192,192,28750,1,2,0:0:0:0:
64,192,28853,1,4,0:0:0:0:
320,192,28853,1,2,0:0:0:0:
448,192,28853,1,0,0:0:0:0:
192,192,29060,1,0,0:0:0:0:
320,192,29164,1,0,0:0:0:0:
64,192,29267,1,8,0:0:0:0:
448,192,29267,1,0,0:0:0:0:
192,192,29474,1,0,0:0:0:0:
320,192,29474,1,0,0:0:0:0:
64,192,29578,1,0,0:0:0:0:
192,192,29681,1,2,0:0:0:0:
448,192,29681,1,0,0:0:0:0:
64,192,29888,1,0,0:0:0:0:
320,192,29888,1,0,0:0:0:0:
448,192,29991,1,0,0:0:0:0:
64,192,30095,1,8,0:0:0:0:
192,192,30095,1,0,0:0:0:0:
320,192,30302,1,0,0:0:0:0:
448,192,30302,1,0,0:0:0:0:
192,192,30405,1,0,0:0:0:0:
64,192,30509,1,2,0:0:0:0:
448,192,30509,1,0,0:0:0:0:
192,192,30716,1,0,0:0:0:0:
320,192,30716,1,0,0:0:0:0:
448,192,30819,1,0,0:0:0:0:
64,192,30922,1,8,0:0:0:0:
320,192,30922,1,0,0:0:0:0:
192,192,31129,1,0,0:0:0:0:
448,192,31129,1,0,0:0:0:0:
320,192,31233,1,0,0:0:0:0:
64,192,31336,1,2,0:0:0:0:
448,192,31336,1,0,0:0:0:0:
64,192,31543,1,0,0:0:0:0:
192,192,31543,1,0,0:0:0:0:
320,192,31647,1,0,0:0:0:0:
192,192,31750,1,8,0:0:0:0:
448,192,31750,1,0,0:0:0:0:
320,192,31957,1,0,0:0:0:0:
448,192,31957,1,0,0:0:0:0:
64,192,32164,1,2,0:0:0:0:
192,192,32164,1,0,0:0:0:0:
64,192,32371,1,0,0:0:0:0:
448,192,32371,1,0,0:0:0:0:
320,192,32474,1,0,0:0:0:0:
64,192,32578,1,8,0:0:0:0:
192,192,32578,1,0,0:0:0:0:
192,192,32784,1,0,0:0:0:0:
448,192,32784,1,0,0:0:0:0:
320,192,32888,1,0,0:0:0:0:
64,192,32991,1,2,0:0:0:0:
448,192,32991,1,0,0:0:0:0:
64,192,33198,1,0,0:0:0:0:
192,192,33198,1,0,0:0:0:0:
320,192,33302,1,0,0:0:0:0:
64,192,33405,1,8,0:0:0:0:
448,192,33405,1,0,0:0:0:0:
192,192,33612,1,0,0:0:0:0:
320,192,33612,1,0,0:0:0:0:
64,192,33716,1,0,0:0:0:0:
192,192,33819,1,2,0:0:0:0:
448,192,33819,1,0,0:0:0:0:
320,192,34026,1,0,0:0:0:0:
448,192,34026,1,0,0:0:0:0:
64,192,34129,1,0,0:0:0:0:
192,192,34233,1,8,0:0:0:0:
320,192,34233,1,0,0:0:0:0:
192,192,34440,1,0,0:0:0:0:
448,192,34440,1,0,0:0:0:0:
320,192,34543,1,0,0:0:0:0:
64,192,34647,1,2,0:0:0:0:
448,192,34647,1,0,0:0:0:0:
64,192,34853,1,0,0:0:0:0:
192,192,34853,1,0,0:0:0:0:
320,192,34957,1,0,0:0:0:0:
64,192,35060,1,8,0:0:0:0:
448,192,35060,1,0,0:0:0:0:
192,192,35267,1,2,0:0:0:0:
320,192,35267,1,0,0:0:0:0:
64,192,35474,1,4,0:0:0:0:
320,192,35474,1,2,0:0:0:0:
448,192,35474,1,0,0:0:0:0:
64,192,35681,1,0,0:0:0:0:
192,192,35681,1,0,0:0:0:0:
320,192,35784,1,0,0:0:0:0:
192,192,35888,1,8,0:0:0:0:
448,192,35888,1,0,0:0:0:0:
64,192,36095,1,0,0:0:0:0:
320,192,36095,1,0,0:0:0:0:
448,192,36198,1,0,0:0:0:0:
64,192,36302,1,2,0:0:0:0:
192,192,36302,1,0,0:0:0:0:
320,192,36509,1,0,0:0:0:0:
448,192,36509,1,0,0:0:0:0:
64,192,36612,1,0,0:0:0:0:
192,192,36716,1,8,0:0:0:0:
448,192,36716,1,0,0:0:0:0:
320,192,36922,1,0,0:0:0:0:
448,192,36922,1,0,0:0:0:0:
192,192,37026,1,0,0:0:0:0:
64,192,37129,1,2,0:0:0:0:
320,192,37129,1,0,0:0:0:0:
64,192,37336,1,0,0:0:0:0:
448,192,37336,1,0,0:0:0:0:
192,192,37440,1,0,0:0:0:0:
320,192,37543,1,8,0:0:0:0:
448,192,37543,1,0,0:0:0:0:
192,192,37750,1,0,0:0:0:0:
320,192,37750,1,0,0:0:0:0:
64,192,37853,1,0,0:0:0:0:
192,192,37957,1,2,0:0:0:0:
448,192,37957,1,0,0:0:0:0:
64,192,38164,1,0,0:0:0:0:
448,192,38164,1,0,0:0:0:0:
320,192,38267,1,0,0:0:0:0:
64,192,38371,1,8,0:0:0:0:
192,192,38371,1,0,0:0:0:0:
320,192,38578,1,0,0:0:0:0:
448,192,38578,1,0,0:0:0:0:
192,192,38681,1,0,0:0:0:0:
64,192,38784,1,2,0:0:0:0:
320,192,38784,1,0,0:0:0:0:
448,192,38784,1,0,0:0:0:0:
64,192,38991,1,0,0:0:0:0:
192,192,38991,1,0,0:0:0:0:
448,192,39095,1,0,0:0:0:0:
64,192,39198,1,8,0:0:0:0:
320,192,39198,1,0,0:0:0:0:
192,192,39405,1,0,0:0:0:0:
448,192,39405,1,0,0:0:0:0:
320,192,39509,1,0,0:0:0:0:
64,192,39612,1,2,0:0:0:0:
192,192,39612,1,0,0:0:0:0:
448,192,39612,1,0,0:0:0:0:
320,192,39819,1,0,0:0:0:0:
448,192,39819,1,0,0:0:0:0:
192,192,39922,1,0,0:0:0:0:
64,192,40026,1,8,0:0:0:0:
448,192,40026,1,0,0:0:0:0:
192,192,40233,1,0,0:0:0:0:
320,192,40233,1,0,0:0:0:0:
448,192,40336,1,0,0:0:0:0:
64,192,40440,1,4,0:0:0:0:
192,192,40440,1,2,0:0:0:0:
320,192,40440,1,0,0:0:0:0:
448,192,40543,1,0,0:0:0:30:S.wav
64,192,40647,1,0,0:0:0:0:
192,192,40647,1,0,0:0:0:0:
320,192,40750,1,0,0:0:0:0:
192,192,40853,1,8,0:0:0:0:
448,192,40853,1,0,0:0:0:0:
64,192,41060,1,0,0:0:0:30:S.wav
320,192,41060,1,0,0:0:0:0:
192,192,41164,1,0,0:0:0:30:S.wav
64,192,41267,1,2,0:0:0:0:
320,192,41267,1,4,0:0:0:0:
448,192,41267,1,0,0:0:0:0:
192,192,41474,1,0,0:0:0:30:S.wav
320,192,41578,1,4,0:0:0:0:
448,192,41578,1,0,0:0:0:30:S.wav
64,192,41681,1,8,0:0:0:0:
192,192,41681,1,4,0:0:0:0:
448,192,41681,1,0,0:0:0:0:
64,192,41888,1,4,0:0:0:0:
320,192,41888,1,0,0:0:0:30:S.wav
448,192,41991,1,0,0:0:0:30:S.wav
64,192,42095,1,2,0:0:0:0:
192,192,42095,1,4,0:0:0:0:
320,192,42095,1,0,0:0:0:0:
192,192,42302,1,0,0:0:0:0:
448,192,42302,1,0,0:0:0:0:
320,192,42405,1,0,0:0:0:0:
64,192,42509,1,8,0:0:0:0:
448,192,42509,1,0,0:0:0:0:
192,192,42716,1,0,0:0:0:0:
320,192,42716,1,0,0:0:0:0:
64,192,42819,1,0,0:0:0:0:
192,192,42922,1,2,0:0:0:0:
320,192,42922,1,0,0:0:0:0:
448,192,42922,1,0,0:0:0:0:
64,192,43129,1,0,0:0:0:0:
448,192,43129,1,0,0:0:0:0:
320,192,43233,1,0,0:0:0:0:
64,192,43336,1,8,0:0:0:0:
192,192,43336,1,0,0:0:0:0:
320,192,43543,1,0,0:0:0:0:
448,192,43543,1,0,0:0:0:0:
64,192,43750,1,2,0:0:0:0:
192,192,43750,1,0,0:0:0:0:
448,192,43750,1,0,0:0:0:0:
320,192,43957,1,0,0:0:0:0:
448,192,43957,1,0,0:0:0:0:
192,192,44164,1,8,0:0:0:0:
320,192,44164,1,0,0:0:0:0:
64,192,44267,1,0,0:0:0:0:
192,192,44371,1,0,0:0:0:0:
448,192,44371,1,0,0:0:0:0:
320,192,44474,1,0,0:0:0:0:
64,192,44578,1,2,0:0:0:0:
192,192,44578,1,0,0:0:0:0:
448,192,44578,1,0,0:0:0:0:
320,192,44784,1,0,0:0:0:0:
448,192,44784,1,0,0:0:0:0:
192,192,44888,1,0,0:0:0:0:
64,192,44991,1,8,0:0:0:0:
320,192,44991,1,0,0:0:0:0:
64,192,45198,1,0,0:0:0:0:
192,192,45198,1,0,0:0:0:0:
320,192,45302,1,0,0:0:0:0:
64,192,45405,1,2,0:0:0:0:
192,192,45405,1,0,0:0:0:0:
448,192,45405,1,0,0:0:0:0:
320,192,45612,1,0,0:0:0:0:
448,192,45612,1,0,0:0:0:0:
192,192,45716,1,0,0:0:0:0:
64,192,45819,1,8,0:0:0:0:
448,192,45819,1,0,0:0:0:0:
192,192,46026,1,0,0:0:0:0:
320,192,46026,1,0,0:0:0:0:
448,192,46129,1,0,0:0:0:0:
64,192,46233,1,2,0:0:0:0:
192,192,46233,1,0,0:0:0:0:
320,192,46440,1,0,0:0:0:0:
448,192,46440,1,0,0:0:0:0:
192,192,46543,1,0,0:0:0:0:
64,192,46647,1,8,0:0:0:0:
448,192,46647,1,0,0:0:0:0:
192,192,46853,1,0,0:0:0:0:
320,192,46853,1,0,0:0:0:0:
64,192,47060,1,2,0:0:0:0:
320,192,47060,1,4,0:0:0:0:
448,192,47060,1,0,0:0:0:0:
192,192,47267,1,0,0:0:0:0:
448,192,47267,1,0,0:0:0:0:
320,192,47371,1,0,0:0:0:0:
64,192,47474,1,8,0:0:0:0:
192,192,47474,1,4,0:0:0:0:
448,192,47474,1,0,0:0:0:0:
64,192,47681,1,0,0:0:0:0:
320,192,47681,1,0,0:0:0:0:
448,192,47784,1,0,0:0:0:0:
64,192,47888,1,2,0:0:0:0:
192,192,47888,1,0,0:0:0:0:
320,192,48095,1,0,0:0:0:0:
448,192,48095,1,0,0:0:0:0:
192,192,48198,1,0,0:0:0:0:
64,192,48302,1,8,0:0:0:0:
320,192,48302,1,4,0:0:0:0:
448,192,48302,1,0,0:0:0:0:
192,192,48509,1,0,0:0:0:0:
448,192,48509,1,0,0:0:0:0:
320,192,48612,1,0,0:0:0:0:
64,192,48716,1,2,0:0:0:0:
192,192,48716,1,4,0:0:0:0:
448,192,48716,1,0,0:0:0:0:
64,192,48922,1,0,0:0:0:0:
320,192,48922,1,0,0:0:0:0:
192,192,49026,1,0,0:0:0:0:
320,192,49129,1,8,0:0:0:0:
448,192,49129,1,0,0:0:0:0:
64,192,49336,1,0,0:0:0:0:
192,192,49336,1,0,0:0:0:0:
448,192,49440,1,0,0:0:0:0:
64,192,49543,1,2,0:0:0:0:
192,192,49543,1,0,0:0:0:0:
320,192,49543,1,0,0:0:0:0:
320,192,49750,1,0,0:0:0:0:
448,192,49750,1,0,0:0:0:0:
64,192,49853,1,0,0:0:0:0:
192,192,49957,1,8,0:0:0:0:
448,192,49957,1,0,0:0:0:0:
64,192,50164,1,0,0:0:0:0:
320,192,50164,1,0,0:0:0:0:
192,192,50267,1,0,0:0:0:0:
64,192,50371,1,2,0:0:0:0:
320,192,50371,1,0,0:0:0:0:
448,192,50371,1,0,0:0:0:0:
192,192,50578,1,0,0:0:0:0:
320,192,50578,1,0,0:0:0:0:
448,192,50681,1,0,0:0:0:0:
64,192,50784,1,8,0:0:0:0:
192,192,50784,1,0,0:0:0:0:
320,192,50991,1,0,0:0:0:0:
448,192,50991,1,0,0:0:0:0:
192,192,51095,1,0,0:0:0:0:
64,192,51198,1,2,0:0:0:0:
320,192,51198,1,0,0:0:0:0:
448,192,51198,1,0,0:0:0:0:
192,192,51405,1,0,0:0:0:0:
448,192,51405,1,0,0:0:0:0:
64,192,51509,1,0,0:0:0:0:
192,192,51612,1,8,0:0:0:0:
320,192,51612,1,0,0:0:0:0:
320,192,51819,1,0,0:0:0:0:
448,192,51819,1,0,0:0:0:0:
64,192,52026,1,4,0:0:0:0:
192,192,52026,1,2,0:0:0:0:
448,192,52026,1,0,0:0:0:0:
320,192,52129,1,0,0:0:0:30:S.wav
64,192,52233,1,0,0:0:0:30:S.wav
192,192,52233,1,0,0:0:0:0:
320,192,52336,1,0,0:0:0:30:S.wav
448,192,52336,1,0,0:0:0:0:
64,192,52440,1,8,0:0:0:0:
192,192,52440,1,8,0:0:0:30:S.wav
320,192,52543,1,0,0:0:0:30:S.wav
448,192,52543,1,0,0:0:0:0:
64,192,52647,1,0,0:0:0:30:S.wav
192,192,52647,1,0,0:0:0:0:
320,192,52750,1,0,0:0:0:30:S.wav
64,192,52853,1,2,0:0:0:0:
192,192,52853,1,4,0:0:0:0:
448,192,52853,1,0,0:0:0:0:
320,192,52957,1,0,0:0:0:30:S.wav
64,192,53060,1,0,0:0:0:30:S.wav
448,192,53060,1,0,0:0:0:0:
192,192,53164,1,0,0:0:0:30:S.wav
320,192,53164,1,0,0:0:0:0:
64,192,53267,1,12,0:0:0:0:
448,192,53267,1,8,0:0:0:30:S.wav
192,192,53371,1,0,0:0:0:30:S.wav
320,192,53371,1,0,0:0:0:0:
64,192,53474,1,4,0:0:0:0:
448,192,53474,1,0,0:0:0:30:S.wav
192,192,53578,1,0,0:0:0:30:S.wav
64,192,53681,1,2,0:0:0:0:
320,192,53681,1,4,0:0:0:0:
448,192,53681,1,0,0:0:0:0:
192,192,53784,1,0,0:0:0:30:S.wav
320,192,53888,1,4,0:0:0:0:
448,192,53888,1,0,0:0:0:30:S.wav
64,192,53991,1,0,0:0:0:30:S.wav
192,192,53991,1,0,0:0:0:0:
320,192,54095,1,8,0:0:0:0:
448,192,54095,1,8,0:0:0:30:S.wav
64,192,54198,1,0,0:0:0:30:S.wav
192,192,54198,1,0,0:0:0:0:
320,192,54302,1,0,0:0:0:30:S.wav
448,192,54302,1,0,0:0:0:0:
64,192,54405,1,0,0:0:0:30:S.wav
192,192,54405,1,0,0:0:0:0:
320,192,54509,1,2,0:0:0:0:
448,192,54509,1,4,0:0:0:0:
64,192,54612,1,0,0:0:0:30:S.wav
192,192,54612,1,0,0:0:0:0:
320,192,54716,1,4,0:0:0:0:
448,192,54716,1,0,0:0:0:30:S.wav
64,192,54819,1,0,0:0:0:30:S.wav
192,192,54819,1,0,0:0:0:0:
320,192,54922,1,8,0:0:0:0:
64,192,55336,1,2,0:0:0:0:
192,192,55336,1,4,0:0:0:0:
320,192,55336,1,0,0:0:0:0:
448,192,55336,1,0,0:0:0:0:
64,192,55543,1,0,0:0:0:0:
192,192,55543,1,0,0:0:0:0:
320,192,55647,1,0,0:0:0:0:
64,192,55750,1,8,0:0:0:0:
192,192,55750,1,0,0:0:0:0:
448,192,55750,1,0,0:0:0:0:
320,192,55957,1,0,0:0:0:0:
448,192,55957,1,0,0:0:0:0:
64,192,56164,1,2,0:0:0:0:
192,192,56164,1,0,0:0:0:0:
320,192,56164,1,0,0:0:0:0:
64,192,56371,1,0,0:0:0:0:
448,192,56371,1,0,0:0:0:0:
192,192,56474,1,0,0:0:0:0:
64,192,56578,1,8,0:0:0:0:
320,192,56578,1,0,0:0:0:0:
448,192,56578,1,0,0:0:0:0:
192,192,56784,1,0,0:0:0:0:
448,192,56784,1,0,0:0:0:0:
64,192,56991,1,2,0:0:0:0:
192,192,56991,1,0,0:0:0:0:
320,192,56991,1,0,0:0:0:0:
64,192,57198,1,0,0:0:0:0:
448,192,57198,1,0,0:0:0:0:
320,192,57302,1,0,0:0:0:0:
64,192,57405,1,8,0:0:0:0:
192,192,57405,1,0,0:0:0:0:
448,192,57405,1,0,0:0:0:0:
320,192,57509,1,0,0:0:0:0:
64,192,57612,1,0,0:0:0:0:
192,192,57612,1,0,0:0:0:0:
192,192,57819,1,2,0:0:0:0:
320,192,57819,1,0,0:0:0:0:
448,192,57819,1,0,0:0:0:0:
64,192,57922,1,0,0:0:0:20:S.wav
320,192,58026,1,0,0:0:0:0:
448,192,58026,1,0,0:0:0:0:
192,192,58129,1,0,0:0:0:0:
64,192,58233,1,8,0:0:0:0:
320,192,58233,1,0,0:0:0:0:
448,192,58233,1,0,0:0:0:0:
192,192,58336,1,0,0:0:0:0:
64,192,58440,1,0,0:0:0:0:
320,192,58440,1,0,0:0:0:0:
64,192,58647,1,2,0:0:0:0:
192,192,58647,1,0,0:0:0:0:
320,192,58647,1,0,0:0:0:0:
448,192,58647,1,0,0:0:0:0:
192,192,58853,1,0,0:0:0:0:
448,192,58853,1,0,0:0:0:0:
320,192,58957,1,0,0:0:0:0:
64,192,59060,1,8,0:0:0:0:
192,192,59060,1,0,0:0:0:0:
448,192,59060,1,0,0:0:0:0:
320,192,59164,1,0,0:0:0:0:
64,192,59267,1,0,0:0:0:0:
448,192,59267,1,0,0:0:0:0:
64,192,59474,1,2,0:0:0:0:
192,192,59474,1,0,0:0:0:0:
320,192,59474,1,0,0:0:0:0:
448,192,59474,1,0,0:0:0:0:
64,192,59681,1,0,0:0:0:0:
448,192,59681,1,0,0:0:0:0:
192,192,59784,1,0,0:0:0:0:
64,192,59888,1,8,0:0:0:0:
320,192,59888,1,0,0:0:0:0:
448,192,59888,1,0,0:0:0:0:
192,192,60095,1,0,0:0:0:0:
320,192,60095,1,0,0:0:0:0:
64,192,60302,1,2,0:0:0:0:
192,192,60302,1,0,0:0:0:0:
320,192,60302,1,0,0:0:0:0:
448,192,60302,1,0,0:0:0:0:
64,192,60509,1,0,0:0:0:0:
448,192,60509,1,0,0:0:0:0:
320,192,60612,1,0,0:0:0:0:
64,192,60716,1,8,0:0:0:0:
192,192,60716,1,0,0:0:0:0:
448,192,60716,1,0,0:0:0:0:
320,192,60819,1,0,0:0:0:0:
64,192,60922,1,0,0:0:0:0:
192,192,60922,1,0,0:0:0:0:
192,192,61129,1,2,0:0:0:0:
320,192,61129,1,0,0:0:0:0:
448,192,61129,1,0,0:0:0:0:
64,192,61336,1,0,0:0:0:0:
448,192,61336,1,0,0:0:0:0:
320,192,61440,1,0,0:0:0:0:
64,192,61543,1,8,0:0:0:0:
192,192,61543,1,0,0:0:0:0:
448,192,61543,1,0,0:0:0:0:
192,192,61750,1,2,0:0:0:0:
320,192,61750,1,0,0:0:0:0:
448,192,61750,1,0,0:0:0:0:
64,192,61957,1,2,0:0:0:0:
192,192,61957,1,4,0:0:0:0:
320,192,61957,1,0,0:0:0:0:
448,192,61957,1,0,0:0:0:0:
64,192,62164,1,0,0:0:0:0:
448,192,62164,1,0,0:0:0:0:
320,192,62267,1,0,0:0:0:0:
64,192,62371,1,8,0:0:0:0:
192,192,62371,1,0,0:0:0:0:
448,192,62371,1,0,0:0:0:0:
64,192,62578,1,0,0:0:0:0:
320,192,62578,1,0,0:0:0:0:
192,192,62681,1,0,0:0:0:0:
64,192,62784,1,2,0:0:0:0:
320,192,62784,1,0,0:0:0:0:
448,192,62784,1,0,0:0:0:0:
192,192,62991,1,0,0:0:0:0:
320,192,62991,1,0,0:0:0:0:
64,192,63095,1,0,0:0:0:0:
192,192,63198,1,8,0:0:0:0:
320,192,63198,1,0,0:0:0:0:
448,192,63198,1,0,0:0:0:0:
64,192,63405,1,0,0:0:0:0:
448,192,63405,1,0,0:0:0:0:
64,192,63612,1,2,0:0:0:0:
192,192,63612,1,0,0:0:0:0:
320,192,63612,1,0,0:0:0:0:
192,192,63819,1,0,0:0:0:0:
448,192,63819,1,0,0:0:0:0:
320,192,63922,1,0,0:0:0:0:
64,192,64026,1,8,0:0:0:0:
192,192,64026,1,0,0:0:0:0:
448,192,64026,1,0,0:0:0:0:
320,192,64233,1,0,0:0:0:0:
448,192,64233,1,0,0:0:0:0:
64,192,64440,1,2,0:0:0:0:
192,192,64440,1,0,0:0:0:0:
320,192,64440,1,0,0:0:0:0:
64,192,64647,1,0,0:0:0:0:
448,192,64647,1,0,0:0:0:0:
192,192,64750,1,0,0:0:0:0:
64,192,64853,1,8,0:0:0:0:
320,192,64853,1,0,0:0:0:0:
448,192,64853,1,0,0:0:0:0:
64,192,65060,1,0,0:0:0:0:
192,192,65060,1,0,0:0:0:0:
64,192,65267,1,2,0:0:0:0:
192,192,65267,1,4,0:0:0:0:
320,192,65267,128,0,65681:0:0:0:0:
448,192,65267,1,0,0:0:0:0:
64,192,65681,128,8,66095:0:0:0:0:
192,192,65681,1,0,0:0:0:0:
192,192,66095,1,2,0:0:0:0:
320,192,66095,1,4,0:0:0:0:
448,192,66095,128,0,66405:0:0:0:0:
64,192,66302,1,0,0:0:0:0:
192,192,66405,1,0,0:0:0:0:
320,192,66405,1,0,0:0:0:0:
64,192,66509,1,8,0:0:0:0:
448,192,66509,1,0,0:0:0:0:
320,192,66716,128,0,66922:0:0:0:0:
448,192,66716,1,0,0:0:0:0:
64,192,66922,1,2,0:0:0:0:
192,192,66922,1,4,0:0:0:0:
448,192,66922,1,0,0:0:0:0:
64,192,67129,1,0,0:0:0:0:
320,192,67129,1,0,0:0:0:0:
192,192,67233,1,0,0:0:0:0:
64,192,67336,1,8,0:0:0:0:
320,192,67336,1,4,0:0:0:0:
448,192,67336,1,0,0:0:0:0:
64,192,67543,1,4,0:0:0:0:
192,192,67543,1,0,0:0:0:0:
320,192,67750,1,2,0:0:0:0:
448,192,67750,1,4,0:0:0:0:
64,192,67853,1,0,0:0:0:30:S.wav
192,192,67853,1,0,0:0:0:0:
320,192,67957,1,4,0:0:0:0:
448,192,67957,1,0,0:0:0:30:S.wav
64,192,68060,1,0,0:0:0:30:S.wav
192,192,68060,1,0,0:0:0:0:
320,192,68164,1,2,0:0:0:0:
448,192,68164,1,4,0:0:0:0:
64,192,68267,1,2,0:0:0:0:
192,192,68267,1,0,0:0:0:30:S.wav
320,192,68371,1,6,0:0:0:0:
448,192,68371,1,0,0:0:0:30:S.wav
192,192,68474,1,2,0:0:0:0:
64,192,68578,1,4,0:0:0:0:
320,192,68578,1,2,0:0:0:0:
448,192,68578,1,0,0:0:0:0:
192,192,68784,1,0,0:0:0:0:
448,192,68784,1,0,0:0:0:0:
320,192,68888,1,0,0:0:0:0:
64,192,68991,1,8,0:0:0:0:
192,192,68991,1,0,0:0:0:0:
448,192,68991,1,0,0:0:0:0:
320,192,69198,1,0,0:0:0:0:
448,192,69198,1,0,0:0:0:0:
64,192,69405,1,2,0:0:0:0:
192,192,69405,1,0,0:0:0:0:
320,192,69405,1,0,0:0:0:0:
64,192,69612,1,0,0:0:0:0:
448,192,69612,1,0,0:0:0:0:
192,192,69716,1,0,0:0:0:0:
64,192,69819,1,8,0:0:0:0:
320,192,69819,1,0,0:0:0:0:
448,192,69819,1,0,0:0:0:0:
192,192,70026,1,0,0:0:0:0:
320,192,70026,1,0,0:0:0:0:
64,192,70233,1,2,0:0:0:0:
192,192,70233,1,0,0:0:0:0:
448,192,70233,1,0,0:0:0:0:
320,192,70440,1,0,0:0:0:0:
448,192,70440,1,0,0:0:0:0:
192,192,70543,1,0,0:0:0:0:
64,192,70647,1,8,0:0:0:0:
320,192,70647,1,0,0:0:0:0:
448,192,70647,1,0,0:0:0:0:
64,192,70853,1,0,0:0:0:0:
192,192,70853,1,0,0:0:0:0:
192,192,71060,1,2,0:0:0:0:
320,192,71060,1,0,0:0:0:0:
448,192,71060,1,0,0:0:0:0:
64,192,71267,1,0,0:0:0:0:
320,192,71267,1,0,0:0:0:0:
448,192,71371,1,0,0:0:0:0:
64,192,71474,1,8,0:0:0:0:
192,192,71474,1,0,0:0:0:0:
320,192,71474,1,0,0:0:0:0:
192,192,71681,1,0,0:0:0:0:
448,192,71681,1,0,0:0:0:0:
64,192,71888,1,2,0:0:0:0:
192,192,71888,1,0,0:0:0:0:
320,192,71888,1,0,0:0:0:0:
448,192,71888,1,0,0:0:0:0:
64,192,72095,1,0,0:0:0:0:
320,192,72095,1,0,0:0:0:0:
192,192,72198,1,0,0:0:0:0:
64,192,72302,1,8,0:0:0:0:
320,192,72302,1,0,0:0:0:0:
448,192,72302,1,0,0:0:0:0:
192,192,72509,1,0,0:0:0:0:
320,192,72509,1,0,0:0:0:0:
64,192,72716,1,2,0:0:0:0:
192,192,72716,1,0,0:0:0:0:
320,192,72716,1,0,0:0:0:0:
448,192,72716,1,0,0:0:0:0:
64,192,72922,1,0,0:0:0:0:
448,192,72922,1,0,0:0:0:0:
320,192,73026,1,0,0:0:0:0:
64,192,73129,1,8,0:0:0:0:
192,192,73129,1,0,0:0:0:0:
448,192,73129,1,0,0:0:0:0:
192,192,73336,1,0,0:0:0:0:
320,192,73336,1,0,0:0:0:0:
64,192,73543,1,2,0:0:0:0:
192,192,73543,1,0,0:0:0:0:
320,192,73543,1,0,0:0:0:0:
448,192,73543,1,0,0:0:0:0:
64,192,73750,1,0,0:0:0:0:
448,192,73750,1,0,0:0:0:0:
192,192,73853,1,0,0:0:0:0:
64,192,73957,1,8,0:0:0:0:
320,192,73957,1,0,0:0:0:0:
448,192,73957,1,0,0:0:0:0:
192,192,74060,1,0,0:0:0:0:
320,192,74164,1,0,0:0:0:0:
448,192,74164,1,0,0:0:0:0:
64,192,74371,1,2,0:0:0:0:
192,192,74371,1,0,0:0:0:0:
448,192,74371,1,0,0:0:0:0:
64,192,74578,1,0,0:0:0:0:
320,192,74578,1,0,0:0:0:0:
192,192,74681,1,0,0:0:0:0:
64,192,74784,1,8,0:0:0:0:
320,192,74784,1,0,0:0:0:0:
448,192,74784,1,0,0:0:0:0:
64,192,74991,1,2,0:0:0:0:
192,192,74991,1,0,0:0:0:0:
320,192,74991,1,0,0:0:0:0:
64,192,75198,1,4,0:0:0:0:
192,192,75198,1,2,0:0:0:0:
320,192,75198,1,0,0:0:0:0:
448,192,75198,1,0,0:0:0:0:
192,192,75405,1,0,0:0:0:0:
448,192,75405,1,0,0:0:0:0:
320,192,75509,1,0,0:0:0:0:
64,192,75612,1,8,0:0:0:0:
192,192,75612,1,0,0:0:0:0:
448,192,75612,1,0,0:0:0:0:
320,192,75716,1,0,0:0:0:0:
64,192,75819,1,0,0:0:0:0:
448,192,75819,1,0,0:0:0:0:
192,192,75922,1,0,0:0:0:0:
64,192,76026,1,2,0:0:0:0:
320,192,76026,1,0,0:0:0:0:
448,192,76026,1,0,0:0:0:0:
192,192,76233,1,0,0:0:0:0:
448,192,76233,1,0,0:0:0:0:
320,192,76336,1,0,0:0:0:0:
64,192,76440,1,8,0:0:0:0:
192,192,76440,1,0,0:0:0:0:
448,192,76440,1,0,0:0:0:0:
320,192,76647,1,0,0:0:0:0:
448,192,76647,1,0,0:0:0:0:
64,192,76853,1,2,0:0:0:0:
192,192,76853,1,0,0:0:0:0:
320,192,76853,1,0,0:0:0:0:
192,192,77060,1,0,0:0:0:0:
448,192,77060,1,0,0:0:0:0:
320,192,77164,1,0,0:0:0:0:
64,192,77267,1,8,0:0:0:0:
192,192,77267,1,0,0:0:0:0:
448,192,77267,1,0,0:0:0:0:
64,192,77474,1,0,0:0:0:0:
320,192,77474,1,0,0:0:0:0:
192,192,77681,1,2,0:0:0:0:
320,192,77681,1,0,0:0:0:0:
448,192,77681,1,0,0:0:0:0:
64,192,77888,1,0,0:0:0:0:
448,192,77888,1,0,0:0:0:0:
192,192,77991,1,0,0:0:0:0:
64,192,78095,1,8,0:0:0:0:
320,192,78095,1,0,0:0:0:0:
448,192,78095,1,0,0:0:0:0:
192,192,78302,1,0,0:0:0:0:
320,192,78302,1,0,0:0:0:0:
64,192,78509,1,2,0:0:0:0:
192,192,78509,1,4,0:0:0:0:
448,192,78509,128,0,78922:0:0:0:0:
320,192,78509,1,0,0:0:0:0:
64,192,78922,1,8,0:0:0:0:
320,192,78922,128,0,79336:0:0:0:0:
64,192,79336,128,2,79647:0:0:0:0:
192,192,79336,1,4,0:0:0:0:
448,192,79336,1,0,0:0:0:0:
192,192,79543,1,0,0:0:0:0:
320,192,79647,1,0,0:0:0:0:
448,192,79647,1,0,0:0:0:0:
64,192,79750,1,8,0:0:0:0:
192,192,79750,1,0,0:0:0:0:
320,192,79957,1,0,0:0:0:0:
448,192,79957,128,0,80164:0:0:0:0:
64,192,80164,1,2,0:0:0:0:
192,192,80164,1,4,0:0:0:0:
320,192,80164,1,0,0:0:0:0:
64,192,80371,1,0,0:0:0:0:
320,192,80371,1,0,0:0:0:0:
192,192,80474,1,0,0:0:0:0:
64,192,80578,1,8,0:0:0:0:
320,192,80578,1,4,0:0:0:0:
448,192,80578,1,0,0:0:0:0:
192,192,80784,1,4,0:0:0:0:
320,192,80784,1,0,0:0:0:0:
64,192,80991,1,2,0:0:0:0:
448,192,80991,1,4,0:0:0:0:
192,192,81095,1,0,0:0:0:30:S.wav
320,192,81095,1,0,0:0:0:0:
64,192,81198,1,4,0:0:0:0:
448,192,81198,1,0,0:0:0:30:S.wav
192,192,81302,1,0,0:0:0:30:S.wav
320,192,81302,1,0,0:0:0:0:
64,192,81405,1,2,0:0:0:0:
448,192,81405,1,4,0:0:0:0:
320,192,81509,1,2,0:0:0:0:
64,192,81612,1,6,0:0:0:0:
192,192,81612,1,0,0:0:0:30:S.wav
320,192,81716,1,2,0:0:0:0:
64,192,81819,1,4,0:0:0:0:
192,192,81819,1,2,0:0:0:0:
448,192,81819,1,0,0:0:0:0:
320,192,81922,1,0,0:0:0:0:
192,192,82026,1,0,0:0:0:0:
448,192,82026,1,0,0:0:0:0:
64,192,82129,1,0,0:0:0:0:
192,192,82233,1,8,0:0:0:0:
320,192,82233,1,0,0:0:0:0:
448,192,82233,1,0,0:0:0:0:
64,192,82336,1,0,0:0:0:0:
192,192,82440,1,0,0:0:0:0:
448,192,82440,1,0,0:0:0:0:
320,192,82543,1,0,0:0:0:0:
64,192,82647,1,2,0:0:0:0:
192,192,82647,1,0,0:0:0:0:
448,192,82750,1,0,0:0:0:0:
64,192,82853,1,0,0:0:0:0:
320,192,82853,1,0,0:0:0:0:
192,192,82957,1,0,0:0:0:0:
64,192,83060,1,8,0:0:0:0:
320,192,83060,1,0,0:0:0:0:
448,192,83060,1,0,0:0:0:0:
192,192,83164,1,0,0:0:0:0:
320,192,83267,1,0,0:0:0:0:
448,192,83267,1,0,0:0:0:0:
64,192,83371,1,0,0:0:0:0:
192,192,83474,1,2,0:0:0:0:
448,192,83474,1,0,0:0:0:0:
320,192,83578,1,0,0:0:0:0:
64,192,83681,1,0,0:0:0:0:
192,192,83681,1,0,0:0:0:0:
448,192,83784,1,0,0:0:0:0:
64,192,83888,1,8,0:0:0:0:
192,192,83888,1,0,0:0:0:0:
320,192,83888,1,0,0:0:0:0:
448,192,83991,1,0,0:0:0:0:
64,192,84095,1,0,0:0:0:0:
320,192,84095,1,0,0:0:0:0:
192,192,84198,1,0,0:0:0:0:
448,192,84198,1,0,0:0:0:0:
64,192,84302,1,2,0:0:0:0:
320,192,84302,1,0,0:0:0:0:
192,192,84405,1,0,0:0:0:20:S.wav
320,192,84509,1,0,0:0:0:0:
448,192,84509,1,0,0:0:0:0:
64,192,84612,1,0,0:0:0:0:
192,192,84716,1,8,0:0:0:0:
320,192,84716,1,0,0:0:0:0:
448,192,84716,1,0,0:0:0:0:
64,192,84819,1,0,0:0:0:0:
192,192,84922,1,0,0:0:0:0:
448,192,84922,1,0,0:0:0:0:
320,192,85026,1,0,0:0:0:0:
64,192,85129,1,2,0:0:0:0:
192,192,85129,1,0,0:0:0:0:
448,192,85129,1,0,0:0:0:0:
320,192,85233,1,0,0:0:0:0:
64,192,85336,1,0,0:0:0:0:
192,192,85336,1,0,0:0:0:0:
448,192,85440,1,0,0:0:0:0:
64,192,85543,1,8,0:0:0:0:
192,192,85543,1,0,0:0:0:0:
320,192,85543,1,0,0:0:0:0:
448,192,85647,1,0,0:0:0:0:
64,192,85750,1,0,0:0:0:0:
320,192,85750,1,0,0:0:0:0:
192,192,85853,1,0,0:0:0:0:
64,192,85957,1,2,0:0:0:0:
320,192,85957,1,0,0:0:0:0:
448,192,85957,1,0,0:0:0:0:
192,192,86060,1,0,0:0:0:0:
320,192,86164,1,0,0:0:0:0:
448,192,86164,1,0,0:0:0:0:
64,192,86267,1,0,0:0:0:0:
192,192,86371,1,8,0:0:0:0:
320,192,86371,1,0,0:0:0:0:
448,192,86371,1,0,0:0:0:0:
64,192,86474,1,0,0:0:0:0:
192,192,86578,1,0,0:0:0:0:
448,192,86578,1,0,0:0:0:0:
320,192,86681,1,0,0:0:0:0:
64,192,86784,1,2,0:0:0:0:
192,192,86784,1,0,0:0:0:0:
448,192,86784,1,0,0:0:0:0:
320,192,86888,1,0,0:0:0:0:
64,192,86991,1,0,0:0:0:0:
192,192,86991,1,0,0:0:0:0:
448,192,87095,1,0,0:0:0:0:
64,192,87198,1,8,0:0:0:0:
192,192,87198,1,0,0:0:0:0:
320,192,87198,1,0,0:0:0:0:
448,192,87302,1,0,0:0:0:0:
64,192,87405,1,0,0:0:0:0:
320,192,87405,1,0,0:0:0:0:
192,192,87509,1,0,0:0:0:0:
320,192,87612,1,2,0:0:0:0:
448,192,87612,1,0,0:0:0:0:
64,192,87716,1,0,0:0:0:20:S.wav
192,192,87819,1,0,0:0:0:0:
448,192,87819,1,0,0:0:0:0:
320,192,87922,1,0,0:0:0:0:
64,192,88026,1,8,0:0:0:0:
192,192,88026,1,0,0:0:0:0:
448,192,88026,1,0,0:0:0:0:
320,192,88129,1,0,0:0:0:0:
64,192,88233,1,2,0:0:0:0:
448,192,88233,1,0,0:0:0:0:
192,192,88336,1,0,0:0:0:0:
64,192,88440,1,4,0:0:0:0:
320,192,88440,1,2,0:0:0:0:
448,192,88440,1,0,0:0:0:0:
64,192,88647,1,0,0:0:0:0:
192,192,88647,1,0,0:0:0:0:
320,192,88750,1,0,0:0:0:0:
64,192,88853,1,8,0:0:0:0:
192,192,88853,1,0,0:0:0:0:
448,192,88853,1,0,0:0:0:0:
320,192,89060,1,0,0:0:0:0:
448,192,89060,1,0,0:0:0:0:
192,192,89164,1,0,0:0:0:0:
64,192,89267,1,2,0:0:0:0:
320,192,89267,1,0,0:0:0:0:
448,192,89267,1,0,0:0:0:0:
192,192,89474,1,0,0:0:0:0:
448,192,89474,1,0,0:0:0:0:
320,192,89578,1,0,0:0:0:0:
64,192,89681,1,8,0:0:0:0:
192,192,89681,1,0,0:0:0:0:
448,192,89681,1,0,0:0:0:0:
192,192,89888,1,0,0:0:0:0:
320,192,89888,1,0,0:0:0:0:
64,192,90095,1,2,0:0:0:0:
320,192,90095,1,0,0:0:0:0:
448,192,90095,1,0,0:0:0:0:
448,192,90198,1,0,0:0:0:0:
64,192,90302,1,0,0:0:0:0:
320,192,90302,1,0,0:0:0:0:
64,192,90405,1,0,0:0:0:0:
192,192,90509,1,8,0:0:0:0:
320,192,90509,1,0,0:0:0:0:
448,192,90509,1,0,0:0:0:0:
64,192,90612,1,0,0:0:0:0:
192,192,90716,1,0,0:0:0:0:
320,192,90819,1,0,0:0:0:0:
192,192,90922,1,2,0:0:0:0:
448,192,90922,1,0,0:0:0:0:
320,192,91026,1,0,0:0:0:0:
64,192,91129,1,0,0:0:0:0:
448,192,91129,1,0,0:0:0:0:
192,192,91233,1,0,0:0:0:0:
64,192,91336,1,8,0:0:0:0:
320,192,91336,1,0,0:0:0:0:
448,192,91336,1,0,0:0:0:0:
192,192,91440,1,0,0:0:0:0:
64,192,91543,1,0,0:0:0:0:
320,192,91543,1,0,0:0:0:0:
448,192,91647,1,0,0:0:0:0:
64,192,91750,1,2,0:0:0:0:
192,192,91750,1,4,0:0:0:0:
320,192,91750,1,0,0:0:0:0:
448,192,91853,1,0,0:0:0:0:
320,192,91957,1,0,0:0:0:0:
192,192,92060,1,0,0:0:0:0:
64,192,92164,1,8,0:0:0:0:
448,192,92164,1,0,0:0:0:0:
320,192,92267,1,0,0:0:0:0:
64,192,92371,1,0,0:0:0:0:
192,192,92371,1,0,0:0:0:0:
320,192,92474,1,0,0:0:0:0:
64,192,92578,1,2,0:0:0:0:
192,192,92578,1,4,0:0:0:0:
448,192,92578,1,0,0:0:0:0:
320,192,92681,1,0,0:0:0:0:
64,192,92784,1,0,0:0:0:0:
448,192,92784,1,0,0:0:0:0:
192,192,92888,1,0,0:0:0:0:
64,192,92991,1,8,0:0:0:0:
448,192,92991,1,0,0:0:0:0:
320,192,93095,1,0,0:0:0:0:
64,192,93198,1,0,0:0:0:0:
192,192,93198,1,0,0:0:0:0:
320,192,93302,1,0,0:0:0:0:
64,192,93405,1,2,0:0:0:0:
192,192,93405,1,4,0:0:0:0:
448,192,93405,1,0,0:0:0:0:
320,192,93509,1,0,0:0:0:0:
192,192,93612,1,0,0:0:0:0:
448,192,93612,1,0,0:0:0:0:
64,192,93716,1,0,0:0:0:0:
192,192,93819,1,8,0:0:0:0:
320,192,93819,1,4,0:0:0:0:
448,192,93819,1,0,0:0:0:0:
64,192,93922,1,0,0:0:0:0:
192,192,94026,1,4,0:0:0:0:
320,192,94129,1,0,0:0:0:0:
64,192,94233,1,2,0:0:0:0:
448,192,94233,1,4,0:0:0:0:
192,192,94336,1,0,0:0:0:30:S.wav
320,192,94336,1,0,0:0:0:0:
64,192,94440,1,4,0:0:0:0:
448,192,94440,1,0,0:0:0:30:S.wav
192,192,94543,1,0,0:0:0:30:S.wav
320,192,94647,1,2,0:0:0:0:
448,192,94647,1,4,0:0:0:0:
64,192,94750,1,2,0:0:0:0:
192,192,94750,1,0,0:0:0:30:S.wav
320,192,94853,1,6,0:0:0:0:
448,192,94853,1,0,0:0:0:30:S.wav
192,192,94957,1,2,0:0:0:0:
64,192,95060,1,4,0:0:0:0:
320,192,95060,1,2,0:0:0:0:
448,192,95060,1,0,0:0:0:0:
192,192,95164,1,0,0:0:0:0:
64,192,95267,1,0,0:0:0:0:
320,192,95267,1,0,0:0:0:0:
448,192,95371,1,0,0:0:0:0:
64,192,95474,1,8,0:0:0:0:
192,192,95474,1,0,0:0:0:0:
320,192,95474,1,0,0:0:0:0:
448,192,95578,1,0,0:0:0:0:
192,192,95681,1,0,0:0:0:0:
320,192,95681,1,0,0:0:0:0:
64,192,95784,1,0,0:0:0:0:
192,192,95888,1,2,0:0:0:0:
448,192,95888,1,0,0:0:0:0:
320,192,95991,1,0,0:0:0:0:
64,192,96095,1,0,0:0:0:0:
448,192,96095,1,0,0:0:0:0:
192,192,96198,1,0,0:0:0:0:
64,192,96302,1,8,0:0:0:0:
320,192,96302,1,0,0:0:0:0:
448,192,96302,1,0,0:0:0:0:
192,192,96405,1,0,0:0:0:0:
64,192,96509,1,0,0:0:0:0:
320,192,96509,1,0,0:0:0:0:
448,192,96612,1,0,0:0:0:0:
192,192,96716,1,2,0:0:0:0:
320,192,96716,1,0,0:0:0:0:
64,192,96819,1,0,0:0:0:0:
192,192,96922,1,0,0:0:0:0:
448,192,96922,1,0,0:0:0:0:
320,192,97026,1,0,0:0:0:0:
64,192,97129,1,8,0:0:0:0:
192,192,97129,1,0,0:0:0:0:
448,192,97129,1,0,0:0:0:0:
320,192,97233,1,0,0:0:0:0:
64,192,97336,1,0,0:0:0:0:
448,192,97336,1,0,0:0:0:0:
192,192,97440,1,0,0:0:0:0:
64,192,97543,1,2,0:0:0:0:
448,192,97543,1,0,0:0:0:0:
320,192,97647,1,0,0:0:0:20:S.wav
192,192,97750,1,0,0:0:0:0:
448,192,97750,1,0,0:0:0:0:
320,192,97853,1,0,0:0:0:0:
64,192,97957,1,8,0:0:0:0:
192,192,97957,1,0,0:0:0:0:
448,192,97957,1,0,0:0:0:0:
320,192,98060,1,0,0:0:0:0:
64,192,98164,1,0,0:0:0:0:
448,192,98164,1,0,0:0:0:0:
192,192,98267,1,0,0:0:0:0:
64,192,98371,1,2,0:0:0:0:
320,192,98371,1,0,0:0:0:0:
448,192,98371,1,0,0:0:0:0:
192,192,98474,1,0,0:0:0:0:
64,192,98578,1,0,0:0:0:0:
448,192,98578,1,0,0:0:0:0:
320,192,98681,1,0,0:0:0:0:
64,192,98784,1,8,0:0:0:0:
192,192,98784,1,0,0:0:0:0:
448,192,98784,1,0,0:0:0:0:
320,192,98888,1,0,0:0:0:0:
192,192,98991,1,0,0:0:0:0:
448,192,98991,1,0,0:0:0:0:
64,192,99095,1,0,0:0:0:0:
192,192,99198,1,2,0:0:0:0:
320,192,99198,1,0,0:0:0:0:
448,192,99198,1,0,0:0:0:0:
64,192,99302,1,0,0:0:0:0:
192,192,99405,1,0,0:0:0:0:
448,192,99405,1,0,0:0:0:0:
320,192,99509,1,0,0:0:0:0:
64,192,99612,1,8,0:0:0:0:
192,192,99612,1,0,0:0:0:0:
448,192,99612,1,0,0:0:0:0:
320,192,99716,1,0,0:0:0:0:
192,192,99819,1,0,0:0:0:0:
448,192,99819,1,0,0:0:0:0:
64,192,99922,1,0,0:0:0:0:
192,192,100026,1,2,0:0:0:0:
320,192,100026,1,0,0:0:0:0:
448,192,100026,1,0,0:0:0:0:
64,192,100129,1,0,0:0:0:0:
192,192,100233,1,0,0:0:0:0:
448,192,100233,1,0,0:0:0:0:
320,192,100336,1,0,0:0:0:0:
64,192,100440,1,8,0:0:0:0:
192,192,100440,1,0,0:0:0:0:
448,192,100440,1,0,0:0:0:0:
320,192,100543,1,0,0:0:0:0:
64,192,100647,1,0,0:0:0:0:
448,192,100647,1,0,0:0:0:0:
192,192,100750,1,0,0:0:0:0:
320,192,100853,1,2,0:0:0:0:
448,192,100853,1,0,0:0:0:0:
64,192,100957,1,0,0:0:0:20:S.wav
192,192,101060,1,0,0:0:0:0:
320,192,101060,1,0,0:0:0:0:
64,192,101164,1,0,0:0:0:0:
320,192,101267,1,8,0:0:0:0:
448,192,101267,1,0,0:0:0:0:
64,192,101371,1,0,0:0:0:0:
320,192,101474,1,2,0:0:0:0:
448,192,101474,1,0,0:0:0:0:
192,192,101578,1,0,0:0:0:0:
64,192,101681,1,2,0:0:0:0:
320,192,101681,1,4,0:0:0:0:
448,192,101681,1,0,0:0:0:0:
64,192,101888,1,0,0:0:0:0:
192,192,101888,1,0,0:0:0:0:
320,192,101991,1,0,0:0:0:0:
64,192,102095,1,8,0:0:0:0:
192,192,102095,1,0,0:0:0:0:
448,192,102095,1,0,0:0:0:0:
320,192,102302,1,0,0:0:0:0:
448,192,102302,1,0,0:0:0:0:
192,192,102405,1,0,0:0:0:0:
64,192,102509,1,2,0:0:0:0:
320,192,102509,1,0,0:0:0:0:
448,192,102509,1,0,0:0:0:0:
64,192,102716,1,0,0:0:0:0:
320,192,102716,1,0,0:0:0:0:
192,192,102819,1,0,0:0:0:0:
64,192,102922,1,8,0:0:0:0:
320,192,102922,1,0,0:0:0:0:
448,192,102922,1,0,0:0:0:0:
64,192,103129,1,0,0:0:0:0:
192,192,103129,1,0,0:0:0:0:
192,192,103336,1,2,0:0:0:0:
320,192,103336,1,0,0:0:0:0:
448,192,103336,1,0,0:0:0:0:
448,192,103440,1,0,0:0:0:0:
64,192,103543,1,0,0:0:0:0:
320,192,103543,1,0,0:0:0:0:
192,192,103647,1,0,0:0:0:0:
64,192,103750,1,8,0:0:0:0:
448,192,103750,1,0,0:0:0:0:
320,192,103750,1,0,0:0:0:0:
192,192,103853,1,0,0:0:0:0:
320,192,103957,1,0,0:0:0:0:
192,192,104060,1,0,0:0:0:0:
64,192,104164,1,2,0:0:0:0:
448,192,104164,1,0,0:0:0:0:
320,192,104267,1,0,0:0:0:20:S.wav
64,192,104371,1,0,0:0:0:0:
192,192,104371,1,0,0:0:0:0:
448,192,104474,1,0,0:0:0:0:
64,192,104578,1,8,0:0:0:0:
192,192,104578,1,0,0:0:0:0:
320,192,104578,1,0,0:0:0:0:
320,192,104784,1,0,0:0:0:0:
448,192,104784,1,0,0:0:0:0:
64,192,104991,1,2,0:0:0:0:
192,192,104991,128,4,105405:0:0:0:0:
448,192,104991,1,0,0:0:0:0:
320,192,104991,1,0,0:0:0:0:
320,192,105405,1,8,0:0:0:0:
448,192,105405,128,0,105819:0:0:0:0:
64,192,105819,128,2,106129:0:0:0:0:
192,192,105819,1,4,0:0:0:0:
320,192,105819,1,0,0:0:0:0:
448,192,106026,1,0,0:0:0:0:
192,192,106129,1,0,0:0:0:0:
320,192,106129,1,0,0:0:0:0:
64,192,106233,1,8,0:0:0:0:
448,192,106233,1,0,0:0:0:0:
64,192,106440,1,0,0:0:0:0:
192,192,106440,128,0,106647:0:0:0:0:
64,192,106647,1,2,0:0:0:0:
320,192,106647,1,4,0:0:0:0:
448,192,106647,1,0,0:0:0:0:
192,192,106853,1,0,0:0:0:0:
448,192,106853,1,0,0:0:0:0:
320,192,106957,1,0,0:0:0:0:
64,192,107060,1,8,0:0:0:0:
448,192,107060,1,4,0:0:0:0:
64,192,107267,1,4,0:0:0:0:
192,192,107267,1,0,0:0:0:0:
320,192,107474,1,2,0:0:0:0:
448,192,107474,1,4,0:0:0:0:
64,192,107578,1,0,0:0:0:30:S.wav
192,192,107578,1,0,0:0:0:0:
320,192,107681,1,4,0:0:0:0:
448,192,107681,1,0,0:0:0:30:S.wav
64,192,107784,1,0,0:0:0:30:S.wav
192,192,107784,1,0,0:0:0:0:
320,192,107888,1,2,0:0:0:0:
448,192,107888,1,4,0:0:0:0:
64,192,107991,1,2,0:0:0:0:
192,192,107991,1,0,0:0:0:30:S.wav
320,192,108095,1,6,0:0:0:0:
448,192,108095,1,0,0:0:0:30:S.wav
192,192,108198,1,2,0:0:0:0:
64,192,108302,128,4,109543:0:0:0:0:
320,192,108302,1,2,0:0:0:0:
448,192,108302,128,0,109543:0:0:0:0:
64,192,109957,1,0,0:0:0:0:
448,192,109957,1,0,0:0:0:0:
320,192,110165,1,0,0:0:0:0:
192,192,110373,1,0,0:0:0:0:
448,192,110582,1,0,0:0:0:0:
192,192,110790,1,0,0:0:0:0:
320,192,110998,1,0,0:0:0:0:
192,192,111207,1,0,0:0:0:0:
448,192,111415,1,0,0:0:0:0:
64,192,111623,1,0,0:0:0:0:
320,192,111623,1,0,0:0:0:0:
192,192,111832,1,0,0:0:0:0:
320,192,112040,1,0,0:0:0:0:
448,192,112248,1,0,0:0:0:0:
64,192,112457,1,0,0:0:0:0:
192,192,112457,1,0,0:0:0:0:
448,192,112665,1,0,0:0:0:0:
64,192,112873,1,0,0:0:0:0:
192,192,112873,1,0,0:0:0:0:
320,192,113082,1,0,0:0:0:0:
64,192,113290,1,0,0:0:0:0:
448,192,113290,1,0,0:0:0:0:
192,192,113498,1,0,0:0:0:0:
448,192,113707,1,0,0:0:0:0:
320,192,113915,1,0,0:0:0:0:
64,192,114123,1,0,0:0:0:0:
192,192,114123,1,0,0:0:0:0:
448,192,114353,1,0,0:0:0:0:
192,192,114584,1,0,0:0:0:0:
320,192,114815,1,0,0:0:0:0:
64,192,115046,1,0,0:0:0:0:
448,192,115046,1,0,0:0:0:0:
320,192,115286,1,0,0:0:0:0:
192,192,115526,1,0,0:0:0:0:
64,192,115526,1,0,0:0:0:0:
64,192,115784,1,0,0:0:0:0:
448,192,115784,1,0,0:0:0:0:
320,192,116084,1,0,0:0:0:0:
448,192,116084,1,0,0:0:0:0:
