osu file format v14

[General]
AudioFilename: senya+-+Cinderella+Avatar.mp3
AudioLeadIn: 0
PreviewTime: 54922
Countdown: 0
SampleSet: Normal
StackLeniency: 0.7
Mode: 1
LetterboxInBreaks: 0
WidescreenStoryboard: 1

[Editor]
Bookmarks: 28853
DistanceSpacing: 0.5
BeatDivisor: 4
GridSize: 32
TimelineZoom: 2.199999

[Metadata]
Title:Cinderella Avatar
TitleUnicode:シンデレラアバター
Artist:senya
ArtistUnicode:senya
Creator:Envory
Version:Futsuu
Source:東方風神録 ~ Mountain of Faith.
Tags:yuuhei satellite th10 native moriya suwako iceon kamase-tora 幽閉サテライト ネイティブフェイス 東方風神録 Verniy_Chan FAMoss yuzu__rinrin [R] atian540 - Ly0572 - Syadow-
BeatmapID:1443862
BeatmapSetID:665542

[Difficulty]
HPDrainRate:7
CircleSize:2
OverallDifficulty:4
ApproachRate:10
SliderMultiplier:1.4
SliderTickRate:1

[Events]
//Background and Video events
0,0,"696623.jpg",0,0
//Break Periods
//Storyboard Layer 0 (Background)
//Storyboard Layer 1 (Fail)
//Storyboard Layer 2 (Pass)
//Storyboard Layer 3 (Foreground)
//Storyboard Sound Samples

[TimingPoints]
716,413.793103448276,4,1,0,50,1,0
54922,-100,4,1,0,70,0,0
55129,-100,4,1,0,70,0,0
55233,-100,4,1,0,70,0,0
55336,-100,4,1,0,80,0,1
65060,-100,4,1,0,80,0,1
65164,-100,4,1,0,80,0,1
65267,-100,4,1,0,80,0,1
65474,-100,4,1,0,80,0,1
65578,-100,4,1,0,80,0,1
65681,-100,4,1,0,80,0,1
65888,-100,4,1,0,80,0,1
65991,-100,4,1,0,80,0,1
66095,-100,4,1,0,80,0,1
67750,-100,4,1,0,70,0,0
68578,-100,4,1,0,80,0,1
78302,-100,4,1,0,80,0,1
78405,-100,4,1,0,80,0,1
78509,-100,4,1,0,80,0,1
78716,-100,4,1,0,80,0,1
78819,-100,4,1,0,80,0,1
78922,-100,4,1,0,80,0,1
79129,-100,4,1,0,80,0,1
79233,-100,4,1,0,80,0,1
79336,-100,4,1,0,80,0,1
81819,-100,4,1,0,70,0,0
95060,-100,4,1,0,70,0,1
104784,-100,4,1,0,70,0,1
104888,-100,4,1,0,70,0,1
104991,-100,4,1,0,70,0,1
105198,-100,4,1,0,70,0,1
105302,-100,4,1,0,70,0,1
105405,-100,4,1,0,70,0,1
105612,-100,4,1,0,70,0,1
105716,-100,4,1,0,70,0,1
105819,-100,4,1,0,70,0,1
108302,-100,4,1,0,70,0,0
109957,416.666666666667,4,1,0,40,1,0
109957,-100,4,1,0,70,0,0
114123,461.538461538462,4,1,0,30,1,0
114123,-117.647058823529,4,1,0,30,0,0
115046,480,4,1,0,20,1,0
115046,-125,4,1,0,20,0,0
115526,517.241379310345,4,1,0,10,1,0
115526,-135.135135135135,4,1,0,10,0,0
115784,600,4,1,0,10,1,0
115784,-133.333333333333,4,1,0,10,0,0

[HitObjects]
256,192,819,12,0,2371,0:0:0:0:
256,192,2784,5,0,0:0:0:0:
256,192,3198,5,8,0:0:0:0:
256,192,4026,1,0,0:0:0:0:
256,192,4440,1,8,0:0:0:0:
256,192,4853,1,0,0:0:0:0:
256,192,5681,1,8,0:0:0:0:
256,192,6509,1,0,0:0:0:0:
256,192,7336,1,8,0:0:0:0:
256,192,8578,1,0,0:0:0:0:
256,192,8784,1,0,0:0:0:0:
256,192,8991,1,8,0:0:0:0:
256,192,9819,1,0,0:0:0:0:
256,192,10647,1,0,0:0:0:0:
256,192,11474,1,8,0:0:0:0:
256,192,12302,1,8,0:0:0:0:
256,192,13129,1,0,0:0:0:0:
256,192,13957,1,8,0:0:0:0:
256,192,14784,12,0,15612,0:0:0:0:
256,192,16440,5,0,0:0:0:0:
256,192,16853,1,0,0:0:0:0:
256,192,17267,1,8,0:0:0:0:
256,192,17888,1,0,0:0:0:0:
256,192,18095,1,8,0:0:0:0:
256,192,18922,1,8,0:0:0:0:
256,192,19750,1,0,0:0:0:0:
256,192,20578,1,8,0:0:0:0:
256,192,21819,1,0,0:0:0:0:
256,192,22026,1,0,0:0:0:0:
256,192,22233,1,8,0:0:0:0:
256,192,23060,1,0,0:0:0:0:
256,192,23888,1,8,0:0:0:0:
256,192,24302,1,0,0:0:0:0:
256,192,24716,1,8,0:0:0:0:
256,192,25543,1,8,0:0:0:0:
256,192,26371,1,0,0:0:0:0:
256,192,27198,1,8,0:0:0:0:
256,192,27405,1,0,0:0:0:0:
256,192,27612,1,8,0:0:0:0:
256,192,28026,1,0,0:0:0:0:
256,192,28440,1,0,0:0:0:0:
256,192,28853,1,8,0:0:0:0:
256,192,29681,5,8,0:0:0:0:
256,192,30095,1,0,0:0:0:0:
256,192,30509,1,8,0:0:0:0:
256,192,31336,1,0,0:0:0:0:
256,192,31750,1,0,0:0:0:0:
256,192,32164,1,8,0:0:0:0:
256,192,32991,1,0,0:0:0:0:
256,192,33819,1,0,0:0:0:0:
256,192,34647,1,0,0:0:0:0:
256,192,35060,1,0,0:0:0:0:
256,192,35267,1,0,0:0:0:0:
256,192,35474,1,8,0:0:0:0:
256,192,36302,1,0,0:0:0:0:
256,192,37129,1,8,0:0:0:0:
256,192,37957,1,0,0:0:0:0:
256,192,38784,1,8,0:0:0:0:
256,192,39612,1,0,0:0:0:0:
256,192,40026,1,8,0:0:0:0:
256,192,40440,1,8,0:0:0:0:
256,192,41267,1,0,0:0:0:0:
256,192,41681,1,0,0:0:0:0:
256,192,42095,1,8,0:0:0:0:
256,192,42922,1,8,0:0:0:0:
256,192,43336,1,0,0:0:0:0:
256,192,43750,1,8,0:0:0:0:
256,192,44578,1,8,0:0:0:0:
256,192,45405,1,0,0:0:0:0:
256,192,46233,1,0,0:0:0:0:
256,192,46647,1,0,0:0:0:0:
256,192,47060,1,8,0:0:0:0:
256,192,48302,1,8,0:0:0:0:
256,192,48716,1,8,0:0:0:0:
256,192,49543,1,0,0:0:0:0:
256,192,50371,1,8,0:0:0:0:
256,192,51198,1,0,0:0:0:0:
256,192,52026,1,8,0:0:0:0:
256,192,52440,1,0,0:0:0:0:
256,192,52853,5,8,0:0:0:0:
256,192,53267,1,0,0:0:0:0:
256,192,53474,1,0,0:0:0:0:
256,192,53681,5,8,0:0:0:0:
256,192,54095,1,8,0:0:0:0:
256,192,54509,1,0,0:0:0:0:
256,192,54716,1,0,0:0:0:0:
256,192,55336,1,8,0:0:0:0:
256,192,55750,1,0,0:0:0:0:
256,192,56164,1,8,0:0:0:0:
256,192,56991,1,0,0:0:0:0:
256,192,57405,1,0,0:0:0:0:
256,192,57819,1,8,0:0:0:0:
256,192,58233,1,0,0:0:0:0:
256,192,58440,1,0,0:0:0:0:
256,192,58647,1,8,0:0:0:0:
256,192,59060,1,0,0:0:0:0:
256,192,59474,1,8,0:0:0:0:
256,192,59888,1,0,0:0:0:0:
256,192,60302,1,8,0:0:0:0:
256,192,60716,1,0,0:0:0:0:
256,192,61543,1,0,0:0:0:0:
256,192,61750,1,0,0:0:0:0:
256,192,61957,1,8,0:0:0:0:
256,192,62371,1,8,0:0:0:0:
256,192,62784,1,0,0:0:0:0:
256,192,63198,1,8,0:0:0:0:
256,192,63612,1,0,0:0:0:0:
256,192,64026,1,8,0:0:0:0:
256,192,64440,1,0,0:0:0:0:
256,192,64853,1,8,0:0:0:0:
256,192,65060,1,0,0:0:0:0:
256,192,65267,1,8,0:0:0:0:
256,192,65681,1,0,0:0:0:0:
256,192,66095,1,8,0:0:0:0:
256,192,66509,1,0,0:0:0:0:
256,192,66922,1,8,0:0:0:0:
256,192,67750,12,0,68578,0:0:0:0:
256,192,68991,5,0,0:0:0:0:
256,192,69405,5,8,0:0:0:0:
256,192,70233,1,0,0:0:0:0:
256,192,70647,1,8,0:0:0:0:
256,192,71060,1,8,0:0:0:0:
256,192,71474,1,8,0:0:0:0:
256,192,71681,1,0,0:0:0:0:
256,192,71888,1,8,0:0:0:0:
256,192,72716,1,8,0:0:0:0:
256,192,73129,1,0,0:0:0:0:
256,192,73543,1,8,0:0:0:0:
256,192,73957,1,0,0:0:0:0:
256,192,74371,1,0,0:0:0:0:
256,192,74784,1,0,0:0:0:0:
256,192,74991,1,0,0:0:0:0:
256,192,75198,1,8,0:0:0:0:
256,192,75612,1,8,0:0:0:0:
256,192,76026,1,0,0:0:0:0:
256,192,76440,1,8,0:0:0:0:
256,192,76853,1,0,0:0:0:0:
256,192,77267,1,8,0:0:0:0:
256,192,77681,1,0,0:0:0:0:
256,192,78095,1,8,0:0:0:0:
256,192,78302,1,0,0:0:0:0:
256,192,78509,1,8,0:0:0:0:
256,192,78922,1,0,0:0:0:0:
256,192,79336,1,8,0:0:0:0:
256,192,79750,1,0,0:0:0:0:
256,192,79957,1,0,0:0:0:0:
256,192,80164,1,8,0:0:0:0:
256,192,80578,1,0,0:0:0:0:
256,192,80991,12,0,81819,0:0:0:0:
256,192,82233,5,8,0:0:0:0:
256,192,82647,1,0,0:0:0:0:
288,192,83060,1,8,0:0:0:0:
288,192,83474,1,0,0:0:0:0:
288,192,84095,1,0,0:0:0:0:
288,192,84302,1,8,0:0:0:0:
288,192,84716,1,0,0:0:0:0:
288,192,85129,1,8,0:0:0:0:
288,192,85957,1,0,0:0:0:0:
288,192,86784,1,8,0:0:0:0:
288,192,87612,1,0,0:0:0:0:
288,192,88026,1,0,0:0:0:0:
288,192,88233,1,0,0:0:0:0:
288,192,88440,1,8,0:0:0:0:
288,192,89267,1,0,0:0:0:0:
288,192,89681,1,8,0:0:0:0:
288,192,90095,1,0,0:0:0:0:
288,192,90509,1,8,0:0:0:0:
288,192,90922,1,0,0:0:0:0:
160,192,91750,1,8,0:0:0:0:
288,192,92578,1,0,0:0:0:0:
160,192,93405,1,8,0:0:0:0:
288,192,93612,1,0,0:0:0:0:
288,192,93819,1,8,0:0:0:0:
256,192,94233,12,0,95060,0:0:0:0:
256,192,95474,5,0,0:0:0:0:
256,192,95888,1,8,0:0:0:0:
288,192,96716,1,0,0:0:0:0:
288,192,97129,1,0,0:0:0:0:
288,192,97543,1,8,0:0:0:0:
288,192,97957,1,8,0:0:0:0:
288,192,98164,1,0,0:0:0:0:
288,192,98371,1,8,0:0:0:0:
288,192,98784,1,0,0:0:0:0:
288,192,99198,1,8,0:0:0:0:
288,192,100026,1,8,0:0:0:0:
288,192,100853,1,0,0:0:0:0:
192,192,101267,1,0,0:0:0:0:
192,192,101474,1,0,0:0:0:0:
192,192,101681,1,8,0:0:0:0:
320,224,102509,1,0,0:0:0:0:
224,128,103336,1,0,0:0:0:0:
320,224,104164,1,0,0:0:0:0:
256,192,104578,1,0,0:0:0:0:
192,160,104991,1,8,0:0:0:0:
256,192,105405,1,0,0:0:0:0:
320,224,105819,1,8,0:0:0:0:
256,224,106233,1,0,0:0:0:0:
192,160,106647,1,8,0:0:0:0:
256,192,106853,1,0,0:0:0:0:
256,192,107060,1,0,0:0:0:0:
256,192,107474,12,0,108302,0:0:0:0:
256,192,109957,5,8,0:0:0:0:
256,192,110790,1,0,0:0:0:0:
256,192,111207,1,8,0:0:0:0:
256,192,111623,1,0,0:0:0:0:
256,192,112040,1,0,0:0:0:0:
256,192,112457,1,8,0:0:0:0:
256,192,112873,1,0,0:0:0:0:
256,192,113290,1,8,0:0:0:0:
256,192,114123,1,0,0:0:0:0:
256,192,115046,1,8,0:0:0:0:
256,192,115526,1,0,0:0:0:0:
256,192,116084,1,8,0:0:0:0:
