osu file format v13

[General]
AudioFilename: 1 Native Faith.mp3
AudioLeadIn: 0
PreviewTime: 54618
Countdown: 0
SampleSet: Soft
StackLeniency: 0.7
Mode: 0
LetterboxInBreaks: 1
WidescreenStoryboard: 1

[Editor]
Bookmarks: 28660,147829
DistanceSpacing: 1.2
BeatDivisor: 4
GridSize: 4
TimelineZoom: 0.98

[Metadata]
Title:Cinderella Avatar
TitleUnicode:シンデレラアバター
Artist:senya
ArtistUnicode:senya
Creator:-Mo-
Version:Lunatic
Source:Touhou
Tags:Yuuhei Satellite TH10 Mountain of Faith Native Moriya Suwako Iceon Kamase-tora 幽閉サテライト ネイティブフェイス 東方風神録
BeatmapID:518936
BeatmapSetID:207487

[Difficulty]
HPDrainRate:7
CircleSize:4.5
OverallDifficulty:7
ApproachRate:8.5
SliderMultiplier:1.5
SliderTickRate:1

[Events]
//Background and Video events
0,0,"CA-BG.png",0,0
//Break Periods
2,15627,27977
2,134783,147150
2,162725,168667
2,204301,210046
//Storyboard Layer 0 (Background)
//Storyboard Layer 1 (Fail)
//Storyboard Layer 2 (Pass)
//Storyboard Layer 3 (Foreground)
//Storyboard Sound Samples

[TimingPoints]
515,413.793103448276,4,2,1,65,1,0
2170,-83.3333333333333,4,2,1,80,0,1
15411,-100,4,2,1,65,0,0
55135,-83.3333333333333,4,2,1,80,0,1
67549,-83.3333333333333,4,2,1,80,0,0
68377,-83.3333333333333,4,2,1,80,0,1
81618,-100,4,2,1,65,0,0
108101,-83.3333333333333,4,2,1,80,0,1
120515,-83.3333333333333,4,2,1,80,0,0
121342,-83.3333333333333,4,2,1,80,0,1
134583,-100,4,2,1,65,0,0
169342,-100,4,2,1,40,0,0
175963,-100,4,2,1,65,0,0
177618,-83.3333333333333,4,2,1,80,0,1
190032,-83.3333333333333,4,2,1,80,0,0
190859,-83.3333333333333,4,2,1,80,0,1
204101,-83.3333333333333,4,2,1,80,0,0
217342,-83.3333333333333,4,2,1,80,0,0
230583,-100,4,2,1,65,0,0

[Colours]
Combo1 : 130,9,155
Combo2 : 3,35,143
Combo3 : 23,145,6
Combo4 : 228,120,1

[HitObjects]
388,72,2170,6,0,P|352:120|224:92,1,179.999994506836,4|8,0:0|0:0,0:0:0:0:
156,88,2790,1,0,0:0:0:0:
176,176,2997,1,4,0:0:0:0:
144,260,3204,1,0,0:0:0:0:
144,260,3308,1,0,0:0:0:0:
144,260,3411,2,0,B|147:295|119:318|119:318|103:355,2,89.9999972534181,8|0|4,0:0|0:0|0:0,0:0:0:0:
256,192,4032,5,0,0:0:0:0:
336,116,4239,2,0,B|340:80|372:64|372:64|396:32,2,89.9999972534181,4|0|4,0:0|0:0|0:0,0:0:0:0:
420,148,4859,1,0,0:0:0:0:
420,148,4963,1,0,0:0:0:0:
420,148,5066,1,8,0:0:0:0:
350,205,5273,1,0,0:0:0:0:
316,288,5480,6,0,B|332:328|332:328|385:331,1,89.9999972534181,4|0,0:0|0:0,0:0:0:0:
493,284,5894,2,0,B|479:243|479:243|423:240,1,89.9999972534181,8|0,0:0|0:0,0:0:0:0:
350,204,6308,2,0,B|307:175|305:141|305:141|270:136|270:136|227:106,2,134.999995880127,4|0|0,0:0|0:0|0:0,0:0:0:0:
392,124,7135,5,4,0:0:0:0:
320,72,7342,1,0,0:0:0:0:
320,72,7446,1,0,0:0:0:0:
320,72,7549,2,0,B|291:65|285:30|285:30|255:25|239:5,2,89.9999972534181,12|0|4,0:0|0:0|0:0,0:0:0:0:
392,124,8170,1,0,0:0:0:0:
267,254,8377,1,0,0:0:0:0:
214,83,8583,1,0,0:0:0:0:
135,176,8790,6,0,B|132:156|132:156|112:127|112:127|135:102|128:52,2,134.999995880127,4|0|0,0:0|0:0|0:0,0:0:0:0:
176,180,9515,1,0,0:0:0:0:
220,184,9618,2,0,B|209:233|179:249|179:249|188:283|188:283|177:334,2,134.999995880127,4|0|0,0:0|0:0|0:0,0:0:0:0:
344,248,10446,6,0,B|334:230|334:230|305:209|305:209|318:178|294:133,2,134.999995880127,4|0|0,0:0|0:0|0:0,0:0:0:0:
380,164,11273,1,4,0:0:0:0:
136,48,11583,1,0,0:0:0:0:
158,317,11894,1,0,0:0:0:0:
244,284,12101,5,4,0:0:0:0:
276,200,12308,1,0,0:0:0:0:
264,111,12515,2,0,P|278:70|313:43,1,89.9999972534181,12|0,0:0|0:0,0:0:0:0:
384,152,12928,2,0,P|374:178|286:242,1,134.999995880127,4|0,0:0|0:0,0:0:0:0:
248,254,13342,1,12,0:0:0:0:
180,196,13549,1,0,0:0:0:0:
148,112,13756,5,4,0:0:0:0:
272,60,13963,1,0,0:0:0:0:
272,60,14066,1,0,0:0:0:0:
272,60,14170,1,12,0:0:0:0:
384,140,14377,1,0,0:0:0:0:
389,171,14480,1,0,0:0:0:0:
390,202,14583,1,4,0:0:0:0:
386,233,14687,1,0,0:0:0:0:
374,263,14790,1,0,0:0:0:0:
355,287,14894,1,0,0:0:0:0:
328,303,14997,1,12,0:0:0:0:
297,309,15101,1,0,0:0:0:0:
265,307,15204,1,4,0:0:0:0:
235,301,15308,1,0,0:0:0:0:
205,290,15411,1,4,0:0:0:0:
152,152,28652,6,0,P|164:216|196:256,1,112.5,6|0,0:0|0:0,0:0:0:0:
192,252,29066,1,0,0:0:0:0:
256,292,29273,1,0,0:0:0:0:
324,260,29480,2,0,L|376:172,1,75,2|0,0:0|0:0,0:0:0:0:
424,236,29894,2,0,L|440:128,1,75,0|0,0:0|0:0,0:0:0:0:
512,96,30308,6,0,P|428:64|376:72,1,112.5,2|0,0:0|0:0,0:0:0:0:
407,64,30721,1,0,0:0:0:0:
332,80,30928,1,0,0:0:0:0:
264,112,31135,2,0,B|224:132|188:100|188:100|168:140,2,112.5,2|0|0,0:0|0:0|0:0,0:0:0:0:
368,164,31963,6,0,P|424:208|448:248,1,112.5,2|0,0:0|0:0,0:0:0:0:
445,242,32377,1,0,0:0:0:0:
405,306,32583,1,0,0:0:0:0:
300,256,32790,2,0,P|229:264|184:253,1,112.5,2|0,0:0|0:0,0:0:0:0:
189,255,33204,1,0,0:0:0:0:
150,192,33411,1,0,0:0:0:0:
212,80,33618,6,0,L|264:16,1,75,2|0,0:0|0:0,0:0:0:0:
259,22,33928,1,0,0:0:0:0:
259,22,34032,1,8,0:0:0:0:
332,20,34239,1,0,0:0:0:0:
388,116,34446,2,0,L|416:192,1,75,2|0,0:0|0:0,0:0:0:0:
413,186,34756,1,0,0:0:0:0:
413,186,34859,1,8,0:0:0:0:
412,260,35066,1,0,0:0:0:0:
283,311,35273,6,0,B|248:341|218:333|218:333|203:366|170:382,2,112.5,2|0|0,0:0|0:0|0:0,0:0:0:0:
359,172,36101,1,2,0:0:0:0:
370,269,36308,1,0,0:0:0:0:
216,238,36515,1,8,0:0:0:0:
263,153,36721,1,0,0:0:0:0:
164,101,36928,6,0,B|118:95|104:67|104:67|69:78|35:64,2,112.5,2|0|0,0:0|0:0|0:0,0:0:0:0:
259,41,37756,1,2,0:0:0:0:
263,153,37963,1,0,0:0:0:0:
358,93,38170,1,8,0:0:0:0:
362,205,38377,1,0,0:0:0:0:
457,145,38583,5,2,0:0:0:0:
460,32,38790,1,0,0:0:0:0:
460,32,38894,1,0,0:0:0:0:
460,32,38997,2,0,P|428:36|384:24,1,75,8|0,0:0|0:0,0:0:0:0:
280,56,39411,2,0,B|240:76|208:52|208:52|168:72,2,112.5,2|0|0,0:0|0:0|0:0,0:0:0:0:
380,112,40239,5,6,0:0:0:0:
484,220,40446,1,0,0:0:0:0:
484,220,40549,1,0,0:0:0:0:
484,220,40652,1,8,0:0:0:0:
396,288,40859,1,0,0:0:0:0:
316,228,41066,6,0,L|276:256,1,37.5,4|0,0:0|0:0,0:0:0:0:
308,320,41273,2,0,L|268:348,1,37.5,0|4,0:0|0:0,0:0:0:0:
220,292,41480,2,0,L|171:296,1,37.5,8|0,0:0|0:0,0:0:0:0:
167,367,41687,2,0,L|118:371,1,37.5,0|0,0:0|0:0,0:0:0:0:
113,225,41894,6,0,P|125:171|115:116,1,112.5,6|0,0:0|0:0,0:0:0:0:
116,116,42308,1,0,0:0:0:0:
128,40,42515,1,0,0:0:0:0:
200,64,42721,2,0,B|224:92|224:92|228:140,1,75,2|0,0:0|0:0,0:0:0:0:
296,160,43135,2,0,B|300:196|300:196|278:238,1,75,8|0,0:0|0:0,0:0:0:0:
144,286,43549,6,0,B|198:343|198:343|232:340,1,112.5,2|0,0:0|0:0,0:0:0:0:
232,340,43963,1,0,0:0:0:0:
308,348,44170,1,0,0:0:0:0:
372,312,44377,2,0,B|401:304|413:280|413:280|441:276|457:244,2,112.5,2|0|0,0:0|0:0|0:0,0:0:0:0:
221,241,45204,6,0,P|166:239|120:208,1,112.5,2|0,0:0|0:0,0:0:0:0:
120,208,45618,1,8,0:0:0:0:
104,136,45825,1,0,0:0:0:0:
255,151,46032,2,0,P|266:96|304:56,1,112.5,2|0,0:0|0:0,0:0:0:0:
304,56,46446,1,8,0:0:0:0:
378,52,46652,1,0,0:0:0:0:
448,80,46859,6,0,L|428:164,1,75,2|0,0:0|0:0,0:0:0:0:
400,224,47273,1,8,0:0:0:0:
376,252,47377,1,0,0:0:0:0:
348,276,47480,1,0,0:0:0:0:
324,372,47687,2,0,L|224:332,1,75,2|0,0:0|0:0,0:0:0:0:
188,308,48101,1,8,0:0:0:0:
164,280,48204,1,0,0:0:0:0:
148,244,48308,1,0,0:0:0:0:
96,144,48515,6,0,P|80:88|84:32,2,112.5,2|0|0,0:0|0:0|0:0,0:0:0:0:
168,156,49342,2,0,B|206:158|206:158|232:188,1,75,2|0,0:0|0:0,0:0:0:0:
168,280,49756,2,0,B|192:307|192:307|230:309,1,75,8|0,0:0|0:0,0:0:0:0:
364,300,50170,6,0,B|384:328|384:328|436:308|480:332,2,112.5,2|0|0,0:0|0:0|0:0,0:0:0:0:
296,208,50997,1,2,0:0:0:0:
405,183,51204,1,0,0:0:0:0:
331,100,51411,1,8,0:0:0:0:
222,125,51618,1,0,0:0:0:0:
76,152,51825,6,0,L|64:216,1,37.5,6|0,0:0|0:0,0:0:0:0:
140,208,52032,2,0,L|144:252,1,37.5
88,296,52239,1,8,0:0:0:0:
102,317,52342,1,0,0:0:0:0:
120,335,52446,1,0,0:0:0:0:
144,347,52549,1,0,0:0:0:0:
212,376,52652,6,0,L|276:388,1,37.5,6|0,0:0|0:0,0:0:0:0:
264,308,52859,2,0,L|308:304,1,37.5
357,355,53066,1,8,0:0:0:0:
378,339,53170,1,0,0:0:0:0:
396,321,53273,1,0,0:0:0:0:
413,300,53377,1,0,0:0:0:0:
424,276,53480,5,6,0:0:0:0:
434,252,53583,1,0,0:0:0:0:
439,226,53687,1,0,0:0:0:0:
430,201,53790,1,0,0:0:0:0:
411,184,53894,1,12,0:0:0:0:
387,173,53997,1,0,0:0:0:0:
364,166,54101,1,0,0:0:0:0:
340,164,54204,1,0,0:0:0:0:
312,165,54308,1,4,0:0:0:0:
288,155,54411,1,0,0:0:0:0:
271,135,54515,1,0,0:0:0:0:
262,111,54618,1,0,0:0:0:0:
259,84,54721,1,0,0:0:0:0:
64,204,55135,6,0,P|128:268|219:302,1,179.999994506836,4|8,0:0|0:0,0:0:0:0:
294,268,55756,1,0,0:0:0:0:
224,212,55963,1,4,0:0:0:0:
160,148,56170,1,0,0:0:0:0:
160,148,56273,1,0,0:0:0:0:
160,148,56377,2,0,B|124:126|85:143|85:143|63:109,2,89.9999972534181,8|0|4,0:0|0:0|0:0,0:0:0:0:
256,92,56997,5,0,0:0:0:0:
360,56,57204,2,0,B|400:48|432:76|432:76|464:52,2,89.9999972534181,12|0|4,0:0|0:0|0:0,0:0:0:0:
372,144,57825,1,0,0:0:0:0:
372,144,57928,1,0,0:0:0:0:
372,144,58032,1,8,0:0:0:0:
360,232,58239,1,0,0:0:0:0:
312,308,58446,6,0,P|260:340|212:332,1,89.9999972534181,4|0,0:0|0:0,0:0:0:0:
116,200,58859,2,0,P|168:168|216:176,1,89.9999972534181,8|0,0:0|0:0,0:0:0:0:
328,188,59273,2,0,B|280:200|264:248|264:248|200:260,2,134.999995880127,4|0|0,0:0|0:0|0:0,0:0:0:0:
352,276,60101,5,4,0:0:0:0:
416,212,60308,1,0,0:0:0:0:
416,212,60411,1,0,0:0:0:0:
416,212,60515,2,0,B|434:175|476:167|476:167|476:127,2,89.9999972534181,12|0|4,0:0|0:0|0:0,0:0:0:0:
352,276,61135,1,0,0:0:0:0:
408,104,61342,1,8,0:0:0:0:
231,141,61549,1,0,0:0:0:0:
188,228,61756,6,0,B|162:270|185:315|185:315|160:350,2,134.999995880127,4|0|0,0:0|0:0|0:0,0:0:0:0:
216,196,62480,1,0,0:0:0:0:
236,164,62583,2,0,B|212:120|162:117|162:117|144:78,2,134.999995880127,4|0|0,0:0|0:0|0:0,0:0:0:0:
316,256,63411,6,0,B|365:257|392:215|392:215|435:219,2,134.999995880127,4|0|0,0:0|0:0|0:0,0:0:0:0:
292,96,64239,1,4,0:0:0:0:
40,194,64549,1,0,0:0:0:0:
250,363,64859,1,0,0:0:0:0:
316,256,65066,5,4,0:0:0:0:
228,245,65273,1,0,0:0:0:0:
140,224,65480,2,0,P|103:194|50:184,1,89.9999972534181,12|0,0:0|0:0,0:0:0:0:
126,315,65894,2,0,P|190:299|228:244,1,134.999995880127,4|0,0:0|0:0,0:0:0:0:
248,204,66308,1,12,0:0:0:0:
176,148,66515,1,0,0:0:0:0:
108,92,66721,5,4,0:0:0:0:
224,24,66928,1,0,0:0:0:0:
224,24,67032,1,0,0:0:0:0:
224,24,67135,1,12,0:0:0:0:
356,52,67342,1,0,0:0:0:0:
363,82,67446,1,0,0:0:0:0:
377,111,67549,1,4,0:0:0:0:
396,135,67652,1,0,0:0:0:0:
423,151,67756,1,0,0:0:0:0:
454,159,67859,1,0,0:0:0:0:
435,172,67963,1,12,0:0:0:0:
415,196,68066,1,0,0:0:0:0:
406,226,68170,1,4,0:0:0:0:
406,258,68273,1,0,0:0:0:0:
410,289,68377,6,0,P|400:344|284:344,1,179.999994506836,4|8,0:0|0:0,0:0:0:0:
224,296,68997,1,0,0:0:0:0:
168,224,69204,1,4,0:0:0:0:
168,88,69411,1,0,0:0:0:0:
168,88,69515,1,0,0:0:0:0:
168,88,69618,2,8,B|159:62|159:62|114:62|97:11,2,89.9999972534181,8|0|4,0:0|0:0|0:0,0:0:0:0:
320,120,70239,5,0,0:0:0:0:
412,244,70446,2,0,B|420:269|420:269|465:269|482:320,2,89.9999972534181,12|0|4,0:0|0:0|0:0,0:0:0:0:
336,296,71066,1,0,0:0:0:0:
336,296,71170,1,0,0:0:0:0:
336,296,71273,1,8,0:0:0:0:
252,324,71480,1,0,0:0:0:0:
128,184,71687,6,0,B|99:148|99:148|54:146,1,89.9999972534181,4|0,0:0|0:0,0:0:0:0:
222,6,72101,2,0,B|224:51|224:51|260:80,1,89.9999972534181,8|0,0:0|0:0,0:0:0:0:
272,216,72515,2,0,B|248:176|212:176|212:176|208:136|172:112,2,134.999995880127,4|0|0,0:0|0:0|0:0,0:0:0:0:
172,308,73342,5,4,0:0:0:0:
116,240,73549,1,0,0:0:0:0:
116,240,73652,1,0,0:0:0:0:
116,240,73756,2,0,B|97:221|97:221|57:242|18:205,2,89.9999972534181,12|0|4,0:0|0:0|0:0,0:0:0:0:
204,224,74377,1,0,0:0:0:0:
303,73,74583,1,8,0:0:0:0:
385,234,74790,1,0,0:0:0:0:
263,174,74997,6,0,B|260:128|227:112|227:112|242:75|229:55,2,134.999995880127,4|0|0,0:0|0:0|0:0,0:0:0:0:
228,196,75721,1,0,0:0:0:0:
188,208,75825,2,0,B|141:211|125:244|125:244|88:229|68:242,2,134.999995880127,4|0|0,0:0|0:0|0:0,0:0:0:0:
168,356,76652,6,0,B|215:364|239:336|239:336|271:360|313:350,2,134.999995880127,4|0|0,0:0|0:0|0:0,0:0:0:0:
284,284,77480,1,4,0:0:0:0:
89,95,77790,1,0,0:0:0:0:
345,20,78101,1,0,0:0:0:0:
393,148,78308,5,4,0:0:0:0:
312,188,78515,1,0,0:0:0:0:
232,318,78721,2,0,P|190:332|147:321,1,89.9999972534181,12|0,0:0|0:0,0:0:0:0:
33,210,79135,2,0,P|94:186|157:207,1,134.999995880127,4|0,0:0|0:0,0:0:0:0:
188,240,79549,1,12,0:0:0:0:
188,144,79756,1,0,0:0:0:0:
312,188,79963,5,4,0:0:0:0:
368,64,80170,1,0,0:0:0:0:
368,64,80273,1,0,0:0:0:0:
368,64,80377,1,12,0:0:0:0:
447,175,80583,1,0,0:0:0:0:
424,197,80687,1,0,0:0:0:0:
406,223,80790,1,4,0:0:0:0:
393,251,80894,1,0,0:0:0:0:
384,281,80997,1,0,0:0:0:0:
379,312,81101,1,0,0:0:0:0:
353,300,81204,1,12,0:0:0:0:
322,292,81308,1,0,0:0:0:0:
291,291,81411,1,4,0:0:0:0:
260,296,81515,1,0,0:0:0:0:
230,304,81618,6,0,P|168:304|132:272,1,112.5,6|0,0:0|0:0,0:0:0:0:
132,272,82032,1,0,0:0:0:0:
156,200,82239,1,0,0:0:0:0:
184,132,82446,2,0,L|264:112,1,75,2|0,0:0|0:0,0:0:0:0:
280,184,82859,2,0,L|356:184,1,75,0|0,0:0|0:0,0:0:0:0:
444,241,83273,6,0,P|456:187|448:132,1,112.5,2|0,0:0|0:0,0:0:0:0:
448,132,83687,1,0,0:0:0:0:
400,76,83894,1,0,0:0:0:0:
328,56,84101,2,0,B|283:63|244:92|244:92|224:48,2,112.5,2|0|0,0:0|0:0|0:0,0:0:0:0:
448,132,84928,6,0,B|420:184|420:184|424:188|424:188|392:236,1,112.5,2|0,0:0|0:0,0:0:0:0:
397,227,85342,1,0,0:0:0:0:
340,276,85549,1,0,0:0:0:0:
328,168,85756,2,0,B|274:193|274:193|275:199|275:199|221:219,1,112.5,2|0,0:0|0:0,0:0:0:0:
231,215,86170,1,0,0:0:0:0:
156,216,86377,1,0,0:0:0:0:
92,112,86583,6,0,P|120:72|152:56,1,75,2|0,0:0|0:0,0:0:0:0:
142,59,86894,1,0,0:0:0:0:
142,59,86997,1,8,0:0:0:0:
216,40,87204,1,0,0:0:0:0:
328,44,87411,2,0,P|368:72|384:104,1,75,2|0,0:0|0:0,0:0:0:0:
381,94,87721,1,0,0:0:0:0:
381,94,87825,1,8,0:0:0:0:
400,167,88032,1,0,0:0:0:0:
408,280,88239,6,0,P|440:348|472:376,2,112.5,2|0|0,0:0|0:0|0:0,0:0:0:0:
400,167,89066,1,2,0:0:0:0:
301,320,89273,1,0,0:0:0:0:
292,137,89480,1,8,0:0:0:0:
230,232,89687,1,0,0:0:0:0:
179,131,89894,6,0,P|108:105|65:108,2,112.5,2|0|0,0:0|0:0|0:0,0:0:0:0:
230,232,90721,1,2,0:0:0:0:
343,238,90928,1,0,0:0:0:0:
292,137,91135,1,8,0:0:0:0:
230,232,91342,1,0,0:0:0:0:
176,332,91549,5,2,0:0:0:0:
288,340,91756,1,0,0:0:0:0:
288,340,91859,1,0,0:0:0:0:
288,340,91963,2,0,P|344:312|356:300,1,75,8|0,0:0|0:0,0:0:0:0:
432,224,92377,2,0,B|466:195|486:150|486:150|526:178,2,112.5,2|0|0,0:0|0:0|0:0,0:0:0:0:
320,216,93204,5,2,0:0:0:0:
172,184,93411,1,0,0:0:0:0:
172,184,93515,1,0,0:0:0:0:
172,184,93618,1,8,0:0:0:0:
128,80,93825,1,0,0:0:0:0:
204,72,94032,6,0,L|248:52,1,37.5,2|0,0:0|0:0,0:0:0:0:
260,128,94239,2,0,L|304:160,1,37.5
356,112,94446,2,0,L|403:122,1,37.5,8|0,0:0|0:0,0:0:0:0:
366,189,94652,2,0,L|381:241,1,37.5
382,300,94859,6,0,P|308:343|260:352,1,112.5,2|0,0:0|0:0,0:0:0:0:
282,349,95273,1,0,0:0:0:0:
212,320,95480,1,0,0:0:0:0:
148,280,95687,2,0,L|112:200,1,75,2|0,0:0|0:0,0:0:0:0:
192,200,96101,2,0,L|212:124,1,75,8|0,0:0|0:0,0:0:0:0:
299,43,96515,6,0,P|354:51|403:78,1,112.5,2|0,0:0|0:0,0:0:0:0:
403,79,96928,1,0,0:0:0:0:
424,152,97135,1,0,0:0:0:0:
432,228,97342,2,0,B|439:257|464:269|464:269|468:297|500:312,2,112.5,2|0|0,0:0|0:0|0:0,0:0:0:0:
290,151,98170,6,0,B|259:144|244:116|244:116|192:112,1,112.5,2|0,0:0|0:0,0:0:0:0:
192,112,98583,1,8,0:0:0:0:
132,156,98790,1,0,0:0:0:0:
156,228,98997,2,0,B|126:239|97:225|97:225|53:252,1,112.5,2|0,0:0|0:0,0:0:0:0:
53,253,99411,1,8,0:0:0:0:
88,320,99618,1,0,0:0:0:0:
160,340,99825,6,0,P|208:356|252:348,1,75,2|0,0:0|0:0,0:0:0:0:
304,336,100239,1,8,0:0:0:0:
336,316,100342,1,0,0:0:0:0:
360,288,100446,1,0,0:0:0:0:
464,220,100652,2,0,P|442:173|407:147,1,75,2|0,0:0|0:0,0:0:0:0:
362,117,101066,1,8,0:0:0:0:
326,107,101170,1,0,0:0:0:0:
289,109,101273,1,0,0:0:0:0:
184,152,101480,6,0,B|141:164|104:197|104:197|79:155,2,112.5,2|0|0,0:0|0:0|0:0,0:0:0:0:
240,52,102308,2,0,B|280:48|280:48|316:16,1,75,2|0,0:0|0:0,0:0:0:0:
328,136,102721,2,0,B|368:140|368:140|404:172,1,75,8|0,0:0|0:0,0:0:0:0:
408,276,103135,6,0,B|429:315|469:344|469:344|433:377,2,112.5,2|0|0,0:0|0:0|0:0,0:0:0:0:
320,204,103963,1,2,0:0:0:0:
232,133,104170,1,0,0:0:0:0:
214,244,104377,1,8,0:0:0:0:
126,173,104583,1,0,0:0:0:0:
128,48,104790,6,0,L|168:14,1,37.5,6|0,0:0|0:0,0:0:0:0:
196,88,104997,2,0,L|232:104,1,37.5
256,32,105204,1,8,0:0:0:0:
281,26,105308,1,0,0:0:0:0:
307,25,105411,1,0,0:0:0:0:
333,28,105515,1,0,0:0:0:0:
408,32,105618,6,0,L|444:70,1,37.5,6|0,0:0|0:0,0:0:0:0:
364,85,105825,2,0,L|349:121,1,37.5
416,152,106032,1,8,0:0:0:0:
421,177,106135,1,0,0:0:0:0:
427,201,106239,1,0,0:0:0:0:
434,226,106342,1,0,0:0:0:0:
439,253,106446,5,4,0:0:0:0:
441,279,106549,1,0,0:0:0:0:
439,305,106652,1,0,0:0:0:0:
434,331,106756,1,0,0:0:0:0:
426,355,106859,1,12,0:0:0:0:
407,366,106963,1,0,0:0:0:0:
382,358,107066,1,0,0:0:0:0:
361,342,107170,1,0,0:0:0:0:
344,323,107273,1,4,0:0:0:0:
328,302,107377,1,0,0:0:0:0:
310,283,107480,1,0,0:0:0:0:
288,268,107583,1,0,0:0:0:0:
264,258,107687,1,0,0:0:0:0:
56,140,108101,6,0,P|36:276|84:308,1,179.999994506836,4|8,0:0|0:0,0:0:0:0:
152,272,108721,1,0,0:0:0:0:
240,264,108928,1,4,0:0:0:0:
328,268,109135,1,0,0:0:0:0:
328,268,109239,1,0,0:0:0:0:
328,268,109342,2,0,B|360:292|400:280|400:280|424:312,2,89.9999972534181,8|0|4,0:0|0:0|0:0,0:0:0:0:
328,120,109963,5,0,0:0:0:0:
188,72,110170,2,0,B|156:48|116:60|116:60|92:28,2,89.9999972534181,12|0|4,0:0|0:0|0:0,0:0:0:0:
140,148,110790,1,0,0:0:0:0:
140,148,110894,1,0,0:0:0:0:
140,148,110997,1,8,0:0:0:0:
152,236,111204,1,0,0:0:0:0:
260,332,111411,6,0,B|296:300|296:300|318:253,1,89.9999972534181,4|0,0:0|0:0,0:0:0:0:
305,110,111825,2,0,B|268:141|268:141|246:188,1,89.9999972534181,8|0,0:0|0:0,0:0:0:0:
384,144,112239,2,0,B|408:102|408:102|444:95|444:95|472:47,2,134.999995880127,4|0|0,0:0|0:0|0:0,0:0:0:0:
468,180,113066,5,4,0:0:0:0:
396,232,113273,1,0,0:0:0:0:
396,232,113377,1,0,0:0:0:0:
396,232,113480,2,0,B|416:266|457:271|457:271|467:310,2,89.9999972534181,12|0|4,0:0|0:0|0:0,0:0:0:0:
320,184,114101,1,0,0:0:0:0:
186,304,114308,1,8,0:0:0:0:
148,128,114515,1,0,0:0:0:0:
268,68,114721,6,0,B|315:68|315:68|339:96|339:96|396:95,2,134.999995880127,4|0|0,0:0|0:0|0:0,0:0:0:0:
276,108,115446,1,0,0:0:0:0:
280,148,115549,2,0,B|229:149|229:149|205:121|205:121|158:121,2,134.999995880127,4|0|0,0:0|0:0|0:0,0:0:0:0:
223,254,116377,6,0,B|270:254|270:254|294:282|294:282|346:282,2,134.999995880127,4|0|0,0:0|0:0|0:0,0:0:0:0:
76,312,117204,1,4,0:0:0:0:
186,64,117515,1,0,0:0:0:0:
346,282,117825,1,0,0:0:0:0:
396,208,118032,5,4,0:0:0:0:
320,164,118239,1,0,0:0:0:0:
224,69,118446,2,0,P|180:77|137:65,1,89.9999972534181,12|0,0:0|0:0,0:0:0:0:
116,224,118859,2,0,P|146:191|237:173,1,134.999995880127,4|0,0:0|0:0,0:0:0:0:
276,184,119273,1,12,0:0:0:0:
340,120,119480,1,0,0:0:0:0:
473,93,119687,5,4,0:0:0:0:
430,222,119894,1,0,0:0:0:0:
430,222,119997,1,0,0:0:0:0:
430,222,120101,1,12,0:0:0:0:
312,284,120308,1,0,0:0:0:0:
282,295,120411,1,0,0:0:0:0:
251,301,120515,1,4,0:0:0:0:
220,298,120618,1,0,0:0:0:0:
190,288,120721,1,0,0:0:0:0:
164,272,120825,1,0,0:0:0:0:
170,241,120928,1,12,0:0:0:0:
183,212,121032,1,0,0:0:0:0:
203,188,121135,1,4,0:0:0:0:
227,168,121239,1,0,0:0:0:0:
254,152,121342,6,0,P|356:148|416:96,1,179.999994506836,4|8,0:0|0:0,0:0:0:0:
336,52,121963,1,0,0:0:0:0:
248,40,122170,1,4,0:0:0:0:
156,40,122377,1,0,0:0:0:0:
156,40,122480,1,0,0:0:0:0:
156,40,122583,2,0,B|150:55|150:55|112:55|85:86,2,89.9999972534181,8|0|4,0:0|0:0|0:0,0:0:0:0:
168,174,123204,5,0,0:0:0:0:
296,224,123411,2,0,B|311:222|311:222|328:256|367:268,2,89.9999972534181,12|0|4,0:0|0:0|0:0,0:0:0:0:
380,192,124032,1,0,0:0:0:0:
380,192,124135,1,0,0:0:0:0:
380,192,124239,1,8,0:0:0:0:
310,135,124446,1,0,0:0:0:0:
172,104,124652,6,0,B|128:112|128:112|100:72,1,89.9999972534181,4|0,0:0|0:0,0:0:0:0:
56,204,125066,2,0,B|100:196|100:196|128:236,1,89.9999972534181,8|0,0:0|0:0,0:0:0:0:
268,216,125480,2,0,B|276:172|312:168|312:168|312:128|368:108,2,134.999995880127,4|0|0,0:0|0:0|0:0,0:0:0:0:
200,276,126308,5,4,0:0:0:0:
284,304,126515,1,0,0:0:0:0:
284,304,126618,1,0,0:0:0:0:
284,304,126721,2,0,B|284:320|284:320|249:334|236:373,2,89.9999972534181,12|0|4,0:0|0:0|0:0,0:0:0:0:
356,248,127342,1,0,0:0:0:0:
430,84,127549,1,8,0:0:0:0:
252,101,127756,1,0,0:0:0:0:
164,204,127963,6,0,B|128:202|114:239|114:239|79:231|56:269,2,134.999995880127,4|0|0,0:0|0:0|0:0,0:0:0:0:
196,228,128687,1,0,0:0:0:0:
232,256,128790,2,0,B|231:300|197:310|197:310|203:350|152:379,2,134.999995880127,4|0|0,0:0|0:0|0:0,0:0:0:0:
368,268,129618,6,0,B|390:306|425:298|425:298|439:335|498:335,2,134.999995880127,4|0|0,0:0|0:0|0:0,0:0:0:0:
388,176,130446,1,4,0:0:0:0:
139,72,130756,1,0,0:0:0:0:
174,340,131066,1,0,0:0:0:0:
204,256,131273,5,4,0:0:0:0:
260,188,131480,1,0,0:0:0:0:
240,79,131687,2,0,P|273:50|316:36,1,89.9999972534181,12|0,0:0|0:0,0:0:0:0:
480,52,132101,2,0,P|454:88|368:131,1,134.999995880127,4|0,0:0|0:0,0:0:0:0:
332,136,132515,1,12,0:0:0:0:
260,188,132721,1,0,0:0:0:0:
160,152,132928,5,4,0:0:0:0:
70,250,133135,1,0,0:0:0:0:
70,250,133239,1,0,0:0:0:0:
70,250,133342,1,12,0:0:0:0:
200,280,133549,1,0,0:0:0:0:
231,284,133652,1,0,0:0:0:0:
261,292,133756,1,4,0:0:0:0:
289,306,133859,1,0,0:0:0:0:
314,325,133963,1,0,0:0:0:0:
334,349,134066,1,0,0:0:0:0:
327,324,134170,1,12,0:0:0:0:
324,292,134273,1,0,0:0:0:0:
326,261,134377,1,4,0:0:0:0:
332,230,134480,1,0,0:0:0:0:
342,200,134583,1,4,0:0:0:0:
132,176,147825,6,0,P|188:124|256:116,1,112.5,6|0,0:0|0:0,0:0:0:0:
244,116,148239,1,8,0:0:0:0:
356,124,148446,1,0,0:0:0:0:
420,160,148652,5,2,0:0:0:0:
435,181,148756,1,0,0:0:0:0:
444,205,148859,1,0,0:0:0:0:
446,231,148963,1,0,0:0:0:0:
440,257,149066,1,8,0:0:0:0:
428,280,149170,1,0,0:0:0:0:
409,298,149273,1,0,0:0:0:0:
386,311,149377,1,0,0:0:0:0:
360,308,149480,6,0,L|332:284,1,37.5,2|0,0:0|0:0,0:0:0:0:
260,308,149687,2,0,L|241:275,1,37.5
166,273,149894,2,0,L|159:236,1,37.5,8|0,0:0|0:0,0:0:0:0:
89,207,150101,2,0,L|95:169,1,37.5
112,96,150308,5,2,0:0:0:0:
128,76,150411,1,0,0:0:0:0:
144,58,150515,1,0,0:0:0:0:
160,78,150618,1,0,0:0:0:0:
178,98,150721,1,8,0:0:0:0:
198,115,150825,1,0,0:0:0:0:
219,130,150928,1,0,0:0:0:0:
243,141,151032,1,0,0:0:0:0:
268,152,151135,6,0,P|307:157|352:141,1,75,2|0,0:0|0:0,0:0:0:0:
376,136,151446,1,0,0:0:0:0:
412,120,151549,2,0,P|417:151|403:204,1,75,8|0,0:0|0:0,0:0:0:0:
384,288,151963,5,2,0:0:0:0:
376,312,152066,1,0,0:0:0:0:
368,336,152170,1,0,0:0:0:0:
351,355,152273,1,0,0:0:0:0:
325,350,152377,1,8,0:0:0:0:
301,341,152480,1,0,0:0:0:0:
278,327,152583,1,0,0:0:0:0:
258,310,152687,1,0,0:0:0:0:
204,260,152790,6,0,L|198:223,1,37.5,2|0,0:0|0:0,0:0:0:0:
268,195,152997,2,0,L|275:158,1,37.5
350,156,153204,2,0,L|369:123,1,37.5,8|0,0:0|0:0,0:0:0:0:
441,147,153411,2,0,L|469:123,1,37.5
492,52,153618,6,0,P|464:40|408:40,1,75,2|0,0:0|0:0,0:0:0:0:
392,44,153928,1,0,0:0:0:0:
369,57,154032,1,8,0:0:0:0:
345,67,154135,1,0,0:0:0:0:
319,73,154239,1,0,0:0:0:0:
293,75,154342,1,0,0:0:0:0:
220,92,154446,5,2,0:0:0:0:
196,103,154549,1,0,0:0:0:0:
171,111,154652,1,0,0:0:0:0:
145,114,154756,1,0,0:0:0:0:
119,109,154859,1,8,0:0:0:0:
119,133,154963,1,0,0:0:0:0:
127,158,155066,1,0,0:0:0:0:
135,183,155170,1,0,0:0:0:0:
143,208,155273,1,2,0:0:0:0:
136,233,155377,1,0,0:0:0:0:
128,258,155480,1,0,0:0:0:0:
121,283,155583,1,0,0:0:0:0:
116,304,155687,1,8,0:0:0:0:
141,298,155790,1,0,0:0:0:0:
167,299,155894,1,0,0:0:0:0:
192,306,155997,1,0,0:0:0:0:
267,306,156101,5,2,0:0:0:0:
292,299,156204,1,0,0:0:0:0:
318,298,156308,1,0,0:0:0:0:
343,304,156411,1,0,0:0:0:0:
338,283,156515,1,8,0:0:0:0:
331,258,156618,1,0,0:0:0:0:
323,233,156721,1,0,0:0:0:0:
316,208,156825,1,0,0:0:0:0:
324,183,156928,1,2,0:0:0:0:
332,158,157032,1,0,0:0:0:0:
340,133,157135,1,0,0:0:0:0:
340,109,157239,1,0,0:0:0:0:
314,114,157342,1,8,0:0:0:0:
288,111,157446,1,0,0:0:0:0:
263,103,157549,1,0,0:0:0:0:
240,92,157652,1,0,0:0:0:0:
165,76,157756,6,0,L|113:108,1,37.5,2|0,0:0|0:0,0:0:0:0:
161,168,157963,2,0,L|123:215,1,37.5,0|0,0:0|0:0,0:0:0:0:
188,255,158170,2,0,L|168:312,1,37.5,8|0,0:0|0:0,0:0:0:0:
244,328,158377,2,0,L|245:389,1,37.5,0|0,0:0|0:0,0:0:0:0:
341,332,158583,2,0,L|393:300,1,37.5,2|0,0:0|0:0,0:0:0:0:
345,240,158790,2,0,L|382:192,1,37.5,0|0,0:0|0:0,0:0:0:0:
318,153,158997,2,0,L|337:95,1,37.5,8|0,0:0|0:0,0:0:0:0:
262,80,159204,2,0,L|260:18,1,37.5,0|0,0:0|0:0,0:0:0:0:
189,56,159411,5,6,0:0:0:0:
176,78,159515,1,0,0:0:0:0:
164,102,159618,1,0,0:0:0:0:
154,126,159721,1,0,0:0:0:0:
148,152,159825,1,8,0:0:0:0:
151,177,159928,1,0,0:0:0:0:
171,193,160032,1,0,0:0:0:0:
197,197,160135,1,0,0:0:0:0:
223,198,160239,1,6,0:0:0:0:
250,198,160342,1,0,0:0:0:0:
276,200,160446,1,0,0:0:0:0:
301,206,160549,1,0,0:0:0:0:
319,224,160652,1,12,0:0:0:0:
323,250,160756,1,0,0:0:0:0:
318,276,160859,1,4,0:0:0:0:
310,301,160963,1,0,0:0:0:0:
301,324,161066,1,6,0:0:0:0:
352,144,169342,5,4,0:0:0:0:
176,100,169756,1,8,0:0:0:0:
144,168,169963,1,0,0:0:0:0:
144,168,170066,1,0,0:0:0:0:
144,168,170170,2,0,P|152:268|168:292,2,112.5,4|0|0,0:0|0:0|0:0,0:0:0:0:
272,176,170997,6,0,P|264:76|248:52,2,112.5,4|0|0,0:0|0:0|0:0,0:0:0:0:
232,240,171825,1,4,0:0:0:0:
188,76,172135,1,0,0:0:0:0:
352,121,172446,1,0,0:0:0:0:
316,204,172652,5,4,0:0:0:0:
316,204,173066,2,0,P|309:288|257:329,2,150,8|4|8,0:0|0:0|0:0,0:0:0:0:
243,151,174101,1,0,0:0:0:0:
232,240,174308,1,4,0:0:0:0:
256,192,174411,12,0,175756,0:0:0:0:
256,192,175963,12,0,177204,0:0:0:0:
260,268,177618,6,0,P|340:272|400:192,1,179.999994506836,4|8,0:0|0:0,0:0:0:0:
308,188,178239,1,0,0:0:0:0:
363,116,178446,1,4,0:0:0:0:
424,48,178652,1,0,0:0:0:0:
424,48,178756,1,0,0:0:0:0:
424,48,178859,2,0,B|476:68|476:68|512:104|488:128,2,89.9999972534181,8|0|4,0:0|0:0|0:0,0:0:0:0:
288,112,179480,5,0,0:0:0:0:
168,180,179687,2,0,B|116:160|116:160|80:124|104:100,2,89.9999972534181,12|0|4,0:0|0:0|0:0,0:0:0:0:
260,176,180308,1,0,0:0:0:0:
260,176,180411,1,0,0:0:0:0:
260,176,180515,1,8,0:0:0:0:
348,148,180721,1,0,0:0:0:0:
240,76,180928,6,0,B|201:49|201:49|150:56,1,89.9999972534181,4|0,0:0|0:0,0:0:0:0:
176,248,181342,2,0,B|214:274|214:274|265:267,1,89.9999972534181,8|0,0:0|0:0,0:0:0:0:
280,148,181756,2,0,B|231:171|231:171|198:144|148:155,2,134.999995880127,4|0|0,0:0|0:0|0:0,0:0:0:0:
360,112,182583,5,4,0:0:0:0:
408,188,182790,1,0,0:0:0:0:
408,188,182894,1,0,0:0:0:0:
408,188,182997,2,0,B|414:243|414:243|399:291|367:282,2,89.9999972534181,12|0|4,0:0|0:0|0:0,0:0:0:0:
360,112,183618,1,0,0:0:0:0:
264,264,183825,1,8,0:0:0:0:
180,106,184032,1,0,0:0:0:0:
96,212,184239,6,0,B|119:261|119:261|92:294|103:344,2,134.999995880127,4|0|0,0:0|0:0|0:0,0:0:0:0:
136,224,184963,1,0,0:0:0:0:
176,236,185066,2,0,B|226:254|226:254|231:296|274:324,2,134.999995880127,4|0|0,0:0|0:0|0:0,0:0:0:0:
312,248,185894,6,0,B|330:197|330:197|372:192|400:149,2,134.999995880127,4|0|0,0:0|0:0|0:0,0:0:0:0:
324,112,186721,1,4,0:0:0:0:
242,371,187032,1,0,0:0:0:0:
58,168,187342,1,0,0:0:0:0:
55,33,187549,5,4,0:0:0:0:
144,44,187756,1,0,0:0:0:0:
256,64,187963,2,0,P|284:84|344:96,1,89.9999972534181,12|0,0:0|0:0,0:0:0:0:
416,199,188377,2,0,P|372:190|284:214,1,134.999995880127,4|0,0:0|0:0,0:0:0:0:
248,236,188790,1,12,0:0:0:0:
172,184,188997,1,0,0:0:0:0:
92,140,189204,5,4,0:0:0:0:
32,262,189411,1,0,0:0:0:0:
32,262,189515,1,0,0:0:0:0:
32,262,189618,1,12,0:0:0:0:
168,252,189825,1,0,0:0:0:0:
195,267,189928,1,0,0:0:0:0:
219,287,190032,1,4,0:0:0:0:
239,311,190135,1,0,0:0:0:0:
255,339,190239,1,0,0:0:0:0:
265,366,190342,1,0,0:0:0:0:
283,340,190446,1,12,0:0:0:0:
305,318,190549,1,0,0:0:0:0:
331,299,190652,1,4,0:0:0:0:
358,284,190756,1,0,0:0:0:0:
388,273,190859,6,0,P|448:192|432:112,1,179.999994506836,4|8,0:0|0:0,0:0:0:0:
360,72,191480,1,0,0:0:0:0:
276,100,191687,1,4,0:0:0:0:
200,52,191894,1,0,0:0:0:0:
200,52,191997,1,0,0:0:0:0:
200,52,192101,2,0,B|168:64|168:64|148:92|112:108,2,89.9999972534181,8|0|4,0:0|0:0|0:0,0:0:0:0:
240,159,192721,5,0,0:0:0:0:
328,232,192928,2,0,B|360:220|360:220|380:192|416:176,2,89.9999972534181,12|0|4,0:0|0:0|0:0,0:0:0:0:
312,144,193549,1,0,0:0:0:0:
312,144,193652,1,0,0:0:0:0:
312,144,193756,1,8,0:0:0:0:
228,112,193963,1,0,0:0:0:0:
84,60,194170,6,0,P|64:116|84:168,1,89.9999972534181,4|0,0:0|0:0,0:0:0:0:
196,292,194583,2,0,P|216:236|196:184,1,89.9999972534181,8|0,0:0|0:0,0:0:0:0:
200,80,194997,2,0,B|152:108|156:165|156:165|126:200,2,134.999995880127,4|0|0,0:0|0:0|0:0,0:0:0:0:
244,156,195825,5,4,0:0:0:0:
310,217,196032,1,0,0:0:0:0:
310,217,196135,1,0,0:0:0:0:
310,217,196239,2,0,B|322:249|322:249|350:269|366:305,2,89.9999972534181,12|0|4,0:0|0:0|0:0,0:0:0:0:
324,128,196859,1,0,0:0:0:0:
148,95,197066,1,8,0:0:0:0:
208,265,197273,1,0,0:0:0:0:
340,292,197480,6,0,B|389:266|388:209|388:209|420:176,2,134.999995880127,4|0|0,0:0|0:0|0:0,0:0:0:0:
316,260,198204,1,0,0:0:0:0:
296,224,198308,2,0,B|312:170|271:131|271:131|270:85,2,134.999995880127,4|0|0,0:0|0:0|0:0,0:0:0:0:
160,220,199135,6,0,B|111:246|112:303|112:303|80:336,2,134.999995880127,4|0|0,0:0|0:0|0:0,0:0:0:0:
200,300,199963,1,4,0:0:0:0:
376,100,200273,1,0,0:0:0:0:
112,44,200583,1,0,0:0:0:0:
204,124,200790,5,4,0:0:0:0:
174,208,200997,1,0,0:0:0:0:
140,292,201204,2,0,B|168:328|168:328|224:316,1,89.9999972534181,12|0,0:0|0:0,0:0:0:0:
328,224,201618,2,0,B|284:175|284:175|216:191,1,134.999995880127,4|0,0:0|0:0,0:0:0:0:
174,208,202032,1,12,0:0:0:0:
115,139,202239,1,0,0:0:0:0:
204,124,202446,5,4,0:0:0:0:
252,248,202652,1,0,0:0:0:0:
252,248,202756,1,0,0:0:0:0:
252,248,202859,1,12,0:0:0:0:
360,168,203066,1,0,0:0:0:0:
344,140,203170,1,0,0:0:0:0:
334,110,203273,1,4,0:0:0:0:
331,79,203377,1,0,0:0:0:0:
336,48,203480,1,0,0:0:0:0:
348,20,203583,1,0,0:0:0:0:
319,32,203687,1,12,0:0:0:0:
288,40,203790,1,0,0:0:0:0:
257,43,203894,1,4,0:0:0:0:
226,41,203997,1,0,0:0:0:0:
195,35,204101,1,4,0:0:0:0:
334,146,210721,6,0,B|347:96|385:77|385:77|430:81|436:114,2,134.999995880127,4|0|0,0:0|0:0|0:0,0:0:0:0:
336,192,211446,1,0,0:0:0:0:
372,216,211549,2,0,B|421:203|456:227|456:227|475:268|450:289,2,134.999995880127,4|0|0,0:0|0:0|0:0,0:0:0:0:
240,252,212377,6,0,B|275:288|272:331|272:331|246:368|215:356,2,134.999995880127,4|0|0,0:0|0:0|0:0,0:0:0:0:
112,296,213204,1,4,0:0:0:0:
173,35,213515,1,0,0:0:0:0:
370,218,213825,1,0,0:0:0:0:
256,192,214032,12,0,216928,0:0:0:0:
288,96,217342,6,0,P|352:128|364:240,1,179.999994506836,4|8,0:0|0:0,0:0:0:0:
328,308,217963,1,0,0:0:0:0:
240,324,218170,1,4,0:0:0:0:
152,316,218377,1,0,0:0:0:0:
152,316,218480,1,0,0:0:0:0:
152,316,218583,2,0,B|98:301|84:270|112:242,2,89.9999972534181,8|0|4,0:0|0:0|0:0,0:0:0:0:
233,218,219204,5,0,0:0:0:0:
336,144,219411,2,0,B|389:158|403:189|375:217,2,89.9999972534181,12|0|4,0:0|0:0|0:0,0:0:0:0:
256,192,220032,12,0,223549,0:0:0:0:
386,130,223963,6,0,B|419:161|419:161|460:151|513:197,2,134.999995880127,4|0|0,0:0|0:0|0:0,0:0:0:0:
348,118,224687,1,0,0:0:0:0:
316,143,224790,2,0,B|283:175|283:175|291:216|244:267,2,134.999995880127,4|0|0,0:0|0:0|0:0,0:0:0:0:
186,181,225618,6,0,B|141:192|141:192|128:232|61:253,2,134.999995880127,4|0|0,0:0|0:0|0:0,0:0:0:0:
50,148,226446,1,4,0:0:0:0:
299,53,226756,1,0,0:0:0:0:
255,318,227066,1,0,0:0:0:0:
256,224,227273,5,4,0:0:0:0:
177,174,227480,1,0,0:0:0:0:
128,96,227687,2,0,P|188:60|224:76,1,89.9999972534181,12|0,0:0|0:0,0:0:0:0:
384,96,228101,2,0,P|324:60|272:96,1,134.999995880127,4|0,0:0|0:0,0:0:0:0:
256,132,228515,1,12,0:0:0:0:
256,224,228721,1,0,0:0:0:0:
177,174,228928,5,4,0:0:0:0:
44,160,229135,1,0,0:0:0:0:
44,160,229239,1,0,0:0:0:0:
44,160,229342,1,12,0:0:0:0:
148,246,229549,1,0,0:0:0:0:
177,257,229652,1,0,0:0:0:0:
202,276,229756,1,4,0:0:0:0:
223,299,229859,1,0,0:0:0:0:
240,326,229963,1,0,0:0:0:0:
255,353,230066,1,0,0:0:0:0:
270,326,230170,1,12,0:0:0:0:
288,300,230273,1,0,0:0:0:0:
309,276,230377,1,4,0:0:0:0:
334,257,230480,1,0,0:0:0:0:
363,246,230583,5,4,0:0:0:0:
