osu file format v13

[General]
AudioFilename: 1 Native Faith.mp3
AudioLeadIn: 0
PreviewTime: 54618
Countdown: 0
SampleSet: Soft
StackLeniency: 0.7
Mode: 0
LetterboxInBreaks: 1
WidescreenStoryboard: 0

[Editor]
Bookmarks: 28660,147829
DistanceSpacing: 0.7
BeatDivisor: 4
GridSize: 4
TimelineZoom: 0.9800001

[Metadata]
Title:Cinderella Avatar
TitleUnicode:シンデレラアバター
Artist:senya
ArtistUnicode:senya
Creator:-Mo-
Version:Easy
Source:Touhou
Tags:Yuuhei Satellite TH10 Mountain of Faith Native Moriya Suwako Iceon Kamase-tora 幽閉サテライト ネイティブフェイス 東方風神録
BeatmapID:488863
BeatmapSetID:207487

[Difficulty]
HPDrainRate:3
CircleSize:3
OverallDifficulty:2
ApproachRate:3
SliderMultiplier:1.20000000596046
SliderTickRate:1

[Events]
//Background and Video events
0,0,"CA-BG.png",0,0
//Break Periods
2,15611,27212
2,81818,93419
2,134783,146385
2,162725,176178
2,204301,209281
//Storyboard Layer 0 (Background)
//Storyboard Layer 1 (Fail)
//Storyboard Layer 2 (Pass)
//Storyboard Layer 3 (Foreground)
//Storyboard Sound Samples

[TimingPoints]
515,413.793103448276,4,2,1,65,1,0
2170,-100,4,2,1,80,0,1
15411,-100,4,2,1,65,0,0
55135,-100,4,2,1,80,0,1
67549,-100,4,2,1,80,0,0
68377,-100,4,2,1,80,0,1
81618,-100,4,2,1,65,0,0
108101,-100,4,2,1,80,0,1
120515,-100,4,2,1,80,0,0
121342,-100,4,2,1,80,0,1
134583,-100,4,2,1,65,0,0
177618,-100,4,2,1,80,0,1
190032,-100,4,2,1,80,0,0
190859,-100,4,2,1,80,0,1
204101,-100,4,2,1,80,0,0
217342,-100,4,2,1,80,0,0
230583,-100,4,2,1,65,0,0

[Colours]
Combo1 : 130,9,155
Combo2 : 3,35,143
Combo3 : 23,145,6
Combo4 : 228,120,1

[HitObjects]
76,72,2170,6,0,L|216:72,1,120.000000596046,4|8,0:0|0:0,0:0:0:0:
280,72,2997,2,0,P|324:136|332:184,1,120.000000596046,4|8,0:0|0:0,0:0:0:0:
292,252,3825,2,0,L|176:328,2,120.000000596046,4|8|0,0:0|0:0|0:0,0:0:0:0:
364,204,5066,1,8,0:0:0:0:
420,144,5480,6,0,P|396:88|328:48,1,120.000000596046,4|8,0:0|0:0,0:0:0:0:
268,32,6308,2,0,P|204:28|144:40,1,120.000000596046,4|8,0:0|0:0,0:0:0:0:
88,96,7135,2,0,P|60:176|64:236,2,120.000000596046,4|8|0,0:0|0:0|0:0,0:0:0:0:
149,38,8377,1,8,0:0:0:0:
232,48,8790,6,0,P|312:56|356:68,1,120.000000596046,4|8,0:0|0:0,0:0:0:0:
376,148,9618,2,0,P|296:140|252:128,1,120.000000596046,4|8,0:0|0:0,0:0:0:0:
244,212,10446,2,0,P|309:258|341:291,1,120.000000596046,4|8,0:0|0:0,0:0:0:0:
318,370,11273,2,0,P|252:323|220:290,1,120.000000596046,4|8,0:0|0:0,0:0:0:0:
168,232,12101,6,0,P|168:160|185:109,1,120.000000596046,4|8,0:0|0:0,0:0:0:0:
252,72,12928,2,0,P|324:72|375:89,1,120.000000596046,4|8,0:0|0:0,0:0:0:0:
440,136,13756,2,4,P|454:245|348:276,1,240.000001192092,4|4,0:0|0:0,0:0:0:0:
384,199,14997,1,8,0:0:0:0:
313,153,15411,1,4,0:0:0:0:
372,120,28652,6,0,B|293:158|253:5|161:43,1,240.000001192092,6|0,0:0|0:0,0:0:0:0:
88,84,29894,1,8,0:0:0:0:
80,168,30308,2,0,B|93:266|245:224|251:312,1,240.000001192092,2|0,0:0|0:0,0:0:0:0:
172,340,31549,1,8,0:0:0:0:
92,360,31963,6,0,P|46:322|29:264,1,120.000000596046,2|8,0:0|0:0,0:0:0:0:
124,268,32790,2,0,P|103:212|117:153,1,120.000000596046,2|8,0:0|0:0,0:0:0:0:
197,204,33618,2,0,P|206:145|248:101,2,120.000000596046,2|8|2,0:0|0:0|0:0,0:0:0:0:
292,185,34859,1,8,0:0:0:0:
344,252,35273,6,0,P|444:193|466:78,1,240.000001192092,2|0,0:0|0:0,0:0:0:0:
384,100,36515,1,8,0:0:0:0:
392,16,36928,2,0,P|276:33|213:131,1,240.000001192092,2|0,0:0|0:0,0:0:0:0:
240,208,38170,1,8,0:0:0:0:
204,284,38583,5,2,0:0:0:0:
372,260,39411,1,2,0:0:0:0:
267,126,40239,2,0,P|213:100|154:93,2,120.000000596046,6|8|6,0:0|0:0|0:0,0:0:0:0:
335,176,41480,1,8,0:0:0:0:
384,244,41894,6,0,B|411:282|386:360|386:360|301:363|278:322,1,240.000001192092,2|0,0:0|0:0,0:0:0:0:
228,256,43135,1,8,0:0:0:0:
296,204,43549,2,0,B|338:183|339:98|339:98|263:69|217:98,1,240.000001192092,2|0,0:0|0:0,0:0:0:0:
152,148,44790,1,8,0:0:0:0:
103,216,45204,5,2,0:0:0:0:
217,98,46032,1,2,0:0:0:0:
336,216,46859,2,0,P|330:261|293:331,2,120.000000596046,6|8|2,0:0|0:0|0:0,0:0:0:0:
344,132,48101,1,8,0:0:0:0:
272,92,48515,5,2,0:0:0:0:
124,172,49342,1,2,0:0:0:0:
272,254,50170,1,2,0:0:0:0:
418,172,50997,1,2,0:0:0:0:
300,52,51825,6,0,B|240:44|240:44|180:52,1,120.000000596046,6|8,0:0|0:0,0:0:0:0:
181,135,52652,2,0,B|241:143|241:143|300:136,1,120.000000596046,6|8,0:0|0:0,0:0:0:0:
300,220,53480,2,0,L|176:248,2,120.000000596046,6|12|6,0:0|0:0|0:0,0:0:0:0:
136,176,55135,6,0,P|149:125|187:61,1,120.000000596046,4|8,0:0|0:0,0:0:0:0:
257,30,55963,2,0,P|291:84|348:120,1,120.000000596046,4|8,0:0|0:0,0:0:0:0:
415,151,56790,2,0,P|464:180|495:238,2,120.000000596046,4|8|0,0:0|0:0|0:0,0:0:0:0:
330,164,58032,1,8,0:0:0:0:
284,236,58446,6,0,P|227:254|167:251,1,120.000000596046,4|8,0:0|0:0,0:0:0:0:
124,180,59273,2,0,P|156:129|203:93,1,120.000000596046,4|8,0:0|0:0,0:0:0:0:
276,56,60101,2,0,P|352:36|412:40,2,120.000000596046,4|8|0,0:0|0:0|0:0,0:0:0:0:
276,140,61342,1,8,0:0:0:0:
212,192,61756,6,0,L|116:265,1,120.000000596046,4|8,0:0|0:0,0:0:0:0:
168,332,62583,2,0,L|263:258,1,120.000000596046,4|8,0:0|0:0,0:0:0:0:
336,216,63411,2,0,P|387:246|422:294,1,120.000000596046,4|8,0:0|0:0,0:0:0:0:
480,356,64239,2,0,P|505:302|474:226,1,120.000000596046,4|8,0:0|0:0,0:0:0:0:
436,180,65066,6,0,P|371:123|352:79,1,120.000000596046,4|8,0:0|0:0,0:0:0:0:
294,39,65894,2,0,P|234:39|179:62,1,120.000000596046,4|8,0:0|0:0,0:0:0:0:
108,104,66721,2,4,P|72:206|180:255,1,240.000001192092,4|4,0:0|0:0,0:0:0:0:
150,177,67963,1,8,0:0:0:0:
190,103,68377,6,0,P|247:91|300:117,1,120.000000596046,4|8,0:0|0:0,0:0:0:0:
340,192,69204,2,0,P|390:218|455:204,1,120.000000596046,4|8,0:0|0:0,0:0:0:0:
404,136,70032,2,0,P|461:124|514:150,2,120.000000596046,4|8|0,0:0|0:0|0:0,0:0:0:0:
340,192,71273,1,8,0:0:0:0:
304,268,71687,6,0,P|253:314|201:335,1,120.000000596046,4|8,0:0|0:0,0:0:0:0:
124,344,72515,2,0,P|104:288|100:220,1,120.000000596046,4|8,0:0|0:0,0:0:0:0:
100,144,73342,2,0,L|100:4,2,120.000000596046,4|8|0,0:0|0:0|0:0,0:0:0:0:
172,188,74583,1,8,0:0:0:0:
204,264,74997,6,0,L|327:297,1,120.000000596046,4|8,0:0|0:0,0:0:0:0:
367,224,75825,2,0,L|251:192,1,120.000000596046,4|8,0:0|0:0,0:0:0:0:
245,108,76652,2,0,L|368:141,1,120.000000596046,4|8,0:0|0:0,0:0:0:0:
364,56,77480,2,0,L|248:24,1,120.000000596046,4|8,0:0|0:0,0:0:0:0:
164,28,78308,6,0,P|143:83|136:143,1,120.000000596046,4|8,0:0|0:0,0:0:0:0:
138,228,79135,2,0,P|214:240|270:228,1,120.000000596046,4|8,0:0|0:0,0:0:0:0:
298,160,79963,2,0,P|334:262|224:312,1,240.000001192092,4|4,0:0|0:0,0:0:0:0:
256,233,81204,1,8,0:0:0:0:
185,188,81618,1,4,0:0:0:0:
88,103,94859,6,0,B|148:199|88:271|88:271|104:343,1,240.000001192092,6|2,0:0|0:0,0:0:0:0:
184,328,96101,1,8,0:0:0:0:
268,328,96515,2,0,B|280:270|280:270|220:198|280:102,1,240.000001192092,2|2,0:0|0:0,0:0:0:0:
364,100,97756,1,8,0:0:0:0:
448,96,98170,6,0,P|426:44|368:16,1,120.000000596046,2|8,0:0|0:0,0:0:0:0:
296,52,98997,2,0,B|240:76|240:76|185:52,1,120.000000596046,2|8,0:0|0:0,0:0:0:0:
100,48,99825,2,0,P|32:76|0:112,2,120.000000596046,6|8|2,0:0|0:0|0:0,0:0:0:0:
186,53,101066,1,8,0:0:0:0:
136,120,101480,5,2,0:0:0:0:
304,113,102308,1,2,0:0:0:0:
228,257,103135,1,2,0:0:0:0:
397,253,103963,1,2,0:0:0:0:
248,176,104790,6,0,L|127:149,1,120.000000596046,6|8,0:0|0:0,0:0:0:0:
109,230,105618,2,0,L|225:256,1,120.000000596046,6|8,0:0|0:0,0:0:0:0:
204,338,106446,2,0,L|83:311,2,120.000000596046,6|12|4,0:0|0:0|0:0,0:0:0:0:
372,356,108101,6,0,P|436:331|466:268,1,120.000000596046,4|8,0:0|0:0,0:0:0:0:
380,268,108928,2,0,P|392:192|432:152,1,120.000000596046,4|8,0:0|0:0,0:0:0:0:
476,96,109756,2,0,P|428:52|352:48,2,120.000000596046,4|8|0,0:0|0:0|0:0,0:0:0:0:
419,161,110997,1,8,0:0:0:0:
410,244,111411,6,0,P|338:280|274:280,1,120.000000596046,4|8,0:0|0:0,0:0:0:0:
214,283,112239,2,0,P|155:274|103:243,1,120.000000596046,4|8,0:0|0:0,0:0:0:0:
58,172,113066,2,0,P|38:96|42:36,2,120.000000596046,4|8|0,0:0|0:0|0:0,0:0:0:0:
142,172,114308,1,8,0:0:0:0:
222,148,114721,6,0,L|350:148,1,120.000000596046,4|8,0:0|0:0,0:0:0:0:
342,232,115549,2,0,L|342:352,1,120.000000596046,4|8,0:0|0:0,0:0:0:0:
258,352,116377,2,0,L|130:352,1,120.000000596046,4|8,0:0|0:0,0:0:0:0:
138,268,117204,2,0,L|138:148,1,120.000000596046,4|8,0:0|0:0,0:0:0:0:
186,79,118032,6,0,P|246:99|290:135,1,120.000000596046,4|8,0:0|0:0,0:0:0:0:
336,204,118859,2,0,P|284:248|224:272,1,120.000000596046,4|8,0:0|0:0,0:0:0:0:
156,288,119687,2,4,P|61:232|103:131,1,240.000001192092,4|4,0:0|0:0,0:0:0:0:
140,204,120928,1,8,0:0:0:0:
220,172,121342,6,0,P|252:116|320:76,1,120.000000596046,4|8,0:0|0:0,0:0:0:0:
376,52,122170,2,0,P|419:91|429:150,1,120.000000596046,4|8,0:0|0:0,0:0:0:0:
416,232,122997,2,0,P|422:291|454:341,2,120.000000596046,4|8|0,0:0|0:0|0:0,0:0:0:0:
430,150,124239,1,8,0:0:0:0:
416,68,124652,6,0,P|376:24|312:12,1,120.000000596046,4|8,0:0|0:0,0:0:0:0:
239,32,125480,2,0,P|196:71|183:129,1,120.000000596046,4|8,0:0|0:0,0:0:0:0:
196,212,126308,2,0,P|187:264|140:324,2,120.000000596046,4|8|0,0:0|0:0|0:0,0:0:0:0:
183,129,127549,1,8,0:0:0:0:
251,79,127963,6,0,P|339:79|383:107,1,120.000000596046,4|8,0:0|0:0,0:0:0:0:
435,143,128790,2,0,P|435:231|407:275,1,120.000000596046,4|8,0:0|0:0,0:0:0:0:
360,316,129618,2,0,P|273:329|225:308,1,120.000000596046,4|8,0:0|0:0,0:0:0:0:
172,280,130446,2,0,P|125:205|125:153,1,120.000000596046,4|8,0:0|0:0,0:0:0:0:
144,92,131273,6,0,P|203:98|259:120,1,120.000000596046,4|8,0:0|0:0,0:0:0:0:
308,188,132101,2,0,P|367:181|423:159,1,120.000000596046,4|8,0:0|0:0,0:0:0:0:
358,99,132928,2,4,P|467:82|505:186,1,240.000001192092,4|4,0:0|0:0,0:0:0:0:
423,159,134170,1,8,0:0:0:0:
392,236,134583,1,4,0:0:0:0:
124,80,147825,6,0,B|180:105|180:105|242:98,1,120.000000596046,6|8,0:0|0:0,0:0:0:0:
308,52,148652,2,0,B|365:46|365:46|422:71,1,120.000000596046,2|8,0:0|0:0,0:0:0:0:
424,156,149480,5,2,0:0:0:0:
356,208,149894,1,8,0:0:0:0:
312,136,150308,1,2,0:0:0:0:
244,188,150721,1,8,0:0:0:0:
184,248,151135,6,0,L|104:340,1,120.000000596046,2|8,0:0|0:0,0:0:0:0:
184,368,151963,2,0,L|264:276,1,120.000000596046,2|8,0:0|0:0,0:0:0:0:
264,192,152790,5,2,0:0:0:0:
264,108,153204,1,8,0:0:0:0:
348,108,153618,2,0,L|348:48,2,60.000000298023,2|0|8,0:0|0:0|0:0,0:0:0:0:
348,192,154446,6,0,P|306:213|232:216,1,120.000000596046,6|8,0:0|0:0,0:0:0:0:
156,188,155273,2,0,L|156:128,2,60.000000298023,2|0|8,0:0|0:0|0:0,0:0:0:0:
156,272,156101,2,0,P|198:293|272:296,1,120.000000596046,2|8,0:0|0:0,0:0:0:0:
354,294,156928,2,0,L|430:322,2,60.000000298023,2|0|8,0:0|0:0|0:0,0:0:0:0:
308,224,157756,6,0,L|348:180,2,60.000000298023,6|0|8,0:0|0:0|0:0,0:0:0:0:
224,224,158583,2,0,L|184:180,2,60.000000298023,2|0|8,0:0|0:0|0:0,0:0:0:0:
260,300,159411,2,0,P|180:297|150:261,1,120.000000596046,6|8,0:0|0:0,0:0:0:0:
108,201,160239,5,6,0:0:0:0:
128,120,160652,1,4,0:0:0:0:
196,68,161066,1,4,0:0:0:0:
84,228,177618,6,0,L|176:324,1,120.000000596046,4|8,0:0|0:0,0:0:0:0:
232,368,178446,2,0,L|336:276,1,120.000000596046,4|8,0:0|0:0,0:0:0:0:
380,228,179273,2,0,L|284:128,2,120.000000596046,4|8|0,0:0|0:0|0:0,0:0:0:0:
436,292,180515,1,8,0:0:0:0:
488,228,180928,6,0,P|508:148|508:84,1,120.000000596046,4|8,0:0|0:0,0:0:0:0:
507,27,181756,2,0,P|450:13|391:23,1,120.000000596046,4|8,0:0|0:0,0:0:0:0:
328,80,182583,2,0,P|270:94|211:84,2,120.000000596046,4|8|0,0:0|0:0|0:0,0:0:0:0:
392,23,183825,1,8,0:0:0:0:
444,88,184239,6,0,L|444:216,1,120.000000596046,4|8,0:0|0:0,0:0:0:0:
444,292,185066,2,0,P|412:328|332:328,1,120.000000596046,4|8,0:0|0:0,0:0:0:0:
260,331,185894,2,0,P|201:331|159:290,1,120.000000596046,4|8,0:0|0:0,0:0:0:0:
108,224,186721,2,0,P|88:164|108:104,1,120.000000596046,4|8,0:0|0:0,0:0:0:0:
156,44,187549,6,0,P|197:61|272:56,1,120.000000596046,4|8,0:0|0:0,0:0:0:0:
352,40,188377,2,0,P|411:75|460:140,1,120.000000596046,4|8,0:0|0:0,0:0:0:0:
454,196,189204,2,4,P|378:276|285:215,1,240.000001192092,4|4,0:0|0:0,0:0:0:0:
368,189,190446,1,8,0:0:0:0:
416,120,190859,6,0,P|370:82|312:88,1,120.000000596046,4|8,0:0|0:0,0:0:0:0:
228,84,191687,2,0,P|181:48|123:55,1,120.000000596046,4|8,0:0|0:0,0:0:0:0:
160,128,192515,2,0,P|84:128|48:72,2,120.000000596046,4|8|0,0:0|0:0|0:0,0:0:0:0:
227,83,193756,1,8,0:0:0:0:
300,44,194170,6,0,P|348:88|388:156,1,120.000000596046,4|8,0:0|0:0,0:0:0:0:
396,216,194997,2,0,P|380:273|351:326,1,120.000000596046,4|8,0:0|0:0,0:0:0:0:
268,344,195825,2,0,L|128:344,2,120.000000596046,4|8|0,0:0|0:0|0:0,0:0:0:0:
351,326,197066,1,8,0:0:0:0:
420,276,197480,6,0,P|420:204|396:148,1,120.000000596046,4|8,0:0|0:0,0:0:0:0:
344,100,198308,2,0,P|292:64|228:52,1,120.000000596046,4|8,0:0|0:0,0:0:0:0:
152,48,199135,2,0,L|24:48,1,120.000000596046,4|8,0:0|0:0,0:0:0:0:
32,132,199963,2,0,L|152:132,1,120.000000596046,4|8,0:0|0:0,0:0:0:0:
236,132,200790,6,0,P|334:169|364:200,1,120.000000596046,4|8,0:0|0:0,0:0:0:0:
379,254,201618,2,0,P|307:261|237:229,1,120.000000596046,4|8,0:0|0:0,0:0:0:0:
190,202,202446,2,4,P|158:97|257:49,1,240.000001192092,4|4,0:0|0:0,0:0:0:0:
236,132,203687,1,8,0:0:0:0:
300,185,204101,1,4,0:0:0:0:
155,248,210721,6,0,P|175:192|155:136,1,120.000000596046,4|8,0:0|0:0,0:0:0:0:
200,65,211549,2,0,P|255:45|311:65,1,120.000000596046,4|8,0:0|0:0,0:0:0:0:
356,136,212377,2,0,P|336:192|356:248,1,120.000000596046,4|8,0:0|0:0,0:0:0:0:
312,319,213204,2,0,P|256:338|200:318,1,120.000000596046,4|8,0:0|0:0,0:0:0:0:
256,192,214032,12,4,216515,0:0:0:0:
192,40,217342,6,0,P|255:76|284:136,1,120.000000596046,4|8,0:0|0:0,0:0:0:0:
284,200,218170,2,0,P|252:252|184:292,1,120.000000596046,4|8,0:0|0:0,0:0:0:0:
120,284,218997,2,0,P|58:254|24:184,2,120.000000596046,4|8|0,0:0|0:0|0:0,0:0:0:0:
256,192,220652,12,0,223135,0:0:0:0:
268,160,223963,6,0,P|320:108|376:104,1,120.000000596046,4|8,0:0|0:0,0:0:0:0:
448,100,224790,2,0,P|484:132|456:204,1,120.000000596046,4|8,0:0|0:0,0:0:0:0:
400,244,225618,2,0,L|280:316,1,120.000000596046,4|8,0:0|0:0,0:0:0:0:
216,305,226446,2,0,L|114:244,1,120.000000596046,4|8,0:0|0:0,0:0:0:0:
43,195,227273,6,0,P|24:141|64:100,1,120.000000596046,4|8,0:0|0:0,0:0:0:0:
148,101,228101,2,0,P|205:114|244:160,1,120.000000596046,4|8,0:0|0:0,0:0:0:0:
276,236,228928,2,4,P|375:282|437:191,1,240.000001192092,4|4,0:0|0:0,0:0:0:0:
352,201,230170,1,8,0:0:0:0:
330,119,230583,5,4,0:0:0:0:
