osu file format v14

[General]
AudioFilename: senya - Chinmoku no Kanade.mp3
AudioLeadIn: 0
PreviewTime: 54905
Countdown: 0
SampleSet: Soft
StackLeniency: 0.7
Mode: 0
LetterboxInBreaks: 0
WidescreenStoryboard: 1

[Editor]
DistanceSpacing: 1
BeatDivisor: 4
GridSize: 4
TimelineZoom: 1.8

[Metadata]
Title:Chinmoku no Kanade
TitleUnicode:沈黙のカナデ
Artist:senya
ArtistUnicode:senya
Creator:kentanghalal
Version:Catharsis
Source:艦隊これくしょん~艦これ~
Tags:play of the silence 艦隊これくしょん 艦これ kantai collection kancolle yuuhei catharsis 女神の口づけを megami no kuchizuke o 我、夜戦に突入す! yasen night battle 宇佐美 宏 hiroshi usami かませ虎 kamase-tora hizumi 森永真由美 mayumi morinaga korekushon combined fleet c85
BeatmapID:941285
BeatmapSetID:437104

[Difficulty]
HPDrainRate:7
CircleSize:4
OverallDifficulty:8
ApproachRate:9.2
SliderMultiplier:2
SliderTickRate:1

[Events]
//Background and Video events
0,0,"bg.jpg",0,0
//Break Periods
2,15105,25422
//Storyboard Layer 0 (Background)
//Storyboard Layer 1 (Fail)
//Storyboard Layer 2 (Pass)
//Storyboard Layer 3 (Foreground)
//Storyboard Sound Samples

[TimingPoints]
123,434.782608695652,4,2,0,100,1,0
7514,-200,4,2,0,100,0,0
9470,-100,4,2,0,100,0,0
13166,-200,4,2,0,100,0,0
26209,-100,4,2,0,100,0,0
32731,-66.6666666666667,4,2,0,100,0,0
33166,-100,4,2,0,100,0,0
46644,-66.6666666666667,4,2,0,100,0,0
47079,-100,4,2,0,100,0,0
54905,-100,4,2,0,100,0,1
82731,-100,4,2,0,100,0,0
124470,-100,4,2,0,100,0,1
152296,-100,4,2,0,100,0,0
180557,-100,4,2,0,100,0,1
207949,-100,4,2,0,100,0,0

[HitObjects]
200,168,7514,5,0,0:0:0:0:
200,168,7949,6,0,P|200:204|260:240,1,100
268,224,8492,1,0,0:0:0:0:
292,216,8601,1,0,0:0:0:0:
312,200,8709,1,0,0:0:0:0:
328,180,8818,1,0,0:0:0:0:
416,336,9036,6,0,L|428:264,1,50
108,88,9470,1,0,0:0:0:0:
136,312,9688,1,0,0:0:0:0:
280,140,9905,1,0,0:0:0:0:
340,356,10122,1,0,0:0:0:0:
408,52,10340,5,0,0:0:0:0:
367,83,10449,1,0,0:0:0:0:
319,75,10557,1,0,0:0:0:0:
108,88,10775,5,0,0:0:0:0:
104,112,10883,1,0,0:0:0:0:
100,136,10992,2,0,L|140:228,1,100
388,192,11427,5,0,0:0:0:0:
392,216,11536,1,0,0:0:0:0:
388,240,11644,1,0,0:0:0:0:
376,260,11753,1,0,0:0:0:0:
356,276,11862,5,0,0:0:0:0:
312,256,11970,1,0,0:0:0:0:
264,244,12079,1,0,0:0:0:0:
216,252,12188,1,0,0:0:0:0:
136,160,12296,6,0,L|148:96,1,50
292,56,12514,2,0,L|280:120,1,50
160,100,12731,5,0,0:0:0:0:
172,148,12840,1,0,0:0:0:0:
184,196,12949,1,0,0:0:0:0:
200,244,13057,1,0,0:0:0:0:
216,288,13166,6,0,P|264:280|152:108,1,400
162,99,25992,5,0,0:0:0:0:
168,124,26101,1,0,0:0:0:0:
176,148,26209,1,0,0:0:0:0:
428,312,26427,5,0,0:0:0:0:
120,280,26644,2,0,L|156:236,1,50
348,68,26862,1,0,0:0:0:0:
344,116,26970,1,0,0:0:0:0:
340,164,27079,1,0,0:0:0:0:
340,164,27514,6,0,P|296:128|144:108,1,200
144,300,28166,1,0,0:0:0:0:
368,248,28383,1,0,0:0:0:0:
148,180,28601,5,0,0:0:0:0:
168,136,28709,1,0,0:0:0:0:
188,92,28818,2,0,B|224:152|224:152|248:108,1,100
336,140,29253,6,0,L|288:240,1,100
192,232,29688,2,0,P|208:288|336:316,1,200
352,272,30231,1,0,0:0:0:0:
372,224,30340,1,0,0:0:0:0:
160,60,30557,6,0,L|116:104,1,50
76,88,30775,2,0,L|108:208,1,100
88,284,31209,1,0,0:0:0:0:
376,84,31427,1,0,0:0:0:0:
324,328,31644,6,0,L|284:288,1,50
240,304,31862,2,0,L|236:196,1,100
164,136,32296,1,0,0:0:0:0:
404,64,32514,1,0,0:0:0:0:
400,212,32731,6,0,B|316:212|236:240|236:240|252:204|220:172,1,225.000008583069
192,216,33166,2,0,L|136:156,1,50
264,28,33383,2,0,L|257:77,1,50
404,64,33601,5,0,0:0:0:0:
436,260,33709,2,0,L|392:228,1,50
228,108,33927,2,0,L|235:157,1,50
168,348,34470,6,0,P|117:319|57:186,1,200
292,156,35122,1,0,0:0:0:0:
216,220,35340,1,0,0:0:0:0:
120,188,35557,6,0,L|104:116,1,50
60,132,35775,2,0,B|80:88|116:80|144:88|144:88|160:72|160:72|192:72,1,150
220,104,36209,1,0,0:0:0:0:
368,308,36427,6,0,P|396:272|364:128,1,200
220,104,37079,2,0,L|212:160,1,50
108,316,37296,1,0,0:0:0:0:
80,168,37514,6,0,L|132:196,1,50
160,160,37731,2,0,P|184:192|176:256,1,100
108,316,38166,1,0,0:0:0:0:
220,104,38383,1,0,0:0:0:0:
360,300,38601,1,0,0:0:0:0:
224,232,38818,6,0,L|180:200,1,50
144,232,39036,2,0,P|116:180|152:136,1,100
220,104,39470,1,0,0:0:0:0:
360,300,39688,1,0,0:0:0:0:
220,104,39905,1,0,0:0:0:0:
88,304,40122,5,0,0:0:0:0:
404,176,40340,1,0,0:0:0:0:
340,96,40557,5,0,0:0:0:0:
292,104,40666,2,0,L|288:160,1,50
148,277,40883,2,0,L|152:228,1,50
312,108,41427,6,0,P|326:205|416:291,1,200
308,224,42079,2,0,P|264:240|196:244,1,100
240,148,42514,6,0,L|252:204,1,50
204,216,42731,2,0,P|228:276|264:292,1,100
328,136,43166,2,0,P|304:76|268:60,1,100
240,156,43601,6,0,P|192:184|80:108,1,200
104,72,44144,1,0,0:0:0:0:
136,36,44253,1,0,0:0:0:0:
264,200,44470,6,0,L|240:156,1,50
252,108,44688,2,0,P|300:112|352:152,1,100
208,288,45122,2,0,P|160:284|108:244,1,100
324,44,45557,5,0,0:0:0:0:
392,180,45775,1,0,0:0:0:0:
244,160,45992,1,0,0:0:0:0:
84,324,46209,2,0,L|100:200,1,100
160,88,46644,6,0,B|220:88|252:128|232:192|232:192|272:176|320:196,1,225.000008583069
276,232,47079,2,0,L|260:284,1,50
248,328,47296,2,0,P|204:304|180:240,2,100
320,140,47949,1,0,0:0:0:0:
320,140,48383,6,0,P|280:120|128:136,1,200
256,212,49036,2,0,P|298:237|347:234,2,100
320,136,49688,2,0,P|340:72|408:32,2,150
420,128,50557,5,0,0:0:0:0:
224,268,50775,1,0,0:0:0:0:
76,80,50992,2,0,L|84:188,1,100
352,316,51427,2,0,L|344:216,1,100
264,276,51862,6,0,L|224:240,1,50
180,260,52079,2,0,P|168:216|192:156,1,100
380,208,52514,2,0,P|404:164|396:100,2,100
144,208,53166,2,0,P|120:164|128:100,2,100
264,280,53818,1,0,0:0:0:0:
344,80,54036,6,0,L|324:132,3,50
276,124,54470,2,0,L|240:168,3,50
232,212,54905,6,0,B|184:200|144:144|144:144|112:184|112:240,1,200
72,252,55449,6,0,L|120:296,1,50
340,196,55666,2,0,L|303:162,1,50
120,80,55992,6,0,L|128:132,1,50
84,156,56209,2,0,P|104:200|160:208,1,100
340,196,56644,2,0,B|296:160|284:112|284:112|232:120|208:172,1,200
232,212,57188,6,0,L|180:224,1,50
56,68,57405,2,0,L|104:56,1,50
232,212,57731,5,0,0:0:0:0:
232,212,57840,1,0,0:0:0:0:
232,212,57949,1,0,0:0:0:0:
356,96,58166,1,0,0:0:0:0:
384,192,58383,2,0,B|356:240|360:288|360:288|304:312|248:276,1,200
220,260,58927,5,0,0:0:0:0:
188,224,59036,1,0,0:0:0:0:
176,176,59144,1,0,0:0:0:0:
192,128,59253,1,0,0:0:0:0:
384,192,59470,6,0,P|376:248|328:292,2,100
324,112,60122,1,0,0:0:0:0:
284,80,60231,1,0,0:0:0:0:
236,64,60340,1,0,0:0:0:0:
184,64,60449,1,0,0:0:0:0:
140,84,60557,6,0,L|156:144,1,50
80,248,60775,2,0,L|128:288,1,50
168,292,60992,6,0,P|208:248|216:188,1,100
217,209,61318,2,0,L|248:108,1,100
246,113,61644,1,0,0:0:0:0:
80,248,61862,6,0,P|76:192|100:148,1,100
140,176,62188,5,0,0:0:0:0:
184,204,62296,1,0,0:0:0:0:
232,212,62405,1,0,0:0:0:0:
280,208,62514,1,0,0:0:0:0:
324,188,62622,1,0,0:0:0:0:
364,156,62731,6,0,L|388:212,1,50
432,208,62949,2,0,P|416:260|368:284,2,100
260,40,63601,6,0,P|224:60|208:120,1,100
248,140,63927,5,0,0:0:0:0:
284,172,64036,1,0,0:0:0:0:
304,216,64144,1,0,0:0:0:0:
308,264,64253,1,0,0:0:0:0:
292,312,64362,1,0,0:0:0:0:
256,348,64470,6,0,L|208:304,1,50
228,264,64688,2,0,P|180:264|148:304,2,100
356,60,65340,6,0,P|352:100|304:140,1,100
268,108,65666,5,0,0:0:0:0:
224,88,65775,1,0,0:0:0:0:
176,88,65883,1,0,0:0:0:0:
132,108,65992,1,0,0:0:0:0:
100,148,66101,1,0,0:0:0:0:
100,196,66209,6,0,B|108:248|108:248|124:284|124:284|136:344,2,150
148,192,66970,2,0,L|160:132,1,50
300,60,67188,2,0,L|290:109,1,50
332,136,67405,5,0,0:0:0:0:
368,172,67514,1,0,0:0:0:0:
388,220,67622,1,0,0:0:0:0:
376,268,67731,1,0,0:0:0:0:
336,300,67840,1,0,0:0:0:0:
288,304,67949,1,0,0:0:0:0:
244,280,68057,1,0,0:0:0:0:
224,236,68166,1,0,0:0:0:0:
236,188,68275,1,0,0:0:0:0:
232,140,68383,1,0,0:0:0:0:
208,96,68492,1,0,0:0:0:0:
168,64,68601,1,0,0:0:0:0:
120,60,68709,1,0,0:0:0:0:
80,88,68818,6,0,B|108:136|72:188|72:188|116:224|196:184,1,200
176,152,69362,6,0,L|236:180,1,50
309,293,69579,2,0,L|264:272,1,50
168,244,69905,6,0,P|189:200|235:187,2,100
196,288,70449,1,0,0:0:0:0:
244,300,70557,2,0,B|288:268|344:272|344:272|332:224|352:176,1,200
396,160,71101,5,0,0:0:0:0:
380,112,71209,1,0,0:0:0:0:
348,72,71318,1,0,0:0:0:0:
304,48,71427,1,0,0:0:0:0:
248,208,71644,5,0,0:0:0:0:
248,208,71753,1,0,0:0:0:0:
248,208,71862,1,0,0:0:0:0:
124,124,72079,1,0,0:0:0:0:
128,272,72296,6,0,B|128:320|196:340|196:340|268:320|268:272,1,200
312,260,72840,2,0,L|304:196,1,50
192,112,73057,2,0,L|198:161,1,50
184,260,73383,6,0,P|132:236|112:192,2,100
380,212,74036,5,0,0:0:0:0:
392,164,74144,1,0,0:0:0:0:
380,116,74253,1,0,0:0:0:0:
352,76,74362,1,0,0:0:0:0:
308,56,74470,6,0,L|248:72,1,50
168,156,74688,2,0,L|148:208,1,50
180,244,74905,6,0,L|280:280,1,100
274,277,75231,2,0,B|312:292|344:280|364:252,1,100
363,253,75557,1,0,0:0:0:0:
352,76,75775,6,0,P|300:64|256:80,1,100
276,124,76101,5,0,0:0:0:0:
284,172,76209,1,0,0:0:0:0:
280,220,76318,1,0,0:0:0:0:
264,268,76427,1,0,0:0:0:0:
228,304,76536,1,0,0:0:0:0:
180,316,76644,6,0,P|140:296|128:240,1,100
126,245,76970,2,0,B|136:192|136:192|128:148|128:148|140:80,1,150
284,117,77514,6,0,L|236:104,1,50
216,148,77731,2,0,P|184:132|188:64,2,100
256,180,78275,1,0,0:0:0:0:
268,228,78383,1,0,0:0:0:0:
428,312,78601,5,0,0:0:0:0:
436,264,78709,1,0,0:0:0:0:
404,224,78818,2,0,L|416:112,1,100
208,64,79253,6,0,L|200:120,1,50
125,241,79470,2,0,L|120:192,1,50
136,144,79688,5,0,0:0:0:0:
176,112,79796,1,0,0:0:0:0:
224,100,79905,1,0,0:0:0:0:
272,108,80014,1,0,0:0:0:0:
316,132,80122,6,0,L|328:192,1,50
376,324,80340,2,0,L|388:276,1,50
388,224,80557,5,0,0:0:0:0:
356,188,80666,1,0,0:0:0:0:
308,172,80775,1,0,0:0:0:0:
260,180,80883,1,0,0:0:0:0:
216,208,80992,6,0,L|168:148,1,50
66,90,81209,2,0,L|76:140,1,50
116,172,81427,5,0,0:0:0:0:
120,220,81536,1,0,0:0:0:0:
144,264,81644,1,0,0:0:0:0:
184,292,81753,1,0,0:0:0:0:
232,296,81862,1,0,0:0:0:0:
276,276,81970,1,0,0:0:0:0:
308,236,82079,1,0,0:0:0:0:
304,184,82188,1,0,0:0:0:0:
296,136,82296,5,0,0:0:0:0:
344,132,82405,1,0,0:0:0:0:
392,148,82514,1,0,0:0:0:0:
432,180,82622,1,0,0:0:0:0:
452,224,82731,1,0,0:0:0:0:
392,304,82949,6,0,L|360:256,1,50
316,280,83166,2,0,P|304:240|360:148,1,150
372,104,83601,1,0,0:0:0:0:
372,104,83818,5,0,0:0:0:0:
268,212,84036,1,0,0:0:0:0:
124,172,84253,1,0,0:0:0:0:
124,172,84470,5,0,0:0:0:0:
148,216,84579,1,0,0:0:0:0:
164,264,84688,1,0,0:0:0:0:
164,312,84796,5,0,0:0:0:0:
212,308,84905,1,0,0:0:0:0:
256,284,85014,1,0,0:0:0:0:
288,244,85122,6,0,L|304:192,1,50
218,40,85340,1,0,0:0:0:0:
218,40,85775,2,0,B|216:108|152:32|80:104|116:164,1,150
152,148,86209,1,0,0:0:0:0:
152,148,86427,5,0,0:0:0:0:
244,184,86644,1,0,0:0:0:0:
336,220,86862,1,0,0:0:0:0:
336,220,87296,6,0,L|304:268,1,50
260,280,87514,1,0,0:0:0:0:
152,148,87731,1,0,0:0:0:0:
152,148,87949,5,0,0:0:0:0:
192,120,88057,1,0,0:0:0:0:
240,116,88166,1,0,0:0:0:0:
288,132,88275,1,0,0:0:0:0:
308,88,88383,5,0,0:0:0:0:
356,96,88491,1,0,0:0:0:0:
392,127,88600,1,0,0:0:0:0:
415,172,88709,1,0,0:0:0:0:
368,192,88818,5,0,0:0:0:0:
364,208,88927,1,0,0:0:0:0:
360,224,89036,1,0,0:0:0:0:
356,236,89144,1,0,0:0:0:0:
308,248,89253,6,0,L|296:300,1,50
144,152,89470,2,0,L|155:103,1,50
200,80,89688,1,0,0:0:0:0:
128,80,90775,6,0,B|120:116|120:116|128:148|128:148|120:196,2,100
220,116,91427,1,0,0:0:0:0:
220,116,92296,6,0,L|192:168,3,50
148,176,92731,2,0,L|149:235,3,50
176,268,93166,5,0,0:0:0:0:
452,88,93383,1,0,0:0:0:0:
124,128,93601,2,0,L|108:180,1,50
156,192,93818,2,0,P|136:224|76:232,2,100
204,176,94362,5,0,0:0:0:0:
240,208,94470,1,0,0:0:0:0:
288,224,94579,1,0,0:0:0:0:
340,224,94688,1,0,0:0:0:0:
388,212,94796,1,0,0:0:0:0:
428,184,94905,6,0,L|420:128,1,50
204,260,95122,2,0,L|211:309,1,50
284,148,95340,2,0,L|276:92,1,50
60,224,95557,2,0,L|67:273,1,50
112,296,95775,5,0,0:0:0:0:
160,308,95883,1,0,0:0:0:0:
208,296,95992,1,0,0:0:0:0:
248,264,96101,1,0,0:0:0:0:
264,216,96209,5,0,0:0:0:0:
312,228,96317,1,0,0:0:0:0:
360,216,96426,1,0,0:0:0:0:
400,184,96535,1,0,0:0:0:0:
424,140,96644,5,0,0:0:0:0:
424,52,96862,1,0,0:0:0:0:
264,216,97079,6,0,P|256:184|104:96,1,200
144,192,97731,1,0,0:0:0:0:
252,88,97949,1,0,0:0:0:0:
336,212,98166,6,0,L|360:256,1,50
336,300,98383,2,0,P|380:308|420:264,1,100
248,88,98818,2,0,P|204:79|164:124,1,100
274,263,99253,6,0,P|268:204|160:116,1,200
124,144,99796,1,0,0:0:0:0:
80,168,99905,1,0,0:0:0:0:
296,292,100122,6,0,L|308:228,1,50
201,70,100340,2,0,L|192:120,1,50
148,148,100557,5,0,0:0:0:0:
140,196,100666,1,0,0:0:0:0:
132,244,100775,1,0,0:0:0:0:
124,292,100883,1,0,0:0:0:0:
172,296,100992,6,0,L|232:280,1,50
364,123,101209,2,0,L|316:136,1,50
320,188,101427,2,0,P|280:172|248:116,1,100
79,210,101862,2,0,P|123:186|172:192,1,100
192,288,102296,5,0,0:0:0:0:
240,272,102405,1,0,0:0:0:0:
276,236,102514,1,0,0:0:0:0:
288,188,102622,1,0,0:0:0:0:
276,140,102731,2,0,L|224:108,1,50
53,153,102949,2,0,L|96:180,1,50
92,232,103166,6,0,L|116:288,3,50
156,296,103601,1,0,0:0:0:0:
156,296,104036,6,0,B|232:280|248:212|248:212|272:224|272:224|296:168,1,200
80,56,104688,1,0,0:0:0:0:
148,188,104905,1,0,0:0:0:0:
276,264,105122,5,0,0:0:0:0:
324,252,105231,1,0,0:0:0:0:
356,216,105340,1,0,0:0:0:0:
264,176,105557,2,0,P|216:180|176:224,2,100
316,92,106209,5,0,0:0:0:0:
268,80,106318,1,0,0:0:0:0:
248,128,106427,2,0,P|200:120|184:56,2,100
344,160,107079,5,0,0:0:0:0:
352,208,107188,1,0,0:0:0:0:
360,256,107296,1,0,0:0:0:0:
368,304,107405,1,0,0:0:0:0:
320,312,107514,6,0,L|256:304,1,50
408,196,107731,2,0,L|457:202,1,50
352,60,107949,1,0,0:0:0:0:
304,76,108057,1,0,0:0:0:0:
252,80,108166,1,0,0:0:0:0:
204,72,108275,1,0,0:0:0:0:
208,120,108383,6,0,L|192:180,1,50
243,304,108601,2,0,L|256:256,1,50
308,256,108818,6,0,P|296:224|224:224,1,100
144,248,109253,2,0,L|84:272,3,50
52,244,109688,1,0,0:0:0:0:
432,68,109905,1,0,0:0:0:0:
332,56,110122,5,0,0:0:0:0:
301,93,110231,1,0,0:0:0:0:
270,131,110340,1,0,0:0:0:0:
239,168,110449,1,0,0:0:0:0:
208,206,110557,1,0,0:0:0:0:
