osu file format v14

[General]
AudioFilename: okuu.mp3
AudioLeadIn: 0
PreviewTime: 64476
Countdown: 0
SampleSet: Soft
StackLeniency: 0.7
Mode: 0
LetterboxInBreaks: 0
WidescreenStoryboard: 1

[Editor]
Bookmarks: 3070,15070,27070,39070,51070,64570,76570,90070,102070,114070,127570,139570,151570,163570,175570,189070,201070,219070
DistanceSpacing: 1
BeatDivisor: 4
GridSize: 32
TimelineZoom: 1

[Metadata]
Title:Arehateta Chijou no Uta
TitleUnicode:荒れ果てた地上の唄
Artist:senya
ArtistUnicode:senya
Creator:Satellite
Version:Normal
Source:東方Project
Tags:Trust Kibbleru Giralda jonathanlfj 霊知の太陽信仰 Nuclear Fusion かませ虎 kamase-tora HiZuMi ikuo Touhou 霊烏 路空 utsuho reiuji okuu お空 eLy yuuhei 幽閉サテライト 15th 東方地霊殿 Subterranean Animism dagger-gazel 名華祭
BeatmapID:936042
BeatmapSetID:434397

[Difficulty]
HPDrainRate:4
CircleSize:3.8
OverallDifficulty:4.5
ApproachRate:5.5
SliderMultiplier:0.999999999999999
SliderTickRate:2

[Events]
//Background and Video events
0,0,"BG.png",0,0
//Break Periods
2,76770,88945
2,151770,162445
2,175770,180445
//Storyboard Layer 0 (Background)
//Storyboard Layer 1 (Fail)
//Storyboard Layer 2 (Pass)
//Storyboard Layer 3 (Foreground)
//Storyboard Sound Samples

[TimingPoints]
3070,375,4,2,1,60,1,0
28195,-100,4,2,3,50,0,0
28288,-100,4,2,1,60,0,0
30445,-100,4,2,3,50,0,0
30538,-100,4,2,1,60,0,0
34195,-100,4,2,3,50,0,0
34288,-100,4,2,1,60,0,0
36445,-100,4,2,3,50,0,0
36538,-100,4,2,1,60,0,0
40195,-100,4,2,3,50,0,0
40288,-100,4,2,1,60,0,0
42445,-100,4,2,3,50,0,0
42538,-100,4,2,1,60,0,0
43945,-100,4,2,3,50,0,0
44038,-100,4,2,1,60,0,0
46195,-100,4,2,3,50,0,0
46288,-100,4,2,1,60,0,0
48445,-100,4,2,3,50,0,0
48538,-100,4,2,1,60,0,0
103195,-100,4,2,3,50,0,0
103288,-100,4,2,1,60,0,0
105445,-100,4,2,3,50,0,0
105538,-100,4,2,1,60,0,0
109195,-100,4,2,3,50,0,0
109288,-100,4,2,1,60,0,0
111445,-100,4,2,3,50,0,0
111538,-100,4,2,1,60,0,0
132445,-100,4,2,3,50,0,0
132538,-100,4,2,1,60,0,0
145195,-100,4,2,3,50,0,0
145288,-100,4,2,1,60,0,0
148945,-100,4,2,3,50,0,0
149038,-100,4,2,1,60,0,0
166195,-100,4,2,3,50,0,0
166288,-100,4,2,1,50,0,0
187663,-100,4,2,1,5,0,0
188320,-100,4,2,1,20,0,0
188695,-100,4,2,1,90,0,0
188882,-100,4,2,1,60,0,0
189070,-100,4,2,1,90,0,1
189163,-100,4,2,1,70,0,1
194695,-100,4,2,3,60,0,1
194788,-100,4,2,1,70,0,1
201070,-100,4,2,1,70,0,0
214851,-100,4,2,1,5,0,0

[Colours]
Combo1 : 116,184,126
Combo2 : 226,73,78
Combo3 : 117,152,204
Combo4 : 222,170,73

[HitObjects]
189,234,3070,6,0,P|172:196|73:197,1,150,2|2,0:0|0:0,0:0:0:0:
41,230,3820,1,0,0:0:0:0:
77,323,4195,1,2,0:0:0:0:
175,345,4570,2,0,P|230:338|302:259,1,150,2|2,0:0|0:0,0:0:0:0:
313,227,5320,2,0,L|304:166,2,50,0|2|2,0:0|0:0|0:0,0:0:0:0:
390,289,6070,6,0,L|495:300,1,99.9999999999999,0|2,0:0|0:0,0:0:0:0:
452,206,6820,2,0,L|352:195,1,99.9999999999999,2|0,0:0|0:0,0:0:0:0:
313,227,7382,2,0,B|304:125|304:125|252:128|213:83,1,200,2|2,0:0|0:0,0:0:0:0:
190,45,8320,1,2,0:0:0:0:
136,129,8695,2,0,L|81:122,1,50
40,142,9070,6,0,B|30:57,2,74.9999999999999,2|2|2,0:0|0:0|0:0,0:0:0:0:
125,265,10195,2,0,L|118:324,1,50
133,362,10570,6,0,L|48:366,2,74.9999999999999,2|2|2,0:0|0:0|0:0,0:0:0:0:
257,278,11695,2,0,L|315:285,1,50,2|0,0:0|0:0,0:0:0:0:
344,316,12070,6,0,B|366:217|366:217|340:170,1,150,2|0,0:0|0:0,0:0:0:0:
298,149,12820,2,0,L|191:159,1,99.9999999999999,2|0,0:0|0:0,0:0:0:0:
99,173,13570,6,0,B|65:193|46:242|66:293|101:329|156:334|183:311|203:278|234:276|263:289,1,300,4|2,0:0|0:0,0:0:0:0:
349,315,15070,6,0,P|350:266|332:219,1,99.9999999999999,4|8,0:0|0:0,0:0:0:0:
295,186,15632,1,2,0:0:0:0:
295,186,15820,2,0,L|194:177,1,99.9999999999999,2|8,3:0|0:0,0:0:0:0:
99,173,16570,2,0,P|110:132|152:94,1,99.9999999999999,2|8,0:0|0:0,0:0:0:0:
243,53,17320,2,0,L|234:-3,2,50,2|2|8,3:0|0:0|0:0,0:0:0:0:
288,73,17882,1,2,0:0:0:0:
288,73,18070,6,0,L|390:87,1,99.9999999999999,2|8,3:0|0:0,0:0:0:0:
455,159,18820,2,0,L|508:147,2,50,2|2|8,3:0|0:0|0:0,0:0:0:0:
357,180,19570,2,0,P|339:226|339:280,1,99.9999999999999,2|8,3:0|0:0,0:0:0:0:
259,337,20320,2,0,P|258:287|240:240,1,99.9999999999999,4|8,0:0|0:0,0:0:0:0:
203,206,20882,1,2,0:0:0:0:
203,206,21070,6,0,L|128:197,2,74.9999999999999,6|6|6,0:0|0:0|0:0,0:0:0:0:
332,130,22195,2,0,L|341:74,1,50,8|2,0:0|0:0,0:0:0:0:
337,30,22570,6,0,L|412:39,2,74.9999999999999,6|6|6,0:0|0:0|0:0,0:0:0:0:
208,106,23695,2,0,L|199:162,1,50,8|2,0:0|0:0,0:0:0:0:
203,206,24070,6,0,P|156:186|90:192,1,99.9999999999999,4|8,0:0|0:0,0:0:0:0:
35,255,24820,1,12,0:0:0:0:
70,348,25195,1,8,0:0:0:0:
169,355,25570,2,0,L|180:303,2,50,2|0|4,3:0|0:0|0:0,0:0:0:0:
255,305,26320,2,0,L|238:254,2,50,2|0|4,3:0|0:0|0:0,0:0:0:0:
303,217,27070,6,0,P|265:186|203:189,1,99.9999999999999,4|8,0:0|0:0,0:0:0:0:
135,244,27820,1,0,0:0:0:0:
135,244,28007,2,0,B|115:199|115:199|121:138,1,99.9999999999999
127,98,28570,2,0,P|176:96|214:65,1,99.9999999999999,2|8,3:0|0:0,0:0:0:0:
233,19,29132,2,0,L|334:26,1,99.9999999999999
367,62,29695,2,0,L|423:51,1,50,8|0,0:0|0:0,0:0:0:0:
457,23,30070,6,0,B|417:137|489:101|457:217,1,200,2|4,3:0|0:0,0:0:0:0:
412,279,31101,2,0,P|387:251|380:215,1,74.9999999999999,4|4,0:0|0:0,0:0:0:0:
383,166,31570,6,0,L|275:176,1,99.9999999999999,4|8,0:0|0:0,0:0:0:0:
214,247,32320,1,2,3:0:0:0:
185,151,32695,1,8,0:0:0:0:
118,225,33070,6,0,P|117:264|145:318,1,99.9999999999999,4|8,0:0|0:0,0:0:0:0:
241,342,33820,1,2,3:0:0:0:
241,342,34007,2,0,L|347:336,1,99.9999999999999
380,367,34570,2,0,L|390:256,1,99.9999999999999,2|8,3:0|0:0,0:0:0:0:
425,233,35132,2,0,L|325:238,1,99.9999999999999
285,207,35695,2,0,L|280:157,1,50,8|0,0:0|0:0,0:0:0:0:
299,110,36070,6,0,B|185:150|221:78|105:110,1,200,2|2,3:0|3:0,0:0:0:0:
40,186,37195,2,0,L|47:254,1,50,8|0,0:0|0:0,0:0:0:0:
31,284,37570,5,4,0:0:0:0:
129,267,37945,1,8,0:0:0:0:
209,326,38320,1,2,3:0:0:0:
307,309,38695,1,8,0:0:0:0:
387,368,39070,6,0,P|405:323|394:262,1,99.9999999999999,4|8,0:0|0:0,0:0:0:0:
322,208,39820,1,2,3:0:0:0:
322,208,40007,2,0,L|217:224,1,99.9999999999999
175,206,40570,2,0,P|157:161|168:100,1,99.9999999999999,2|8,3:0|0:0,0:0:0:0:
197,74,41132,2,0,L|295:58,1,99.9999999999999
338,33,41695,2,0,L|390:45,1,50,8|0,0:0|0:0,0:0:0:0:
435,34,42070,6,0,B|419:91|419:91|435:127|435:127|451:163|451:163|435:223,1,200,2|2,3:0|3:0,0:0:0:0:
365,250,43101,2,0,L|383:322,1,74.9999999999999,2|2,3:0|3:0,0:0:0:0:
419,358,43570,6,0,L|212:331,1,200,4|2,0:0|3:0,0:0:0:0:
151,259,44695,2,0,L|96:278,1,50,8|0,0:0|0:0,0:0:0:0:
67,309,45070,6,0,L|56:209,1,99.9999999999999,4|8,0:0|0:0,0:0:0:0:
45,110,45820,1,2,3:0:0:0:
45,110,46007,2,0,P|70:85|141:76,1,99.9999999999999
176,96,46570,2,0,L|187:196,1,99.9999999999999,0|8,0:0|0:0,0:0:0:0:
218,233,47132,2,0,P|267:228|304:196,1,99.9999999999999
327,151,47695,2,0,L|382:163,1,50,8|0,0:0|0:0,0:0:0:0:
414,129,48070,6,0,B|434:228|434:228|409:275,2,150,4|4|8,0:0|0:0|0:0,0:0:0:0:
345,56,49570,2,0,P|294:41|240:55,1,99.9999999999999,2|8,3:0|0:0,0:0:0:0:
207,141,50320,2,0,L|217:202,2,50,2|0|8,3:0|0:0|0:0,0:0:0:0:
170,107,50882,1,0,0:0:0:0:
170,107,51070,6,0,L|68:98,1,99.9999999999999,4|8,0:0|0:0,0:0:0:0:
7,176,51820,2,0,P|3:215|28:277,1,99.9999999999999,0|8,0:0|0:0,0:0:0:0:
66,297,52382,1,0,0:0:0:0:
66,297,52570,2,0,L|59:347,2,50,2|0|8,3:0|0:0|0:0,0:0:0:0:
142,233,53320,2,0,L|135:183,2,50,0|0|8,0:0|0:0|0:0,0:0:0:0:
154,332,54070,6,0,L|253:323,1,99.9999999999999,4|8,0:0|0:0,0:0:0:0:
297,347,54632,1,2,3:0:0:0:
297,347,54820,2,0,L|306:239,1,99.9999999999999,2|8,3:0|0:0,0:0:0:0:
239,171,55570,6,0,P|208:175|161:112,1,99.9999999999999,2|8,3:0|0:0,0:0:0:0:
166,80,56132,2,0,P|185:55|262:66,1,99.9999999999999,2|0,3:0|0:0,0:0:0:0:
284,90,56695,1,8,0:0:0:0:
363,29,57070,6,0,P|377:53|373:131,1,99.9999999999999,4|8,0:0|0:0,0:0:0:0:
348,164,57632,1,2,3:0:0:0:
348,164,57820,2,0,L|246:179,1,99.9999999999999,2|8,3:0|0:0,0:0:0:0:
168,118,58570,6,0,P|154:142|158:220,1,99.9999999999999,4|8,0:0|0:0,0:0:0:0:
183,253,59132,1,2,3:0:0:0:
183,253,59320,2,0,L|285:268,1,99.9999999999999,2|8,3:0|0:0,0:0:0:0:
368,216,60070,6,0,P|399:212|446:275,1,99.9999999999999,2|8,3:0|0:0,0:0:0:0:
441,307,60632,2,0,P|421:331|344:320,1,99.9999999999999,2|0,3:0|0:0,0:0:0:0:
323,297,61195,1,8,0:0:0:0:
261,217,61570,6,0,L|272:160,2,50,2|0|8,3:0|0:0|0:0,0:0:0:0:
216,306,62320,2,0,L|225:355,2,50,0|0|8,3:0|0:0|0:0,0:0:0:0:
155,226,63070,6,0,L|36:217,1,99.9999999999999,2|2,0:0|0:0,0:0:0:0:
84,122,63820,2,0,L|33:118,2,50,2|0|2,0:0|0:0|0:0,0:0:0:0:
132,111,64382,1,2,0:0:0:0:
171,80,64570,6,0,L|177:181,1,99.9999999999999,4|8,0:0|0:0,0:0:0:0:
158,226,65132,2,0,L|259:232,1,99.9999999999999,2|2,0:0|0:0,0:0:0:0:
301,256,65695,2,0,L|306:207,1,50,8|2,0:0|0:0,0:0:0:0:
294,157,66070,6,0,L|395:163,1,99.9999999999999,4|8,0:0|0:0,0:0:0:0:
440,144,66632,2,0,L|446:245,1,99.9999999999999,2|2,0:0|0:0,0:0:0:0:
470,287,67195,2,0,L|421:292,1,50,8|2,0:0|0:0,0:0:0:0:
379,320,67570,5,4,0:0:0:0:
301,256,67945,1,10,0:0:0:0:
279,353,68320,1,2,3:0:0:0:
279,353,68507,1,4,0:0:0:0:
279,353,68882,6,0,L|161:337,1,99.9999999999999,4|0,0:0|0:0,0:0:0:0:
133,358,69445,1,8,0:0:0:0:
39,323,69820,2,0,P|20:280|33:223,1,99.9999999999999,4|8,0:0|0:0,0:0:0:0:
62,192,70382,1,0,0:0:0:0:
106,168,70570,6,0,B|101:81,2,74.9999999999999,4|4|4,0:0|0:0|0:0,0:0:0:0:
204,185,71507,2,0,L|200:112,2,50,0|2|0,0:0|0:0|0:0,0:0:0:0:
235,224,72070,6,0,B|230:311,2,74.9999999999999,4|4|4,0:0|0:0|0:0,0:0:0:0:
333,207,73007,2,0,L|329:280,2,50,0|2|0,0:0|0:0|0:0,0:0:0:0:
313,160,73570,5,4,0:0:0:0:
381,87,73945,1,8,0:0:0:0:
466,138,74320,2,0,P|480:187|477:239,1,99.9999999999999,4|8,0:0|0:0,0:0:0:0:
450,277,74882,1,0,0:0:0:0:
450,277,75070,6,0,L|351:282,1,99.9999999999999,2|8,3:0|0:0,0:0:0:0:
283,356,75820,2,0,L|184:351,1,99.9999999999999,2|8,3:0|0:0,0:0:0:0:
100,295,76570,5,4,0:0:0:0:
100,295,90070,6,0,L|201:289,1,99.9999999999999,2|2,3:0|0:0,0:0:0:0:
274,355,90820,1,0,0:0:0:0:
274,355,91007,2,0,B|297:308|297:308|291:257,1,99.9999999999999,2|2,0:0|0:0,0:0:0:0:
282,211,91570,2,0,L|180:201,1,99.9999999999999,0|2,0:0|0:0,0:0:0:0:
141,172,92132,2,0,P|126:143|141:73,1,99.9999999999999,0|2,0:0|0:0,0:0:0:0:
179,52,92695,2,0,L|235:56,1,50,2|0,0:0|0:0,0:0:0:0:
271,25,93070,6,0,B|260:103|260:103|291:134|291:134|281:215,2,200,2|0|2,0:0|0:0|0:0,0:0:0:0:
360,203,95320,2,0,P|353:247|303:288,1,99.9999999999999,0|2,0:0|0:0,0:0:0:0:
264,289,95882,1,0,0:0:0:0:
264,289,96070,6,0,L|152:279,1,99.9999999999999,4|2,0:0|0:0,0:0:0:0:
123,309,96632,1,2,0:0:0:0:
32,267,97007,2,0,P|19:218|39:171,1,99.9999999999999,2|0,0:0|0:0,0:0:0:0:
71,138,97570,6,0,L|170:146,1,99.9999999999999,2|0,0:0|0:0,0:0:0:0:
211,118,98132,2,0,L|221:224,1,99.9999999999999,2|0,0:0|0:0,0:0:0:0:
260,247,98695,2,0,L|320:252,1,50,2|0,0:0|0:0,0:0:0:0:
345,286,99070,5,0,3:0:0:0:
345,286,99445,1,0,3:0:0:0:
436,246,99820,1,0,3:0:0:0:
436,246,100195,1,0,3:0:0:0:
392,155,100570,2,0,L|409:103,2,50,2|0|2,3:0|0:0|3:0,0:0:0:0:
300,195,101320,2,0,L|250:181,2,50,2|0|2,3:0|0:0|3:0,0:0:0:0:
334,230,101882,1,2,3:0:0:0:
334,230,102070,6,0,P|337:282|317:328,1,99.9999999999999,4|8,0:0|0:0,0:0:0:0:
233,377,102820,1,0,0:0:0:0:
233,377,103007,2,0,L|130:369,1,99.9999999999999
83,364,103570,2,0,P|65:324|77:257,1,99.9999999999999,2|8,3:0|0:0,0:0:0:0:
97,226,104132,2,0,L|196:233,1,99.9999999999999
243,214,104695,2,0,L|248:154,1,50,8|0,0:0|0:0,0:0:0:0:
233,116,105070,6,0,B|347:156|311:84|427:116,1,200,2|4,3:0|0:0,0:0:0:0:
489,161,106101,2,0,P|461:186|425:193,1,74.9999999999999,4|4,0:0|0:0,0:0:0:0:
376,190,106570,6,0,L|386:298,1,99.9999999999999,4|8,0:0|0:0,0:0:0:0:
323,368,107320,1,0,0:0:0:0:
236,317,107695,2,0,L|243:261,1,50,8|0,0:0|0:0,0:0:0:0:
271,226,108070,6,0,L|166:218,1,99.9999999999999,4|8,0:0|0:0,0:0:0:0:
94,282,108820,1,0,0:0:0:0:
94,282,109007,2,0,P|77:248|79:182,1,99.9999999999999
100,142,109570,2,0,L|199:134,1,99.9999999999999,2|8,3:0|0:0,0:0:0:0:
234,98,110132,2,0,L|246:216,1,99.9999999999999
279,233,110695,2,0,L|330:228,1,50,8|0,0:0|0:0,0:0:0:0:
376,212,111070,6,0,P|426:252|347:328,1,200,2|2,3:0|3:0,0:0:0:0:
278,312,112101,2,0,P|241:319|201:350,1,74.9999999999999,2|2,3:0|3:0,0:0:0:0:
173,373,112570,6,0,P|164:326|158:269,1,99.9999999999999,4|8,0:0|0:0,0:0:0:0:
172,174,113320,1,2,3:0:0:0:
254,230,113695,2,0,L|305:226,1,50,8|0,0:0|0:0,0:0:0:0:
352,216,114070,6,0,P|378:174|366:117,1,99.9999999999999,4|8,0:0|0:0,0:0:0:0:
341,85,114632,2,0,L|236:93,1,99.9999999999999,2|2,3:0|3:0,0:0:0:0:
191,99,115195,1,8,0:0:0:0:
123,25,115570,6,0,P|99:55|94:129,1,99.9999999999999,2|8,3:0|0:0,0:0:0:0:
111,159,116132,1,2,3:0:0:0:
145,194,116320,2,0,L|246:189,1,99.9999999999999,2|8,3:0|0:0,0:0:0:0:
312,115,117070,6,0,P|336:145|341:219,1,99.9999999999999,2|8,3:0|0:0,0:0:0:0:
324,249,117632,1,2,3:0:0:0:
290,284,117820,2,0,L|189:279,1,99.9999999999999,2|8,3:0|0:0,0:0:0:0:
90,273,118570,6,0,P|64:231|75:174,1,99.9999999999999,4|8,0:0|0:0,0:0:0:0:
101,142,119132,2,0,L|206:150,1,99.9999999999999,2|2,3:0|3:0,0:0:0:0:
251,156,119695,1,8,0:0:0:0:
319,83,120070,6,0,L|314:30,2,50,4|0|8,0:0|0:0|0:0,0:0:0:0:
350,178,120820,2,0,L|345:231,2,50,2|0|8,3:0|0:0|0:0,0:0:0:0:
418,104,121570,1,2,3:0:0:0:
447,199,121945,1,8,0:0:0:0:
447,199,122132,2,0,B|441:261|441:261|410:286,1,99.9999999999999,2|2,3:0|3:0,0:0:0:0:
369,311,122695,1,8,0:0:0:0:
277,270,123070,6,0,L|267:165,1,99.9999999999999,2|8,3:0|0:0,0:0:0:0:
291,126,123632,2,0,L|186:113,1,99.9999999999999,2|2,3:0|3:0,0:0:0:0:
149,140,124195,1,8,0:0:0:0:
64,194,124570,6,0,L|49:140,2,50,2|0|2,3:0|0:0|3:0,0:0:0:0:
154,238,125320,2,0,L|139:292,2,50,2|0|2,0:3|0:0|0:3,0:0:0:0:
239,186,126070,6,0,P|248:132|230:76,1,99.9999999999999,2|0,0:0|0:0,0:0:0:0:
148,41,126820,2,0,B|91:46|53:21|53:21|62:50|62:72,1,150,2|2,0:0|0:0,0:0:0:0:
39,116,127570,6,0,B|42:178|42:178|74:211,1,99.9999999999999,4|8,0:0|0:0,0:0:0:0:
105,238,128132,2,0,P|133:226|204:228,1,99.9999999999999,2|2,0:0|0:0,0:0:0:0:
244,253,128695,2,0,L|249:306,1,50,8|2,0:0|0:0,0:0:0:0:
238,351,129070,6,0,L|346:341,1,99.9999999999999,2|8,3:0|0:0,0:0:0:0:
383,361,129632,2,0,B|393:293|393:293|376:256,1,99.9999999999999,2|2,0:0|0:0,0:0:0:0:
342,231,130195,2,0,L|288:239,1,50,8|2,0:0|0:0,0:0:0:0:
244,253,130570,6,0,P|231:205|234:146,1,99.9999999999999,2|8,3:0|0:0,0:0:0:0:
282,68,131320,2,0,P|324:67|363:50,1,74.9999999999999,4|4,0:0|0:0,0:0:0:0:
405,0,131882,6,0,P|383:46|457:169,1,200,4|2,0:0|0:0,0:0:0:0:
495,148,132820,2,0,L|482:248,1,99.9999999999999,4|8,0:0|0:0,0:0:0:0:
476,297,133382,1,8,0:0:0:0:
476,297,133570,6,0,P|441:284|387:286,1,74.9999999999999,4|4,0:0|0:0,0:0:0:0:
343,327,134132,2,0,P|347:280|330:223,1,99.9999999999999,2|2,0:0|0:0,0:0:0:0:
292,200,134695,2,0,L|297:145,1,50,8|0,0:0|0:0,0:0:0:0:
301,100,135070,6,0,P|339:106|384:109,2,74.9999999999999,4|4|4,0:0|0:0|0:0,0:0:0:0:
258,72,135820,1,6,0:0:0:0:
176,129,136195,2,0,L|171:178,1,50,8|8,0:0|0:0,0:0:0:0:
167,228,136570,6,0,P|127:219|65:244,1,99.9999999999999,4|8,0:0|0:0,0:0:0:0:
57,285,137132,1,0,0:0:0:0:
80,329,137320,2,0,P|120:338|182:313,1,99.9999999999999,2|8,3:0|0:0,0:0:0:0:
263,363,138070,5,4,0:0:0:0:
261,263,138445,1,4,0:0:0:0:
259,163,138820,1,4,0:0:0:0:
257,63,139195,1,4,0:0:0:0:
172,116,139570,6,0,P|159:162|178:220,1,99.9999999999999,4|8,0:0|0:0,0:0:0:0:
207,246,140132,2,0,L|314:250,1,99.9999999999999,2|2,0:0|0:0,0:0:0:0:
354,265,140695,2,0,L|357:204,1,50,8|2,0:0|0:0,0:0:0:0:
358,166,141070,6,0,L|258:162,1,99.9999999999999,4|8,0:0|0:0,0:0:0:0:
215,188,141632,2,0,P|198:220|203:285,1,99.9999999999999,2|2,0:0|0:0,0:0:0:0:
226,325,142195,2,0,L|280:327,1,50,8|2,0:0|0:0,0:0:0:0:
316,356,142570,5,4,0:0:0:0:
354,265,142945,1,10,0:0:0:0:
436,321,143320,1,2,3:0:0:0:
436,321,143507,1,4,0:0:0:0:
436,321,143882,6,0,P|449:286|436:207,1,99.9999999999999,4|2,0:0|0:0,0:0:0:0:
413,184,144445,1,8,0:0:0:0:
354,265,144820,2,0,B|265:272|291:218|203:226,1,150,4|2,0:0|0:0,0:0:0:0:
171,252,145570,6,0,B|166:339,2,74.9999999999999,4|4|4,0:0|0:0|0:0,0:0:0:0:
121,242,146320,2,0,P|88:205|94:153,1,99.9999999999999,2|4,3:0|0:0,0:0:0:0:
170,95,147070,6,0,B|175:8,2,74.9999999999999,4|4|4,0:0|0:0|0:0,0:0:0:0:
220,105,147820,2,0,P|253:142|247:194,1,99.9999999999999,2|4,3:0|0:0,0:0:0:0:
171,252,148570,6,0,B|269:274|269:274|325:228,1,150,4|2,0:0|0:0,0:0:0:0:
343,208,149320,2,0,L|357:312,1,99.9999999999999,4|8,0:0|0:0,0:0:0:0:
433,370,150070,6,0,P|449:339|445:268,1,99.9999999999999,4|8,0:0|0:0,0:0:0:0:
507,192,150820,2,0,P|496:159|443:112,1,99.9999999999999,2|8,3:0|0:0,0:0:0:0:
434,15,151570,5,4,0:0:0:0:
138,53,163570,6,0,P|120:99|129:157,1,99.9999999999999,4|8,0:0|0:0,0:0:0:0:
155,188,164132,1,2,0:0:0:0:
155,188,164320,2,0,L|256:193,1,99.9999999999999,2|8,3:0|0:0,0:0:0:0:
338,136,165070,6,0,P|356:182|347:240,1,99.9999999999999,4|8,0:0|0:0,0:0:0:0:
321,271,165632,1,2,0:0:0:0:
271,277,165820,2,0,L|262:360,2,74.9999999999999,2|2|2,3:0|0:0|0:0,0:0:0:0:
230,247,166570,6,0,L|179:245,1,50,2|2,1:0|0:0,0:0:0:0:
147,282,166945,2,0,L|96:280,1,50,2|2,1:0|0:0,0:0:0:0:
60,313,167320,2,2,B|51:264|51:264|62:216|62:216|53:162,1,150,2|2,1:0|0:0,1:0:0:0:
26,123,168070,6,0,L|128:132,1,99.9999999999999,2|8,3:0|0:0,0:0:0:0:
166,102,168632,1,2,0:0:0:0:
166,102,168820,2,0,L|174:214,1,99.9999999999999,2|8,3:0|0:0,0:0:0:0:
184,301,169570,6,2,B|239:294|265:247|265:247|291:365,1,200,2|2,1:0|3:0,1:0:0:0:
379,380,170695,1,8,0:0:0:0:
449,309,171070,2,0,P|407:282|359:279,1,99.9999999999999,2|2,3:0|1:0,0:0:0:0:
284,210,171820,2,0,P|326:183|374:180,1,99.9999999999999,2|2,3:0|1:0,0:0:0:0:
423,191,172382,1,2,1:0:0:0:
466,215,172570,6,0,B|474:145|474:145|458:114,1,99.9999999999999,2|6,3:0|0:0,0:0:0:0:
362,97,173320,2,0,B|370:27|370:27|354:-4,1,99.9999999999999,2|6,3:0|0:0,0:0:0:0:
273,56,174070,6,0,L|222:58,1,50,2|2,1:0|0:0,0:0:0:0:
188,94,174445,2,0,L|137:96,1,50,2|2,1:0|0:0,0:0:0:0:
97,126,174820,2,2,B|88:175|88:175|99:223|99:223|90:277,1,150,2|2,1:0|0:0,1:0:0:0:
82,322,175570,5,2,0:0:0:0:
82,322,181570,5,4,0:0:0:0:
470,226,183070,2,0,B|481:181|481:181|473:148,2,74.9999999999999,4|4|4,0:0|0:0|0:0,0:0:0:0:
273,380,184570,6,0,L|263:280,1,99.9999999999999,4|2,0:0|0:0,0:0:0:0:
176,230,185320,2,0,L|186:130,1,99.9999999999999,4|2,0:0|0:0,0:0:0:0:
253,57,186070,6,0,L|317:47,1,50,4|2,0:0|0:0,0:0:0:0:
347,71,186445,2,0,L|411:61,1,50,4|2,0:0|0:0,0:0:0:0:
436,33,186820,2,0,L|446:152,1,99.9999999999999,4|4,0:0|0:0,0:0:0:0:
499,216,187570,6,0,B|385:256|421:184|305:216,1,200,2|2,0:0|0:0,0:0:0:0:
222,273,188695,2,0,L|213:329,1,50,6|0,0:0|0:0,0:0:0:0:
182,361,189070,6,0,L|67:353,1,99.9999999999999,6|8,0:0|0:0,0:0:0:0:
36,374,189632,2,0,L|27:269,1,99.9999999999999,2|2,0:0|0:0,0:0:0:0:
57,234,190195,2,0,L|111:237,1,50,8|2,0:0|0:0,0:0:0:0:
149,209,190570,6,0,L|158:104,1,99.9999999999999,2|8,3:0|0:0,0:0:0:0:
133,65,191132,2,0,L|248:57,1,99.9999999999999,2|2,0:0|0:0,0:0:0:0:
276,34,191695,2,0,L|279:95,1,50,8|2,0:0|0:0,0:0:0:0:
283,133,192070,5,4,0:0:0:0:
374,173,192445,1,2,0:0:0:0:
416,82,192820,1,2,3:0:0:0:
416,82,193007,1,4,0:0:0:0:
416,82,193382,6,0,P|448:99|474:158,1,99.9999999999999,4|2,0:0|0:0,0:0:0:0:
468,204,193945,1,8,0:0:0:0:
374,173,194320,2,0,B|293:162|320:208|230:195,1,150,4|0,0:0|0:0,0:0:0:0:
186,169,195070,6,0,L|173:256,1,74.9999999999999,4|4,0:0|0:0,0:0:0:0:
105,271,195632,2,0,B|130:337|130:337|210:348,1,150,4|4,0:0|0:0,0:0:0:0:
302,384,196570,6,0,P|307:353|299:305,1,74.9999999999999,4|4,0:0|0:0,0:0:0:0:
263,245,197132,2,0,B|303:228|327:237|353:256|353:256|367:229|372:199,1,150,4|4,0:0|0:0,0:0:0:0:
374,155,197882,1,2,0:0:0:0:
347,112,198070,5,4,0:0:0:0:
259,160,198445,1,8,0:0:0:0:
259,160,198632,2,0,P|218:158|169:115,1,99.9999999999999,2|2,0:0|0:0,0:0:0:0:
153,76,199195,2,0,L|98:83,1,50,8|2,0:0|0:0,0:0:0:0:
56,63,199570,6,0,L|48:120,1,50,4|2,0:0|0:0,0:0:0:0:
72,156,199945,2,0,L|64:213,1,50,4|2,0:0|0:0,0:0:0:0:
34,245,200320,6,0,L|197:234,1,150,4|2,0:0|0:0,0:0:0:0:
220,201,201070,6,0,L|230:304,1,99.9999999999999,4|8,0:0|0:0,0:0:0:0:
265,335,201632,1,2,0:0:0:0:
265,335,201820,2,0,L|367:342,1,99.9999999999999,2|8,3:0|0:0,0:0:0:0:
437,273,202570,6,0,L|427:170,1,99.9999999999999,4|8,0:0|0:0,0:0:0:0:
392,139,203132,1,2,0:0:0:0:
392,139,203320,2,0,L|290:132,1,99.9999999999999,2|8,3:0|0:0,0:0:0:0:
220,201,204070,5,4,0:0:0:0:
196,103,204445,1,2,0:0:0:0:
126,175,204820,1,2,3:0:0:0:
126,175,205007,1,4,0:0:0:0:
126,175,205382,6,0,P|121:221|153:278,1,99.9999999999999,4|2,0:0|0:0,0:0:0:0:
187,292,205945,2,0,L|249:297,1,50,8|2,0:0|0:0,0:0:0:0:
273,330,206320,2,0,L|335:325,1,50,2|2,3:0|0:0,0:0:0:0:
358,290,206695,2,0,L|420:295,1,50,8|2,0:0|0:0,0:0:0:0:
448,323,207070,6,0,L|458:236,1,74.9999999999999,4|4,0:0|0:0,0:0:0:0:
492,182,207632,2,0,P|450:173|391:211,1,99.9999999999999,4|2,0:0|0:0,0:0:0:0:
379,243,208195,2,0,L|325:238,1,50,4|2,0:0|0:0,0:0:0:0:
286,264,208570,6,0,L|278:179,1,74.9999999999999,4|4,0:0|0:0,0:0:0:0:
341,147,209132,2,0,B|316:104|316:104|259:95,1,99.9999999999999,4|2,0:0|0:0,0:0:0:0:
228,63,209695,2,0,L|177:74,1,50,4|2,0:0|0:0,0:0:0:0:
133,53,210070,6,0,L|124:161,1,99.9999999999999,4|8,0:0|0:0,0:0:0:0:
86,185,210632,1,2,0:0:0:0:
86,185,210820,2,0,L|95:293,1,99.9999999999999,4|8,0:0|0:0,0:0:0:0:
131,317,211382,1,2,0:0:0:0:
179,302,211570,6,0,L|228:306,1,50,4|2,0:0|0:0,0:0:0:0:
266,273,211945,2,0,L|315:277,1,50,4|2,0:0|0:0,0:0:0:0:
351,312,212320,2,0,L|359:209,1,99.9999999999999,4|4,0:0|0:0,0:0:0:0:
363,162,212882,1,2,0:0:0:0:
363,162,213070,6,0,L|314:166,1,50,4|2,0:0|0:0,0:0:0:0:
276,133,213445,2,0,L|227:137,1,50,4|2,0:0|0:0,0:0:0:0:
191,172,213820,2,0,L|183:69,1,99.9999999999999,4|4,0:0|0:0,0:0:0:0:
174,23,214382,6,0,P|140:15|91:61,1,99.9999999999999,2|6,0:0|0:0,0:0:0:0:
256,192,214851,12,0,219070,0:0:0:0:
