osu file format v14

[General]
AudioFilename: okuu.mp3
AudioLeadIn: 0
PreviewTime: 64476
Countdown: 0
SampleSet: Soft
StackLeniency: 0.7
Mode: 0
LetterboxInBreaks: 0
WidescreenStoryboard: 1

[Editor]
Bookmarks: 3070,15070,27070,39070,51070,64570,76570,90070,102070,114070,127570,139570,151570,163570,175570,181570,189070,201070,219070
DistanceSpacing: 1.7
BeatDivisor: 4
GridSize: 32
TimelineZoom: 1.7

[Metadata]
Title:Arehateta Chijou no Uta
TitleUnicode:荒れ果てた地上の唄
Artist:senya
ArtistUnicode:senya
Creator:Satellite
Version:Collab
Source:東方Project
Tags:Trust Kibbleru Giralda jonathanlfj 霊知の太陽信仰 Nuclear Fusion かませ虎 kamase-tora HiZuMi ikuo Touhou 霊烏 路空 utsuho reiuji okuu お空 eLy yuuhei 幽閉サテライト 15th 東方地霊殿 Subterranean Animism dagger-gazel 名華祭
BeatmapID:936035
BeatmapSetID:434397

[Difficulty]
HPDrainRate:7.5
CircleSize:4
OverallDifficulty:8.2
ApproachRate:9
SliderMultiplier:1.7
SliderTickRate:1

[Events]
//Background and Video events
0,0,"BG.png",0,0
//Break Periods
2,175770,180970
//Storyboard Layer 0 (Background)
//Storyboard Layer 1 (Fail)
//Storyboard Layer 2 (Pass)
//Storyboard Layer 3 (Foreground)
Sprite,Foreground,Centre,"SB/black.png",320,240 S,0,1570,,0.7439996 R,0,1570,,-0.2559997 F,0,1570,3070,0,1 M,0,1570,175945,501,416 F,0,3070,219070,1,0.998 F,0,219070,219820,0.998,0
Sprite,Foreground,Centre,"SB/Satellite.png",320,240 M,0,2882,3069,856,321,591,392 M,0,3069,14507,591,392,425,434 R,0,3070,,-0.2559997 M,0,14507,14882,425,434,-11,544
Sprite,Foreground,Centre,"SB/jonathanlfj.png",320,240 M,0,14882,15069,855,324,605,390 M,0,15069,26507,605,390,453,431 S,0,15070,,0.8603635 R,0,15070,,-0.2559997 M,0,26507,26882,453,431,91,526
Sprite,Foreground,Centre,"SB/Satellite.png",320,240 M,0,26882,27069,856,321,591,392 M,0,27069,38507,591,392,425,434 R,0,27070,,-0.2559997 M,0,38507,38882,425,434,-11,544
Sprite,Foreground,Centre,"SB/jonathanlfj.png",320,240 M,0,38882,39069,855,324,605,390 M,0,39069,50507,605,390,453,431 S,0,39070,,0.8603635 R,0,39070,,-0.2559997 M,0,50507,50882,453,431,91,526
Sprite,Foreground,Centre,"SB/Satellite.png",320,240 M,0,50882,51069,856,321,591,392 M,0,51069,64007,591,392,425,434 R,0,51070,,-0.2559997 M,0,64007,64382,425,434,12,541
Sprite,Foreground,Centre,"SB/jonathanlfj.png",320,240 M,0,64382,64569,855,324,605,390 M,0,64569,76007,605,390,453,431 S,0,64570,,0.8603635 R,0,64570,,-0.2559997 M,0,76007,76382,453,431,91,526
Sprite,Foreground,Centre,"SB/Satellite.png",320,240 M,0,76382,76569,856,321,591,392 M,0,76569,89507,591,392,425,434 R,0,76570,,-0.2559997 M,0,89507,89882,425,434,12,541
Sprite,Foreground,Centre,"SB/jonathanlfj.png",320,240 M,0,89882,90069,855,324,605,390 M,0,90069,101507,605,390,453,431 S,0,90070,,0.8603635 R,0,90070,,-0.2559997 M,0,101507,101882,453,431,91,526
Sprite,Foreground,Centre,"SB/Satellite.png",320,240 M,0,101882,102069,856,321,591,392 M,0,102069,113507,591,392,425,434 R,0,102070,,-0.2559997 M,0,113507,113882,425,434,-11,544
Sprite,Foreground,Centre,"SB/jonathanlfj.png",320,240 M,0,113882,114069,855,324,605,390 M,0,114069,127007,605,390,453,431 S,0,114070,,0.8603635 R,0,114070,,-0.2559997 M,0,127007,127382,453,431,49,537
Sprite,Foreground,Centre,"SB/Satellite.png",320,240 M,0,127382,127569,856,321,591,392 M,0,127569,139007,591,392,425,434 R,0,127570,,-0.2559997 M,0,139007,139382,425,434,-11,544
Sprite,Foreground,Centre,"SB/jonathanlfj.png",320,240 M,0,139382,139569,855,324,605,390 M,0,139569,151007,605,390,453,431 S,0,139570,,0.8603635 R,0,139570,,-0.2559997 M,0,151007,151382,453,431,91,526
Sprite,Foreground,Centre,"SB/Satellite.png",320,240 M,0,151382,151569,856,321,591,392 M,0,151569,163007,591,392,425,434 R,0,151570,,-0.2559997 M,0,163007,163382,425,434,-11,544
Sprite,Foreground,Centre,"SB/jonathanlfj.png",320,240 M,0,163382,163569,855,324,605,390 M,0,163569,175007,605,390,453,431 S,0,163570,,0.8603635 R,0,163570,,-0.2559997 M,0,175007,175382,453,431,91,526
Sprite,Foreground,Centre,"SB/Satellite.png",320,240 M,0,181382,181569,856,321,591,392 M,0,181569,188507,591,392,425,434 R,0,181570,,-0.2559997 M,0,188507,188882,425,434,53,535
Sprite,Foreground,Centre,"SB/jonathanlfj.png",320,240 M,0,188882,189069,855,324,605,390 M,0,189069,200507,605,390,453,431 S,0,189070,,0.8603635 R,0,189070,,-0.2559997 M,0,200507,200882,453,431,91,526
Sprite,Foreground,Centre,"SB/Satellite.png",320,240 M,0,200882,201069,856,321,591,392 M,0,201069,218507,591,392,425,434 R,0,201070,,-0.2559997 M,0,218507,218882,425,434,34,540
Sprite,Foreground,Centre,"SB/Break.png",320,240 M,0,175382,175569,901,308,594,390 M,0,175569,181007,594,390,439,433 S,0,175570,,0.8952729 R,0,175570,,-0.2559997 M,0,181007,181382,439,433,60,533
//Storyboard Sound Samples

[TimingPoints]
3070,375,4,2,1,60,1,0
3070,-133.333333333333,4,2,1,60,0,0
15070,-100,4,2,1,70,0,0
21070,-83.3333333333333,4,2,1,80,0,0
21257,-83.3333333333333,4,2,1,5,0,0
21351,-83.3333333333333,4,2,1,80,0,0
21538,-83.3333333333333,4,2,1,5,0,0
21632,-83.3333333333333,4,2,1,70,0,0
22757,-83.3333333333333,4,2,1,5,0,0
22851,-83.3333333333333,4,2,1,80,0,0
23038,-83.3333333333333,4,2,1,5,0,0
23132,-83.3333333333333,4,2,1,70,0,0
24070,-100,4,2,1,60,0,0
63070,-100,4,2,1,70,0,0
63820,-100,4,2,1,80,0,0
64570,-100,4,2,1,85,0,1
64757,-100,4,2,1,75,0,0
68882,-125,4,2,1,70,0,0
69445,-100,4,2,1,40,0,0
69820,-100,4,2,1,50,0,0
70195,-100,4,2,1,60,0,0
70570,-83.3333333333333,4,2,1,70,0,0
71320,-100,4,2,1,70,0,0
72070,-83.3333333333333,4,2,1,70,0,0
72820,-100,4,2,1,70,0,0
76570,-100,4,2,1,75,0,0
88570,-133.333333333333,4,2,1,60,0,0
89320,-200,4,2,1,60,0,0
89343,-200,4,2,1,5,0,0
90070,-125,4,2,1,60,0,0
93070,-125,4,2,1,20,0,0
93445,-125,4,2,1,25,0,0
93820,-125,4,2,1,30,0,0
94195,-125,4,2,1,35,0,0
94570,-125,4,2,1,40,0,0
94945,-125,4,2,1,45,0,0
95320,-125,4,2,1,50,0,0
95695,-125,4,2,1,55,0,0
96070,-125,4,2,1,60,0,0
102070,-100,4,2,1,60,0,0
114070,-100,4,2,1,50,0,0
127570,-100,4,2,1,85,0,1
127757,-100,4,2,1,75,0,0
131882,-133.333333333333,4,2,1,60,0,0
132445,-100,4,2,1,60,0,0
139570,-100,4,2,1,70,0,0
143882,-125,4,2,1,70,0,0
144445,-100,4,2,1,40,0,0
144820,-100,4,2,1,50,0,0
145195,-100,4,2,1,60,0,0
145570,-83.3333333333333,4,2,1,70,0,0
146320,-100,4,2,1,70,0,0
147070,-83.3333333333333,4,2,1,70,0,0
147820,-100,4,2,1,70,0,0
151570,-100,4,2,1,75,0,0
163570,-100,4,2,1,80,0,0
181570,-133.333333333333,4,2,1,70,0,0
187570,-200,4,2,1,20,0,0
188695,-83.3333333333333,4,2,1,90,0,0
189070,-90.9090909090909,4,2,1,95,0,1
189257,-90.9090909090909,4,2,1,80,0,1
193382,-111.111111111111,4,2,1,75,0,1
193945,-90.9090909090909,4,2,1,45,0,1
194320,-90.9090909090909,4,2,1,55,0,1
194695,-90.9090909090909,4,2,1,65,0,1
195070,-80,4,2,1,85,0,1
198070,-90.9090909090909,4,2,1,75,0,1
201070,-100,4,2,1,70,0,0
214382,-133.333333333333,4,2,1,70,0,0
214851,-133.333333333333,4,2,1,5,0,0

[Colours]
Combo1 : 116,184,126
Combo2 : 226,73,78
Combo3 : 117,152,204
Combo4 : 222,170,73

[HitObjects]
75,327,3070,6,0,B|143:326|120:297|196:297,1,127.500004863739,2|0,0:0|0:0,0:0:0:0:
318,360,3632,1,2,0:0:0:0:
303,208,3820,2,0,P|268:200|232:201,1,63.7500024318696,0|2,0:0|0:0,0:0:0:0:
374,276,4195,1,0,0:0:0:0:
328,112,4382,1,2,0:0:0:0:
256,296,4570,6,0,P|318:306|374:276,1,127.500004863739,2|0,0:0|0:0,0:0:0:0:
180,240,5132,1,2,0:0:0:0:
180,240,5226,1,2,0:0:0:0:
180,240,5320,2,0,P|164:271|162:304,1,63.7500024318696,0|2,0:0|0:0,0:0:0:0:
267,202,5695,1,0,0:0:0:0:
191,145,5882,1,2,0:0:0:0:
256,296,6070,6,0,L|318:286,1,63.7500024318696,2|0,0:0|0:0,0:0:0:0:
328,112,6445,2,0,L|398:123,1,63.7500024318696,2|2,0:0|0:0,0:0:0:0:
267,202,6820,1,2,0:0:0:0:
252,55,7007,2,0,L|259:28,3,21.2500008106232,2|0|0|2,0:0|0:0|0:0|0:0,0:0:0:0:
375,210,7382,6,0,B|359:254|357:288|357:288|317:312,1,127.500004863739,2|2,0:0|0:0,0:0:0:0:
135,249,7945,2,0,P|167:252|198:262,1,63.7500024318696,2|2,0:0|0:0,0:0:0:0:
142,377,8320,1,2,0:0:0:0:
29,317,8507,2,0,L|35:288,2,21.2500008106232,2|0|0,0:0|0:0|0:0,0:0:0:0:
59,267,8695,2,0,L|50:187,1,63.7500024318696,2|2,0:0|0:0,0:0:0:0:
225,99,9070,6,0,B|218:162|218:162|195:187,2,95.6250036478044,2|2|2,0:0|0:0|0:0,0:0:0:0:
118,169,9820,1,2,0:0:0:0:
263,247,10007,2,0,L|269:276,2,21.2500008106232,2|0|0,0:0|0:0|0:0,0:0:0:0:
293,297,10195,2,0,L|284:377,1,63.7500024318696,2|2,0:0|0:0,0:0:0:0:
436,233,10570,6,0,B|429:170|429:170|406:145,2,95.6250036478044,2|2|2,0:0|0:0|0:0,0:0:0:0:
418,284,11226,1,2,0:0:0:0:
418,284,11320,1,2,0:0:0:0:
305,224,11507,1,2,0:0:0:0:
400,82,11695,2,0,L|407:146,1,63.7500024318696,2|2,0:0|0:0,0:0:0:0:
328,317,12070,5,2,0:0:0:0:
436,233,12257,1,2,0:0:0:0:
461,228,12351,1,0,0:0:0:0:
486,224,12445,2,0,L|480:288,1,63.7500024318696,2|2,0:0|0:0,0:0:0:0:
305,224,12820,2,0,B|315:190|315:190|374:171,2,95.6250036478044,2|2|2,0:0|0:0|0:0,0:0:0:0:
277,380,13570,6,0,L|208:372,1,63.7500024318696,2|0,0:0|0:0,0:0:0:0:
172,263,13945,2,0,L|235:255,1,63.7500024318696,2|0,0:0|0:0,0:0:0:0:
112,351,14320,1,2,0:0:0:0:
49,277,14507,2,0,L|27:271,2,21.2500008106232,2|0|0,0:0|0:0|0:0,0:0:0:0:
9,244,14695,2,0,P|5:212|6:181,1,63.7500024318696,2|2,0:0|0:0,0:0:0:0:
156,60,15070,6,0,P|176:124|128:212,1,170,4|8,0:1|0:0,0:0:0:0:
284,304,15632,1,0,0:0:0:0:
284,304,15726,1,0,0:0:0:0:
284,304,15820,2,0,B|260:276|260:276|272:180,1,127.5,2|2,0:0|0:0,0:0:0:0:
271,186,16195,2,0,L|364:172,1,85,8|0,0:0|0:0,0:0:0:0:
240,64,16570,6,0,L|136:52,1,85,2|0,0:0|0:0,0:0:0:0:
92,92,16851,1,2,0:0:0:0:
92,92,16945,2,0,P|76:128|76:184,1,85,8|0,0:0|0:0,0:0:0:0:
180,272,17320,1,2,0:0:0:0:
300,192,17507,2,0,L|336:188,2,28.3333333333333,2|0|0,0:0|0:0|0:0,0:0:0:0:
356,200,17695,2,0,L|372:108,1,85,10|0,0:0|0:0,0:0:0:0:
428,268,18070,6,0,P|372:296|296:280,1,127.5,2|2,0:0|0:0,0:0:0:0:
264,232,18445,2,0,L|168:260,1,85,8|0,0:0|0:0,0:0:0:0:
356,200,18820,1,2,0:0:0:0:
196,152,19007,1,0,0:0:0:0:
196,152,19101,1,2,0:0:0:0:
196,152,19195,2,0,L|100:124,1,85,8|0,0:0|0:0,0:0:0:0:
296,4,19570,6,0,P|300:56|292:96,1,85,2|0,0:0|0:0,0:0:0:0:
176,236,19945,1,8,0:0:0:0:
196,48,20132,1,2,0:0:0:0:
320,204,20320,2,0,P|368:208|416:180,1,85,4|2,0:0|0:0,0:0:0:0:
428,264,20601,1,0,0:0:0:0:
424,288,20695,2,2,L|416:336,1,42.5,2|2,0:3|0:3,0:3:0:0:
340,296,20882,2,2,L|332:344,1,42.5,2|2,0:3|0:3,0:3:0:0:
256,304,21070,6,0,P|228:248|248:204,1,101.999996887207,4|0,0:0|0:0,0:0:0:0:
184,164,21351,2,0,P|236:140|284:156,1,101.999996887207,4|0,0:0|0:0,0:0:0:0:
316,216,21632,1,4,0:0:0:0:
158,276,21820,1,2,0:3:0:0:
128,272,21913,1,2,0:3:0:0:
96,268,22007,1,2,0:3:0:0:
64,264,22101,1,2,0:3:0:0:
32,260,22195,1,4,0:0:0:0:
184,164,22382,1,2,0:0:0:0:
40,40,22570,6,0,P|39:92|76:136,1,101.999996887207,2|0,0:3|0:0,0:0:0:0:
112,68,22851,2,0,P|160:88|216:68,1,101.999996887207,2|0,0:3|0:0,0:0:0:0:
164,12,23132,1,2,3:2:0:0:
132,176,23320,1,2,0:3:0:0:
148,204,23413,1,2,0:3:0:0:
176,220,23507,1,2,0:3:0:0:
208,228,23601,1,2,0:3:0:0:
240,224,23695,1,6,0:0:0:0:
72,276,23882,1,2,0:0:0:0:
212,136,24070,6,0,P|268:128|320:136,1,85,4|0,0:0|0:0,0:0:0:0:
452,216,24445,2,0,P|400:212|352:188,1,85,8|2,0:0|0:0,0:0:0:0:
428,116,24820,1,6,0:0:0:0:
396,300,25007,1,0,0:0:0:0:
396,300,25101,1,2,0:0:0:0:
396,300,25195,2,0,L|300:312,1,85,8|0,0:0|0:0,0:0:0:0:
113,237,25570,6,0,L|156:240,1,42.5,2|0,0:0|0:0,0:0:0:0:
144,160,25757,2,0,L|84:156,1,42.5,2|0,0:0|0:0,0:0:0:0:
40,208,25945,1,2,0:3:0:0:
32,240,26038,1,2,0:3:0:0:
40,272,26132,1,2,0:3:0:0:
60,300,26226,1,2,0:3:0:0:
88,316,26320,2,2,L|124:320,6,21.25,2|2|2|2|2|2|2,0:3|0:3|0:3|0:3|0:3|0:3|0:3,0:3:0:0:
188,312,26695,2,2,L|224:316,6,21.25,2|2|2|2|2|2|2,0:3|0:3|0:3|0:3|0:3|0:3|0:3,0:3:0:0:
288,308,27070,5,4,0:0:0:0:
113,237,27257,1,0,0:0:0:0:
243,221,27445,2,0,P|250:174|254:132,1,85,8|0,0:0|0:0,0:0:0:0:
208,28,27820,1,2,3:0:0:0:
359,73,28007,2,0,P|369:132|361:209,1,127.5,2|0,0:0|0:0,0:0:0:0:
341,235,28382,1,2,0:0:0:0:
172,171,28570,5,2,3:0:0:0:
270,129,28757,1,2,0:0:0:0:
112,86,28945,1,8,0:0:0:0:
246,211,29132,5,2,0:0:0:0:
87,166,29320,1,2,3:0:0:0:
195,91,29507,1,2,0:0:0:0:
16,126,29695,2,0,P|4:169|16:209,1,85,8|2,0:0|0:0,0:0:0:0:
153,373,30070,6,0,B|179:340|179:340|171:255,1,127.5,4|0,0:0|0:0,0:0:0:0:
171,255,30445,2,0,L|86:248,1,85,8|2,0:0|0:0,0:0:0:0:
268,364,30820,6,0,P|272:342|274:318,2,42.5,4|0|0,0:0|0:0|0:0,0:0:0:0:
318,248,31101,2,0,P|305:229|289:211,2,42.5,4|0|0,0:0|0:0|0:0,0:0:0:0:
271,130,31382,2,0,P|249:125|224:124,1,42.5,4|0,0:0|0:0,0:0:0:0:
86,248,31570,6,0,L|171:255,1,85,4|0,0:0|0:0,0:0:0:0:
455,330,31945,1,8,0:0:0:0:
471,300,32038,1,0,0:0:0:0:
478,267,32132,1,0,0:0:0:0:
476,233,32226,1,0,0:0:0:0:
463,202,32320,1,2,3:0:0:0:
430,211,32413,1,0,0:0:0:0:
396,212,32507,1,0,0:0:0:0:
364,202,32601,1,0,0:0:0:0:
336,183,32695,2,0,P|329:162|328:133,1,42.5,8|0,0:0|0:0,0:0:0:0:
259,30,32882,2,0,P|256:51|250:71,1,42.5
181,152,33070,6,0,B|106:169|106:169|56:149,1,127.5,4|0,0:0|0:0,0:0:0:0:
20,131,33445,2,0,L|13:223,1,85,8|2,0:0|0:0,0:0:0:0:
60,363,33820,1,2,3:0:0:0:
218,284,34007,1,2,0:0:0:0:
105,237,34195,1,8,0:0:0:0:
199,371,34382,1,2,0:0:0:0:
368,271,34570,6,0,B|383:226|383:226|372:143,1,127.5,4|0,0:0|0:0,0:0:0:0:
366,104,34945,1,8,0:0:0:0:
181,152,35132,1,2,0:0:0:0:
293,216,35320,1,2,3:0:0:0:
248,52,35507,1,2,0:0:0:0:
92,122,35695,2,0,P|88:168|101:208,1,85,8|2,0:0|0:0,0:0:0:0:
335,344,36070,5,4,0:0:0:0:
180,364,36257,1,2,0:0:0:0:
344,251,36445,5,8,0:0:0:0:
154,277,36632,1,2,0:0:0:0:
353,158,36820,5,2,3:0:0:0:
128,190,37007,1,2,0:0:0:0:
427,216,37195,2,0,P|447:167|443:130,1,85,4|2,0:0|0:0,0:0:0:0:
177,40,37570,5,4,0:0:0:0:
332,20,37757,1,2,0:0:0:0:
168,133,37945,5,8,0:0:0:0:
358,107,38132,1,2,0:0:0:0:
159,226,38320,5,2,3:0:0:0:
384,194,38507,1,2,0:0:0:0:
85,168,38695,2,0,P|65:217|69:254,1,85,4|2,0:0|0:0,0:0:0:0:
335,344,39070,5,4,0:0:0:0:
244,180,39257,1,0,0:0:0:0:
152,308,39445,2,0,L|248:292,1,85,8|0,0:0|0:0,0:0:0:0:
436,304,39820,1,2,0:3:0:0:
335,344,40007,2,0,B|328:316|328:316|343:200,1,127.5,2|0,0:0|0:0,0:0:0:0:
344,184,40382,1,0,0:0:0:0:
152,308,40570,5,2,0:0:0:0:
252,296,40757,1,0,0:0:0:0:
188,216,40945,1,8,0:0:0:0:
352,284,41132,5,2,0:0:0:0:
152,308,41320,1,2,0:3:0:0:
224,120,41507,2,0,P|233:147|236:176,1,42.5,2|0,0:0|0:0,0:0:0:0:
136,148,41695,2,0,P|135:111|156:56,1,85,8|0,0:0|0:0,0:0:0:0:
332,136,42070,6,0,P|328:184|308:232,1,85,2|0,0:0|0:0,0:0:0:0:
296,236,42351,1,0,0:0:0:0:
296,236,42445,2,0,L|384:244,1,85,8|0,0:0|0:0,0:0:0:0:
212,360,42820,2,0,P|208:288|220:256,1,85,2|0,0:3|0:0,0:0:0:0:
136,216,43101,2,0,P|180:188|220:184,1,85,2|0,0:3|0:0,0:0:0:0:
337,228,43382,2,0,P|317:233|296:236,1,42.5,2|0,0:3|0:0,0:0:0:0:
300,144,43570,5,2,0:0:0:0:
416,288,43757,1,0,0:0:0:0:
416,288,43851,1,0,0:0:0:0:
416,288,43945,1,8,0:0:0:0:
211,276,44132,1,2,0:0:0:0:
396,188,44320,5,0,0:0:0:0:
404,156,44413,1,0,0:0:0:0:
404,121,44507,1,0,0:0:0:0:
389,90,44601,1,0,0:0:0:0:
363,67,44695,2,0,L|306:46,1,42.5,2|0,0:3|0:0,0:0:0:0:
223,155,44882,2,2,L|295:146,1,42.5,2|2,0:3|0:3,0:0:0:0:
145,68,45070,6,0,B|113:122|113:122|113:190,1,127.5,4|0,0:0|0:0,0:0:0:0:
113,221,45445,2,0,B|73:206|73:206|20:207,1,85,8|2,0:0|0:0,0:0:0:0:
187,292,45820,1,2,0:3:0:0:
268,228,46007,2,0,B|284:188|284:188|288:136,1,85,2|8,0:0|0:0,0:0:0:0:
187,292,46382,1,0,0:0:0:0:
393,250,46570,6,0,L|261:226,1,127.5,2|0,0:0|0:0,0:0:0:0:
236,220,46945,1,8,0:0:0:0:
156,380,47132,2,0,L|252:364,1,85,2|2,0:0|0:3,0:0:0:0:
388,344,47507,1,0,0:0:0:0:
187,292,47695,1,8,0:0:0:0:
376,192,47882,1,0,0:0:0:0:
272,160,48070,6,0,P|272:204|284:248,1,85,2|0,0:0|0:0,0:0:0:0:
352,88,48445,1,8,0:0:0:0:
168,144,48632,1,2,0:0:0:0:
272,160,48820,5,2,0:3:0:0:
192,12,49007,1,2,0:0:0:0:
84,159,49195,2,0,L|168:143,1,85,8|0,0:0|0:0,0:0:0:0:
376,236,49570,5,2,0:0:0:0:
192,140,49757,1,0,0:0:0:0:
412,92,49945,5,10,0:0:0:0:
216,136,50132,1,0,0:0:0:0:
400,248,50320,1,2,0:3:0:0:
416,276,50413,1,2,0:3:0:0:
420,308,50507,1,2,0:3:0:0:
416,340,50601,1,2,0:3:0:0:
400,372,50695,2,0,L|392:320,1,42.5,8|0,0:0|0:0,0:0:0:0:
329,193,50882,2,0,L|324:252,1,42.5,2|0,0:3|0:0,0:0:0:0:
211,309,51070,6,0,B|236:275|236:275|242:189,1,127.5,4|0,0:0|0:0,0:0:0:0:
241,147,51445,1,10,0:0:0:0:
134,217,51632,1,2,3:0:0:0:
329,193,51820,5,2,0:0:0:0:
167,118,52007,1,2,3:0:0:0:
408,154,52195,2,0,P|416:190|406:237,1,85,8|2,0:0|0:0,0:0:0:0:
115,357,52570,5,4,0:0:0:0:
97,212,52757,1,2,0:0:0:0:
197,319,52945,5,8,0:0:0:0:
186,229,53132,1,2,3:0:0:0:
283,336,53320,5,2,0:0:0:0:
265,191,53507,1,2,3:0:0:0:
54,291,53695,5,8,0:0:0:0:
50,299,54070,6,0,P|107:269|166:289,1,127.5,4|0,0:0|0:0,0:0:0:0:
197,319,54445,1,8,0:0:0:0:
265,191,54632,1,2,3:0:0:0:
122,244,54820,5,2,0:0:0:0:
273,295,55007,1,2,3:0:0:0:
54,291,55195,2,0,P|38:251|44:210,1,85,8|2,0:0|0:0,0:0:0:0:
288,94,55570,5,4,0:0:0:0:
143,76,55757,1,2,0:0:0:0:
250,176,55945,5,8,0:0:0:0:
160,165,56132,1,2,3:0:0:0:
267,262,56320,5,2,0:0:0:0:
122,244,56507,1,2,3:0:0:0:
222,33,56695,5,8,0:0:0:0:
230,29,57070,6,0,P|200:86|220:145,1,127.5,4|0,0:0|0:0,0:0:0:0:
250,176,57445,1,8,0:0:0:0:
379,113,57632,1,2,3:0:0:0:
308,239,57820,5,2,0:0:0:0:
288,94,58007,1,2,3:0:0:0:
160,165,58195,2,0,P|161:198|187:247,1,85,8|2,0:0|0:0,0:0:0:0:
400,342,58570,5,4,0:0:0:0:
418,197,58757,1,2,0:0:0:0:
318,304,58945,5,8,0:0:0:0:
329,214,59132,1,2,3:0:0:0:
232,321,59320,5,2,0:0:0:0:
250,176,59507,1,2,3:0:0:0:
461,276,59695,5,8,0:0:0:0:
465,284,60070,6,0,P|408:254|349:274,1,127.5,4|0,0:0|0:0,0:0:0:0:
318,304,60445,1,8,0:0:0:0:
250,176,60632,1,2,3:0:0:0:
393,229,60820,5,2,0:0:0:0:
242,280,61007,1,2,3:0:0:0:
461,276,61195,2,0,P|477:236|471:195,1,85,8|2,0:0|0:0,0:0:0:0:
174,222,61570,5,2,3:0:0:0:
338,162,61757,1,2,3:0:0:0:
226,110,61945,1,2,3:0:0:0:
286,274,62132,1,2,3:0:0:0:
318,59,62320,5,2,3:0:0:0:
123,130,62507,1,2,3:0:0:0:
194,325,62695,1,2,3:0:0:0:
389,253,62882,1,2,3:0:0:0:
94,294,63070,5,2,0:0:0:0:
94,294,63163,1,2,0:0:0:0:
94,294,63257,1,2,0:0:0:0:
282,381,63445,1,2,0:0:0:0:
226,110,63632,5,2,0:0:0:0:
226,110,63726,1,2,0:0:0:0:
226,110,63820,1,4,0:0:0:0:
194,325,64007,1,2,0:0:0:0:
389,253,64195,5,2,0:0:0:0:
174,222,64382,1,2,0:0:0:0:
416,124,64570,5,4,0:0:0:0:
176,20,64757,1,0,0:0:0:0:
176,20,64851,1,0,0:0:0:0:
176,20,64945,2,0,L|164:112,1,85,8|0,0:0|0:0,0:0:0:0:
389,253,65320,1,2,0:0:0:0:
276,76,65507,1,0,0:0:0:0:
276,76,65601,1,0,0:0:0:0:
276,76,65695,1,8,0:0:0:0:
256,304,65882,1,2,0:0:0:0:
464,192,66070,6,0,P|412:164|328:172,1,127.5,2|0,0:0|0:0,0:0:0:0:
316,184,66445,1,8,0:0:0:0:
480,84,66632,1,2,0:0:0:0:
488,52,66726,1,2,0:0:0:0:
484,20,66820,1,2,0:0:0:0:
272,48,67007,1,0,0:0:0:0:
264,80,67101,1,0,0:0:0:0:
268,112,67195,1,10,0:0:0:0:
376,88,67382,1,0,0:0:0:0:
164,20,67570,6,0,L|76:32,1,85,2|0,0:0|0:0,0:0:0:0:
240,192,67945,2,0,L|340:176,1,85,8|0,0:0|0:0,0:0:0:0:
264,80,68320,5,4,0:0:0:0:
208,348,68507,1,4,0:0:0:0:
208,348,68882,6,0,P|252:312|336:316,1,136,4|0,0:0|0:0,0:0:0:0:
444,372,69445,1,2,0:3:0:0:
432,340,69538,1,2,0:3:0:0:
432,304,69632,1,2,0:3:0:0:
448,276,69726,1,2,0:3:0:0:
476,256,69820,6,0,L|424:244,1,42.5,4|2,0:0|0:3,0:0:0:0:
288,200,70007,2,0,L|340:188,1,42.5,2|2,0:3|0:3,0:0:0:0:
408,116,70195,1,2,0:3:0:0:
408,84,70288,1,2,0:3:0:0:
392,52,70382,1,2,0:3:0:0:
364,32,70476,1,2,0:3:0:0:
332,28,70570,6,0,P|280:40|224:16,1,101.999996887207,4|0,0:0|0:0,0:0:0:0:
152,124,70851,2,0,P|212:108|264:128,1,101.999996887207,4|0,0:0|0:0,0:0:0:0:
308,208,71132,2,0,L|300:268,1,50.9999984436036,4|0,0:0|0:0,0:0:0:0:
204,324,71320,5,2,0:3:0:0:
176,296,71413,1,2,0:3:0:0:
168,256,71507,1,2,0:3:0:0:
176,216,71601,1,2,0:3:0:0:
208,188,71695,1,10,0:0:0:0:
296,356,71882,1,2,0:0:0:0:
83,332,72070,6,0,P|125:304|175:295,1,101.999996887207,2|0,0:3|0:0,0:0:0:0:
286,249,72351,2,0,P|240:226|207:187,1,101.999996887207,2|0,0:3|0:0,0:0:0:0:
88,164,72632,2,0,P|94:191|96:232,1,50.9999984436036,4|0,0:0|0:0,0:0:0:0:
200,152,72820,5,2,0:3:0:0:
216,112,72913,1,2,0:3:0:0:
248,84,73007,1,2,0:3:0:0:
288,72,73101,1,2,0:3:0:0:
332,76,73195,1,10,0:0:0:0:
120,72,73382,1,2,0:3:0:0:
296,168,73570,6,0,L|436:152,1,127.5,4|0,0:0|0:0,0:0:0:0:
456,152,73945,2,0,L|437:250,1,85,8|0,0:0|0:0,0:0:0:0:
220,332,74320,2,0,B|208:292|208:292|212:236,1,85,4|0,0:0|0:0,0:0:0:0:
256,188,74601,1,0,0:0:0:0:
256,188,74695,2,0,L|352:176,1,85,8|0,0:0|0:0,0:0:0:0:
148,156,75070,5,2,0:3:0:0:
312,284,75257,1,2,0:3:0:0:
84,308,75445,5,4,0:0:0:0:
256,188,75632,1,2,0:3:0:0:
308,376,75820,6,0,L|276:372,6,21.25,2|2|2|2|2|2|2,0:3|0:3|0:3|0:3|0:3|0:3|0:3,0:0:0:0:
228,324,76195,2,0,L|196:320,6,21.25,2|2|2|2|2|2|2,0:3|0:3|0:3|0:3|0:3|0:3|0:3,0:0:0:0:
149,269,76570,6,0,P|135:218|160:151,1,127.5,4|0,0:0|0:0,0:0:0:0:
197,128,76945,1,8,0:0:0:0:
286,229,77132,1,2,0:0:0:0:
286,229,77226,1,2,0:0:0:0:
286,229,77320,2,0,L|235:217,1,42.5,2|0,3:0|0:0,0:0:0:0:
149,349,77507,2,0,L|200:337,1,42.5,2|2,0:0|0:0,0:0:0:0:
379,281,77695,2,0,P|389:248|383:193,1,85,8|2,0:0|0:0,0:0:0:0:
122,167,78070,5,4,0:0:0:0:
280,45,78257,1,2,0:0:0:0:
45,121,78445,2,0,P|35:154|41:209,1,85,8|2,0:0|0:0,0:0:0:0:
289,331,78820,5,4,0:0:0:0:
226,133,79007,2,0,L|212:185,1,42.5,2|2,0:0|0:0,0:0:0:0:
185,251,79195,1,8,0:0:0:0:
329,138,79382,1,2,0:0:0:0:
89,51,79570,5,2,0:0:0:0:
89,51,79663,1,2,0:0:0:0:
89,51,79757,1,2,0:0:0:0:
409,91,79945,5,10,0:0:0:0:
419,123,80038,1,2,0:0:0:0:
419,156,80132,1,2,0:0:0:0:
406,188,80226,1,2,0:0:0:0:
384,213,80320,1,4,0:0:0:0:
154,170,80507,1,0,0:0:0:0:
140,206,80601,2,0,P|143:248|152:290,1,85,4|0,0:0|0:0,0:0:0:0:
213,355,80882,6,0,B|309:372|293:307|385:330,1,170,4|2,0:0|0:0,0:0:0:0:
231,261,81445,1,8,0:0:0:0:
329,138,81632,1,2,0:0:0:0:
62,258,81820,5,6,0:0:0:0:
54,299,81913,1,0,0:0:0:0:
67,339,82007,1,2,0:0:0:0:
96,369,82101,1,0,0:0:0:0:
136,383,82195,1,14,0:0:0:0:
177,377,82288,1,0,0:0:0:0:
213,355,82382,1,2,0:0:0:0:
253,340,82476,1,0,0:0:0:0:
295,347,82570,6,0,P|336:354|372:376,1,85,4|0,0:0|0:0,0:0:0:0:
389,291,82851,2,0,P|425:269|467:262,1,85,4|0,0:0|0:0,0:0:0:0:
455,348,83132,1,4,0:0:0:0:
306,259,83320,1,4,0:0:0:0:
290,219,83413,1,0,0:0:0:0:
284,177,83507,1,2,0:0:0:0:
286,135,83601,1,0,0:0:0:0:
297,94,83695,2,0,L|343:81,1,42.5,4|0,0:0|0:0,0:0:0:0:
434,214,83882,2,0,L|383:202,1,42.5,2|2,0:0|0:0,0:0:0:0:
194,147,84070,6,0,P|179:104|183:57,1,85,4|0,0:0|0:0,0:0:0:0:
261,93,84351,2,0,P|280:51|316:21,1,85,4|0,0:0|0:0,0:0:0:0:
345,103,84632,1,4,0:0:0:0:
227,226,84820,1,4,0:0:0:0:
185,231,84913,1,0,0:0:0:0:
144,216,85007,1,2,0:0:0:0:
117,182,85101,1,0,0:0:0:0:
109,140,85195,2,0,L|113:95,1,42.5,4|0,0:0|0:0,0:0:0:0:
261,93,85382,2,0,L|257:50,1,42.5,2|0,0:0|0:0,0:0:0:0:
53,25,85570,5,4,0:0:0:0:
469,161,85945,1,4,0:0:0:0:
313,18,86132,1,2,0:0:0:0:
421,262,86320,6,0,P|428:307|422:350,1,85,4|2,0:0|0:0,0:0:0:0:
164,239,86695,1,4,0:0:0:0:
364,121,86882,1,2,0:0:0:0:
80,184,87070,5,6,0:0:0:0:
64,223,87163,1,2,0:0:0:0:
67,265,87257,1,2,0:0:0:0:
86,302,87351,1,2,0:0:0:0:
119,328,87445,1,6,0:0:0:0:
160,338,87538,1,2,0:0:0:0:
202,331,87632,1,2,0:0:0:0:
236,307,87726,1,2,0:0:0:0:
260,271,87820,2,0,P|264:260|266:237,14,21.25,14|0|0|0|2|0|0|0|6|0|0|0|2|0|0,0:0|0:0|0:0|0:0|0:0|0:0|0:0|0:0|0:0|0:0|0:0|0:0|0:0|0:0|0:0,0:0:0:0:
259,169,88570,6,0,L|177:156,1,63.7500024318696,2|0,0:0|0:0,0:0:0:0:
91,144,88945,1,2,0:0:0:0:
155,80,89132,1,0,0:0:0:0:
13,120,89320,6,0,B|-1:195|48:186|28:272,1,148.75,2|0,0:0|0:0,0:0:0:0:
3,340,90070,5,4,0:0:0:0:
204,244,90445,1,2,0:0:0:0:
3,340,90820,1,0,0:0:0:0:
104,292,91007,2,0,P|179:287|240:316,1,136,2|0,0:0|0:0,0:0:0:0:
404,216,91570,6,0,P|324:206|268:233,1,136,2|0,0:0|0:0,0:0:0:0:
108,156,92132,2,0,P|188:166|244:139,1,136,2|0,0:0|0:0,0:0:0:0:
164,68,92695,1,2,0:0:0:0:
274,227,92882,1,0,0:0:0:0:
388,68,93070,6,2,L|400:24,3,34,2|2|2|2,0:3|0:3|0:3|0:3,0:3:0:0:
456,128,93445,2,2,L|468:168,3,34,2|2|2|2,0:3|0:3|0:3|0:3,0:3:0:0:
380,188,93820,2,2,L|370:155,3,34,2|2|2|2,0:3|0:3|0:3|0:3,0:3:0:0:
448,248,94195,2,2,L|457:280,3,34,2|2|2|2,0:3|0:3|0:3|0:3,0:3:0:0:
412,352,94570,5,2,0:3:0:0:
384,332,94663,1,2,0:3:0:0:
352,324,94757,1,2,0:3:0:0:
320,328,94851,1,2,0:3:0:0:
288,344,94945,1,2,0:3:0:0:
256,348,95038,1,2,0:3:0:0:
224,340,95132,1,2,0:3:0:0:
196,320,95226,1,2,0:3:0:0:
180,288,95320,6,0,L|188:232,1,34,2|2,0:0|0:3,0:0:0:0:
320,120,95507,2,0,L|324:153,1,34,2|2,0:0|0:3,0:0:0:0:
204,84,95695,2,0,L|212:28,1,34,2|2,0:0|0:3,0:0:0:0:
272,228,95882,2,0,L|276:261,1,34,2|2,0:0|0:3,0:0:0:0:
120,192,96070,6,0,P|100:136|132:48,1,136,6|0,0:3|0:0,0:0:0:0:
244,16,96632,2,0,L|380:24,1,136,2|0,0:0|0:0,0:0:0:0:
356,184,97195,1,2,0:0:0:0:
316,96,97382,1,0,0:0:0:0:
304,264,97570,6,0,L|452:248,1,136,2|0,0:0|0:0,0:0:0:0:
280,360,98132,2,0,P|208:296|208:240,1,136,2|0,0:0|0:0,0:0:0:0:
316,96,98695,2,0,P|308:148|292:180,1,68,2|0,0:0|0:0,0:0:0:0:
204,261,99070,5,2,0:3:0:0:
180,252,99445,1,2,0:3:0:0:
156,244,99820,1,2,0:3:0:0:
132,236,100195,2,0,L|220:220,1,68,2|0,0:3|0:0,0:0:0:0:
352,196,100570,5,2,0:3:0:0:
180,320,100757,1,2,0:3:0:0:
240,120,100945,1,2,0:3:0:0:
312,316,101132,1,2,0:3:0:0:
132,204,101320,6,0,L|136:172,6,17,2|2|2|2|2|2|2,0:3|0:3|0:3|0:3|0:3|0:3|0:3,0:0:0:0:
88,124,101695,2,0,L|84:96,6,17,2|2|2|2|2|2|2,0:3|0:3|0:3|0:3|0:3|0:3|0:3,0:0:0:0:
145,56,102070,6,0,B|231:44|231:44|266:68,1,127.5,4|0,0:0|0:0,0:0:0:0:
297,93,102445,1,8,0:0:0:0:
180,144,102632,1,2,0:0:0:0:
355,187,102820,1,2,3:0:0:0:
183,243,103007,2,0,P|168:281|169:329,1,85,2|8,0:0|0:0,0:0:0:0:
261,181,103382,1,2,0:0:0:0:
103,194,103570,5,2,3:0:0:0:
269,273,103757,1,2,0:0:0:0:
254,91,103945,1,8,0:0:0:0:
103,194,104132,2,0,P|88:244|123:318,1,127.5,2|0,0:0|0:0,0:0:0:0:
153,330,104507,1,2,0:0:0:0:
337,229,104695,1,12,0:0:0:0:
183,243,104882,1,2,0:0:0:0:
399,303,105070,6,0,B|412:226|412:226|396:175,1,127.5,4|0,0:0|0:0,0:0:0:0:
382,138,105445,2,0,L|292:146,1,85,12|2,0:0|0:0,0:0:0:0:
154,53,105820,6,0,P|150:75|148:99,2,42.5,4|0|0,0:0|0:0|0:0,0:0:0:0:
104,169,106101,2,0,P|117:188|133:206,2,42.5,4|0|0,0:0|0:0|0:0,0:0:0:0:
151,287,106382,2,0,P|173:292|198:293,1,42.5,4|0,0:0|0:0,0:0:0:0:
336,169,106570,6,0,L|251:162,1,85,4|2,0:0|0:0,0:0:0:0:
391,259,106945,1,8,0:0:0:0:
352,77,107132,1,2,0:0:0:0:
290,260,107320,1,2,3:0:0:0:
438,168,107507,1,2,0:0:0:0:
204,228,107695,2,0,P|198:270|211:310,1,85,8|2,0:0|0:0,0:0:0:0:
242,342,107976,1,0,0:0:0:0:
242,342,108070,6,0,L|335:347,1,85,4|2,0:0|0:0,0:0:0:0:
336,169,108445,1,8,0:0:0:0:
226,248,108632,1,2,0:0:0:0:
415,276,108820,5,2,3:0:0:0:
237,135,109007,1,2,0:0:0:0:
319,278,109195,1,8,0:0:0:0:
438,168,109382,1,2,0:0:0:0:
365,349,109570,6,0,B|323:362|323:362|238:341,1,127.5,4|0,0:0|0:0,0:0:0:0:
202,357,109945,2,0,L|194:271,1,85,8|2,0:0|0:0,0:0:0:0:
336,169,110320,1,2,3:0:0:0:
168,152,110507,1,2,0:0:0:0:
319,278,110695,1,8,0:0:0:0:
260,85,110882,1,2,0:0:0:0:
420,241,111070,6,0,P|429:288|392:363,1,127.5,4|0,0:0|0:0,0:0:0:0:
358,377,111445,2,0,L|272:372,1,85,8|2,0:0|0:0,0:0:0:0:
103,237,111820,2,0,B|81:275|81:275|89:361,2,127.5,2|2|2,3:0|3:0|3:0,0:0:0:0:
319,278,112570,5,4,0:0:0:0:
168,299,112757,1,2,0:0:0:0:
349,181,112945,5,8,0:0:0:0:
116,209,113132,1,2,0:0:0:0:
379,84,113320,5,4,0:0:0:0:
408,99,113413,1,2,0:0:0:0:
431,124,113507,1,2,0:0:0:0:
445,155,113601,1,2,0:0:0:0:
448,189,113695,1,8,0:0:0:0:
440,221,113788,1,0,0:0:0:0:
421,250,113882,1,8,0:0:0:0:
394,270,113976,1,8,0:0:0:0:
362,281,114070,6,0,L|208:264,1,127.5,4|0,0:0|0:0,0:0:0:0:
200,264,114445,1,2,0:0:0:0:
336,180,114632,1,2,0:3:0:0:
200,88,114820,6,0,L|204:144,1,42.5,2|0,0:0|0:0,0:0:0:0:
284,100,115007,2,0,L|280:40,1,42.5,2|0,0:3|0:0,0:0:0:0:
212,4,115195,1,2,0:0:0:0:
268,188,115382,2,0,P|296:188|328:180,1,42.5
372,120,115570,5,2,0:0:0:0:
232,276,115757,1,2,0:0:0:0:
384,248,115945,5,0,0:0:0:0:
176,168,116132,1,2,0:3:0:0:
310,185,116320,5,2,0:0:0:0:
132,264,116507,1,2,0:3:0:0:
144,68,116695,1,2,0:0:0:0:
144,68,117070,5,2,0:0:0:0:
320,144,117257,1,0,0:0:0:0:
148,228,117445,5,2,0:0:0:0:
252,60,117632,1,2,0:3:0:0:
180,324,117820,6,0,L|80:312,1,85,2|2,0:0|0:3,0:0:0:0:
268,272,118195,2,0,P|320:320|384:324,1,127.5,2|0,0:0|0:0,0:0:0:0:
408,316,118570,5,2,0:0:0:0:
360,224,118757,1,0,0:0:0:0:
452,180,118945,5,2,0:0:0:0:
374,326,119132,1,2,0:3:0:0:
232,180,119320,6,0,L|292:172,1,42.5,2|0,0:0|0:0,0:0:0:0:
456,88,119507,2,0,L|392:80,1,42.5,2|0,0:3|0:0,0:0:0:0:
244,60,119695,1,2,0:0:0:0:
244,60,120070,5,4,0:0:0:0:
320,248,120257,1,0,0:0:0:0:
188,192,120445,1,2,0:0:0:0:
376,116,120632,1,2,0:3:0:0:
244,60,120820,6,0,L|256:112,1,42.5,2|0,0:0|0:0,0:0:0:0:
320,248,121007,2,0,L|332:192,1,42.5,2|0,0:3|0:0,0:0:0:0:
224,288,121195,1,2,0:0:0:0:
424,252,121382,5,2,0:0:0:0:
424,252,121476,1,0,0:0:0:0:
424,252,121570,1,2,0:0:0:0:
328,112,121757,1,2,0:0:0:0:
224,288,121945,1,0,0:0:0:0:
136,88,122132,1,2,0:3:0:0:
36,296,122320,5,2,0:0:0:0:
248,184,122507,1,2,0:3:0:0:
44,56,122695,1,2,0:0:0:0:
44,56,123070,5,2,0:0:0:0:
208,192,123257,1,0,0:0:0:0:
64,168,123445,5,2,0:0:0:0:
248,64,123632,1,2,0:3:0:0:
220,275,123820,6,0,P|210:234|208:192,1,85,2|2,0:0|0:3,0:0:0:0:
320,292,124195,2,0,P|312:316|300:340,1,42.5,2|0,0:0|0:0,0:0:0:0:
412,268,124382,2,0,P|405:247|396:228,1,42.5,2|0,0:0|0:0,0:0:0:0:
312,172,124570,5,2,0:3:0:0:
208,328,124757,1,2,0:3:0:0:
280,160,124945,5,2,0:3:0:0:
72,248,125132,1,2,0:3:0:0:
252,140,125320,5,2,0:3:0:0:
280,160,125413,1,2,0:3:0:0:
312,172,125507,1,2,0:3:0:0:
348,172,125601,1,2,0:3:0:0:
384,160,125695,2,0,L|388:132,6,21.25,2|2|2|2|2|2|2,0:3|0:3|0:3|0:3|0:3|0:3|0:3,0:0:0:0:
338,55,126070,1,2,0:0:0:0:
338,55,126820,5,2,0:0:0:0:
314,71,126913,1,0,0:0:0:0:
286,79,127007,1,2,0:0:0:0:
258,79,127101,1,0,0:0:0:0:
232,68,127195,5,2,0:0:0:0:
208,32,127288,1,0,0:0:0:0:
168,16,127382,1,2,0:0:0:0:
124,16,127476,1,2,0:0:0:0:
91,38,127570,6,0,B|82:123|82:123|108:160,1,127.5,4|0,0:0|0:0,0:0:0:0:
131,191,127945,2,0,L|224:185,1,85,8|2,0:0|0:0,0:0:0:0:
188,14,128320,1,2,3:0:0:0:
148,278,128507,1,2,0:0:0:0:
148,278,128601,1,2,0:0:0:0:
148,278,128695,1,8,0:0:0:0:
318,180,128882,1,2,0:0:0:0:
62,249,129070,6,0,P|59:302|110:362,1,127.5,4|0,0:0|0:0,0:0:0:0:
142,374,129445,2,0,L|234:367,1,85,8|2,0:0|0:0,0:0:0:0:
387,233,129820,1,2,3:0:0:0:
148,278,130007,1,2,0:0:0:0:
148,278,130101,1,2,0:0:0:0:
148,278,130195,1,8,0:0:0:0:
341,356,130382,1,2,0:0:0:0:
234,121,130570,6,0,P|217:167|223:217,1,85,4|2,0:0|0:0,0:0:0:0:
477,339,130945,1,12,0:0:0:0:
318,180,131132,1,2,0:0:0:0:
245,337,131320,5,4,0:0:0:0:
449,250,131507,1,2,0:0:0:0:
463,237,131601,2,0,L|458:173,1,42.5,4|0,0:0|0:0,0:0:0:0:
395,51,131882,6,0,B|325:26|340:68|268:51,1,127.500004863739,4|2,0:0|0:0,0:0:0:0:
179,12,132445,1,4,0:0:0:0:
169,44,132538,1,0,0:0:0:0:
172,77,132632,1,2,0:0:0:0:
184,108,132726,1,0,0:0:0:0:
208,132,132820,6,0,L|252:138,3,42.5,4|0|2|0,0:0|0:0|0:0|0:0,0:0:0:0:
334,149,133195,1,4,0:0:0:0:
344,181,133288,1,0,0:0:0:0:
341,214,133382,1,2,0:0:0:0:
329,245,133476,1,0,0:0:0:0:
305,269,133570,6,0,L|206:257,1,85,4|0,0:0|0:0,0:0:0:0:
143,294,133851,1,4,0:0:0:0:
143,294,133945,2,0,L|150:342,1,42.5,8|0,0:0|0:0,0:0:0:0:
8,203,134132,2,0,L|15:153,1,42.5,4|0,0:0|0:0,0:0:0:0:
96,105,134320,5,4,0:0:0:0:
112,133,134413,1,2,0:0:0:0:
116,167,134507,1,2,0:0:0:0:
106,199,134601,1,2,0:0:0:0:
85,225,134695,1,8,0:0:0:0:
64,251,134788,1,2,0:0:0:0:
54,282,134882,1,2,0:0:0:0:
58,316,134976,1,2,0:0:0:0:
74,345,135070,6,0,P|105:371|153:375,1,85,4|0,0:0|0:0,0:0:0:0:
222,333,135351,2,0,L|229:246,1,85,4|0,0:0|0:0,0:0:0:0:
298,199,135632,2,0,L|294:154,1,42.5,4|0,0:0|0:0,0:0:0:0:
256,80,135820,5,4,0:0:0:0:
143,294,136007,1,2,0:0:0:0:
143,294,136101,1,2,0:0:0:0:
143,294,136195,1,4,0:0:0:0:
397,193,136382,1,8,0:0:0:0:
197,175,136570,6,0,P|200:236|242:294,1,127.5,4|0,0:0|0:0,0:0:0:0:
278,292,136945,2,0,L|286:376,1,85,12|2,0:0|0:0,0:0:0:0:
452,259,137320,1,2,3:0:0:0:
298,199,137507,1,2,0:0:0:0:
298,199,137601,1,2,0:0:0:0:
298,199,137695,1,12,0:0:0:0:
401,337,137882,1,2,0:0:0:0:
343,107,138070,5,2,3:0:0:0:
206,229,138257,1,2,3:0:0:0:
397,193,138445,1,4,0:0:0:0:
223,136,138632,1,0,0:0:0:0:
352,281,138820,5,4,0:0:0:0:
344,314,138913,1,2,0:0:0:0:
326,342,139007,1,2,0:0:0:0:
299,363,139101,1,2,0:0:0:0:
267,373,139195,2,0,P|256:378|242:380,6,21.25,4|0|0|0|0|0|0,0:0|0:0|0:0|0:0|0:0|0:0|0:0,0:0:0:0:
172,348,139570,6,0,B|148:308|148:308|160:216,1,127.5,4|0,0:0|0:0,0:0:0:0:
220,184,139945,2,0,P|264:192|320:184,1,85,8|0,0:0|0:0,0:0:0:0:
128,128,140320,1,2,0:0:0:0:
384,88,140507,1,0,0:0:0:0:
384,88,140601,1,0,0:0:0:0:
384,88,140695,1,8,0:0:0:0:
192,20,140882,1,2,0:0:0:0:
248,248,141070,6,0,L|272:108,1,127.5,2|0,0:0|0:0,0:0:0:0:
276,88,141445,1,8,0:0:0:0:
144,240,141632,1,2,0:0:0:0:
150,275,141726,1,0,0:0:0:0:
157,310,141820,1,2,0:0:0:0:
356,212,142007,1,0,0:0:0:0:
363,176,142101,1,0,0:0:0:0:
371,140,142195,1,10,0:0:0:0:
248,248,142382,1,0,0:0:0:0:
400,356,142570,6,0,B|444:352|444:352|488:332,1,85,2|0,0:0|0:0,0:0:0:0:
260,148,142945,2,0,B|216:152|216:152|172:172,1,85,8|0,0:0|0:0,0:0:0:0:
420,248,143320,5,4,0:0:0:0:
196,24,143507,1,4,0:0:0:0:
196,24,143882,6,0,B|188:60|198:90|198:90|208:124|200:160,1,136,4|0,0:0|0:0,0:0:0:0:
168,292,144445,1,2,0:3:0:0:
200,280,144538,1,2,0:3:0:0:
236,280,144632,1,2,0:3:0:0:
264,296,144726,1,2,0:3:0:0:
284,324,144820,6,0,L|300:272,1,42.5,4|2,0:0|0:3,0:0:0:0:
336,152,145007,2,0,L|348:204,1,42.5,2|2,0:3|0:3,0:0:0:0:
384,352,145195,2,0,L|400:300,1,42.5,2|2,0:3|0:3,0:0:0:0:
444,144,145382,2,0,L|456:196,1,42.5,2|2,0:3|0:3,0:0:0:0:
481,366,145570,6,0,P|434:347|383:351,1,101.999996887207,4|0,0:0|0:0,0:0:0:0:
288,268,145851,2,0,P|340:256|380:220,1,101.999996887207,4|0,0:0|0:0,0:0:0:0:
304,116,146132,2,0,P|296:148|292:184,1,50.9999984436036,4|0,0:0|0:0,0:0:0:0:
384,56,146320,5,2,0:3:0:0:
354,24,146413,1,2,0:3:0:0:
311,12,146507,1,2,0:3:0:0:
267,15,146601,1,2,0:3:0:0:
229,34,146695,2,0,P|204:40|172:40,1,42.5,4|0,0:0|0:0,0:0:0:0:
84,16,146882,1,2,0:0:0:0:
304,116,147070,6,0,L|280:220,1,101.999996887207,4|0,0:0|0:0,0:0:0:0:
340,298,147351,2,0,L|272:202,1,101.999996887207,4|0,0:0|0:0,0:0:0:0:
148,240,147632,2,0,L|212:228,1,50.9999984436036,4|0,0:0|0:0,0:0:0:0:
84,308,147820,5,2,0:3:0:0:
56,276,147913,1,2,0:3:0:0:
48,236,148007,1,2,0:3:0:0:
56,196,148101,1,2,0:3:0:0:
84,164,148195,2,0,L|144:152,1,42.5,4|0,0:0|0:0,0:0:0:0:
276,132,148382,1,2,0:3:0:0:
238,346,148570,6,0,P|202:290|202:210,1,127.5,4|0,0:0|0:0,0:0:0:0:
212,200,148945,1,8,0:0:0:0:
344,248,149132,1,0,0:0:0:0:
124,312,149320,5,4,0:0:0:0:
204,115,149507,1,0,0:0:0:0:
204,115,149601,1,0,0:0:0:0:
204,115,149695,2,0,L|212:207,1,85,8|0,0:0|0:0,0:0:0:0:
100,56,150070,5,2,0:3:0:0:
316,152,150257,1,2,0:3:0:0:
72,184,150445,5,4,0:0:0:0:
292,36,150632,1,2,0:3:0:0:
300,296,150820,5,2,0:3:0:0:
257,292,150913,1,2,0:3:0:0:
219,270,151007,1,2,0:3:0:0:
198,233,151101,1,2,0:3:0:0:
196,192,151195,2,0,L|206:157,6,21.25,2|2|2|2|2|2|2,0:3|0:3|0:3|0:3|0:3|0:3|0:3,0:0:0:0:
223,91,151570,5,4,0:0:0:0:
223,91,151945,2,0,L|312:82,1,85,8|0,0:0|0:0,0:0:0:0:
361,198,152320,1,2,3:0:0:0:
389,23,152507,1,0,0:0:0:0:
223,91,152695,2,0,P|220:135|230:181,1,85,8|0,0:0|0:0,0:0:0:0:
372,329,153070,5,2,3:0:0:0:
177,269,153257,1,0,0:0:0:0:
288,247,153445,1,8,0:0:0:0:
121,369,153632,2,0,B|90:337|90:337|78:251,1,127.5
93,214,154007,1,0,0:0:0:0:
244,320,154195,5,8,0:0:0:0:
246,286,154288,1,0,0:0:0:0:
248,252,154382,1,0,0:0:0:0:
251,218,154476,1,0,0:0:0:0:
253,184,154570,1,4,0:0:0:0:
353,264,154757,1,0,0:0:0:0:
163,157,154945,2,0,P|185:117|228:91,1,85,8|0,0:0|0:0,0:0:0:0:
438,219,155320,5,4,0:0:0:0:
313,111,155507,1,0,0:0:0:0:
409,128,155695,1,8,0:0:0:0:
253,184,155882,1,0,0:0:0:0:
374,37,156070,5,4,0:0:0:0:
345,201,156257,1,0,0:0:0:0:
345,201,156351,1,0,0:0:0:0:
345,201,156445,1,8,0:0:0:0:
216,95,156632,1,0,0:0:0:0:
409,128,156820,5,2,3:0:0:0:
253,184,157007,1,0,0:0:0:0:
253,184,157101,1,0,0:0:0:0:
253,184,157195,2,0,L|247:235,3,42.5,8|0|8|0,0:0|0:0|0:0|0:0,0:0:0:0:
311,293,157570,5,4,0:0:0:0:
161,246,157757,1,0,0:0:0:0:
311,293,157945,1,8,0:0:0:0:
97,329,158132,2,0,P|67:292|83:177,1,170
415,55,158695,1,8,0:0:0:0:
438,79,158788,1,0,0:0:0:0:
451,110,158882,1,8,0:0:0:0:
455,144,158976,1,0,0:0:0:0:
447,177,159070,6,0,P|437:202|422:219,3,42.5,2|0|0|0,3:0|0:0|0:0|0:0,0:0:0:0:
355,260,159445,2,0,P|331:261|304:251,3,42.5,8|0|0|0,0:0|0:0|0:0|0:0,0:0:0:0:
241,209,159820,1,2,3:0:0:0:
338,141,160007,1,0,0:0:0:0:
338,141,160101,1,0,0:0:0:0:
338,141,160195,1,8,0:0:0:0:
383,355,160382,1,0,0:0:0:0:
129,256,160570,6,0,P|117:218|124:172,1,85,2|0,3:0|0:0,0:0:0:0:
171,104,160851,1,0,0:0:0:0:
171,104,160945,2,0,L|256:99,1,85,4|0,0:0|0:0,0:0:0:0:
453,287,161320,5,2,3:0:0:0:
241,209,161507,1,0,0:0:0:0:
241,209,161601,1,0,0:0:0:0:
241,209,161695,1,4,0:0:0:0:
338,41,161882,1,0,0:0:0:0:
308,354,162070,6,0,B|265:366|265:366|183:346,1,127.5,2|0,3:0|0:0,0:0:0:0:
143,334,162445,1,4,0:0:0:0:
341,260,162632,1,0,3:0:0:0:
174,127,162820,2,0,L|171:153,6,21.25,4|0|0|0|0|0|0,0:0|0:0|0:0|0:0|0:0|0:0|0:0,0:0:0:0:
121,220,163195,2,0,L|124:246,6,21.25,8|0|0|0|0|0|0,0:0|0:0|0:0|0:0|0:0|0:0|0:0,0:0:0:0:
176,308,163570,5,4,0:0:0:0:
264,144,163757,1,0,0:0:0:0:
404,268,163945,5,8,0:0:0:0:
160,144,164132,1,2,0:0:0:0:
368,72,164320,5,2,0:3:0:0:
288,256,164507,1,2,0:0:0:0:
236,32,164695,1,10,0:0:0:0:
192,308,164882,6,0,B|212:336|212:336|244:336|244:336|296:360|356:324,1,170,2|0,0:0|0:0,0:0:0:0:
488,244,165445,2,0,P|444:240|400:248,1,85,8|0,0:0|0:0,0:0:0:0:
248,180,165820,2,0,P|304:180|344:168,1,85,2|0,0:0|0:0,0:0:0:0:
388,120,166101,1,2,0:0:0:0:
388,120,166195,2,0,L|368:32,1,85,8|0,0:0|0:0,0:0:0:0:
164,120,166570,6,0,P|148:168|152:216,1,85,2|0,0:0|0:0,0:0:0:0:
220,276,166851,1,0,0:0:0:0:
248,296,166945,2,0,P|264:248|260:200,1,85,10|0,0:0|0:0,0:0:0:0:
344,152,167226,1,0,0:0:0:0:
368,176,167320,2,0,P|372:192|376:240,1,42.5,2|0,0:0|0:0,0:0:0:0:
420,88,167507,2,0,P|440:78|468:72,1,42.5
320,52,167695,2,0,P|300:56|264:56,1,42.5,8|0,0:0|0:0,0:0:0:0:
148,132,167882,6,0,P|200:124|264:164,1,127.5,2|0,0:0|0:0,0:0:0:0:
276,192,168257,1,2,0:0:0:0:
104,232,168445,1,8,0:0:0:0:
284,296,168632,1,2,0:0:0:0:
64,332,168820,5,2,0:3:0:0:
148,132,169007,1,2,0:0:0:0:
148,132,169101,1,0,0:0:0:0:
148,132,169195,2,0,L|136:80,1,42.5,8|0,0:0|0:0,0:0:0:0:
244,136,169382,2,0,L|232:88,1,42.5,8|0,0:0|0:0,0:0:0:0:
340,140,169570,6,0,P|320:196|256:228,1,127.5,4|0,0:0|0:0,0:0:0:0:
188,212,169945,2,0,P|192:260|184:312,1,85,8|2,0:0|0:0,0:0:0:0:
396,376,170320,2,0,P|388:312|392:272,1,85,2|2,0:3|0:0,0:0:0:0:
389,291,170601,1,0,0:0:0:0:
389,291,170695,1,8,0:0:0:0:
492,324,170882,1,0,0:0:0:0:
288,336,171070,5,2,0:0:0:0:
432,168,171257,1,2,0:0:0:0:
432,168,171351,1,0,0:0:0:0:
432,168,171445,1,8,0:0:0:0:
160,124,171632,5,2,0:0:0:0:
389,291,171820,1,2,0:0:0:0:
389,291,171913,1,0,0:0:0:0:
389,291,172007,1,2,0:0:0:0:
80,320,172195,5,8,0:0:0:0:
304,192,172382,1,2,0:0:0:0:
72,116,172570,5,2,0:0:0:0:
144,268,172757,1,0,0:0:0:0:
232,40,172945,1,4,0:0:0:0:
304,192,173132,6,0,B|258:175|258:175|212:188|212:188|176:168|136:164,1,170,2|0,0:0|0:0,0:0:0:0:
120,360,173695,1,4,0:0:0:0:
120,360,173788,2,0,P|168:356|216:328,1,85
256,288,174070,5,2,0:3:0:0:
68,184,174257,1,2,0:3:0:0:
256,260,174445,5,2,0:3:0:0:
424,140,174632,1,2,0:3:0:0:
256,232,174820,6,0,L|256:184,1,42.5,4|2,0:0|0:3,0:0:0:0:
256,48,175007,2,0,L|256:104,1,42.5,2|2,0:3|0:3,0:0:0:0:
256,316,175195,2,0,L|256:340,6,21.25,2|2|2|2|2|2|2,0:3|0:3|0:3|0:3|0:3|0:3|0:3,0:0:0:0:
256,232,175570,5,2,0:0:0:0:
89,347,181570,5,4,0:0:0:0:
426,269,183070,2,0,B|436:180,1,63.7500024318696,4|0,0:0|0:0,0:0:0:0:
458,168,183351,2,0,L|395:160,1,63.7500024318696,4|0,0:0|0:0,0:0:0:0:
359,132,183632,1,4,0:0:0:0:
256,312,183820,5,4,0:0:0:0:
256,312,184195,2,0,B|246:223,1,63.7500024318696,2|0,0:0|0:0,0:0:0:0:
216,29,184570,5,4,0:0:0:0:
359,132,184945,2,0,B|287:185,1,63.7500024318696,2|0,0:0|0:0,0:0:0:0:
134,308,185320,5,4,0:0:0:0:
152,132,185695,2,0,B|234:167,1,63.7500024318696,2|0,0:0|0:0,0:0:0:0:
417,238,186070,5,4,0:0:0:0:
105,210,186445,1,4,0:0:0:0:
473,138,186820,5,4,0:0:0:0:
65,94,187195,1,4,0:0:0:0:
499,223,187570,6,0,P|488:285|381:320,1,170,2|2,0:0|0:0,0:0:0:0:
182,233,188695,6,0,B|265:228|237:276|327:263,1,152.999995330811,12|0,1:0|0:0,0:0:0:0:
417,238,189070,5,4,0:0:0:0:
192,332,189257,1,0,0:0:0:0:
192,332,189351,1,0,0:0:0:0:
192,332,189445,2,0,L|96:312,1,93.5000028533936,8|2,0:0|0:0,0:0:0:0:
304,164,189820,1,2,0:3:0:0:
348,360,190007,1,2,0:0:0:0:
348,360,190101,1,0,0:0:0:0:
348,360,190195,1,8,0:0:0:0:
116,200,190382,1,2,0:0:0:0:
396,104,190570,6,0,P|412:160|376:240,1,140.25000428009,2|0,0:0|0:0,0:0:0:0:
344,260,190945,1,8,0:0:0:0:
300,64,191132,1,2,0:0:0:0:
324,24,191226,1,0,0:0:0:0:
368,4,191320,1,2,0:0:0:0:
148,164,191507,1,2,0:0:0:0:
108,136,191601,1,0,0:0:0:0:
92,92,191695,1,8,0:0:0:0:
276,180,191882,1,0,0:0:0:0:
144,272,192070,6,0,P|84:264|52:248,1,93.5000028533936,2|0,0:0|0:0,0:0:0:0:
344,316,192445,2,0,P|396:296|444:296,1,93.5000028533936,8|0,0:0|0:0,0:0:0:0:
232,344,192820,5,4,0:0:0:0:
280,40,193007,1,4,0:0:0:0:
280,40,193382,6,0,B|288:104|272:164|272:164|252:144,1,152.999995330811,4|0,0:0|0:0,0:0:0:0:
176,56,193945,1,2,0:3:0:0:
149,86,194038,1,2,0:3:0:0:
136,126,194132,1,2,0:3:0:0:
140,166,194226,1,2,0:3:0:0:
158,205,194320,5,4,0:0:0:0:
196,181,194413,1,2,0:3:0:0:
243,173,194507,1,2,0:3:0:0:
288,185,194601,1,2,0:3:0:0:
327,214,194695,5,2,0:3:0:0:
332,168,194788,1,2,0:3:0:0:
360,132,194882,1,2,0:3:0:0:
404,112,194976,1,2,0:3:0:0:
452,120,195070,6,0,B|468:140|468:140|480:224,1,106.25,4|0,0:0|0:0,0:0:0:0:
348,288,195351,2,0,B|359:208|359:208|375:188,1,106.25,4|0,0:0|0:0,0:0:0:0:
460,320,195632,2,0,B|452:344|452:344|432:372,1,53.125,4|0,0:0|0:0,0:0:0:0:
312,364,195820,5,2,0:3:0:0:
276,336,195913,1,2,0:3:0:0:
228,324,196007,1,2,0:3:0:0:
180,332,196101,1,2,0:3:0:0:
140,356,196195,2,0,L|129:301,1,53.125,4|0,0:0|0:0,0:0:0:0:
216,180,196382,2,0,L|204:252,1,53.125,2|0,0:0|0:0,0:0:0:0:
64,224,196570,6,0,P|56:168|72:120,1,106.25,4|0,0:0|0:0,0:0:0:0:
244,132,196851,2,0,P|199:166|149:177,1,106.25,4|0,0:0|0:0,0:0:0:0:
124,38,197132,2,0,P|143:55|156:78,1,53.125,4|0,0:0|0:0,0:0:0:0:
268,220,197320,5,2,0:3:0:0:
244,180,197413,1,2,0:3:0:0:
244,132,197507,1,2,0:3:0:0:
268,92,197601,1,2,0:3:0:0:
312,72,197695,2,0,L|376:80,1,53.125,4|0,0:0|0:0,0:0:0:0:
176,31,197882,2,0,L|108:39,1,53.125,2|0,0:3|0:0,0:0:0:0:
154,217,198070,6,0,P|218:195|244:132,1,140.25000428009,4|0,0:0|0:0,0:0:0:0:
228,96,198445,1,8,0:0:0:0:
336,248,198632,1,0,0:0:0:0:
156,300,198820,6,0,P|91:277|66:214,1,140.25000428009,4|0,0:0|0:0,0:0:0:0:
76,180,199195,1,8,0:0:0:0:
12,360,199382,1,0,0:0:0:0:
168,204,199570,5,2,0:3:0:0:
344,376,199757,1,2,0:3:0:0:
120,304,199945,5,4,0:0:0:0:
376,200,200132,1,2,0:3:0:0:
172,12,200320,6,0,L|180:72,1,46.7500014266968,2|2,0:3|0:3,0:0:0:0:
333,58,200507,2,0,L|340:12,1,46.7500014266968,2|2,0:3|0:3,0:0:0:0:
164,152,200695,2,0,L|172:212,1,46.7500014266968,4|2,0:0|0:3,0:0:0:0:
341,198,200882,2,0,L|347:151,1,46.7500014266968,2|2,0:3|0:3,0:0:0:0:
256,284,201070,6,0,P|306:316|423:286,1,170,4|8,0:0|0:0,0:0:0:0:
492,146,201632,2,0,L|499:236,1,85,2|2,0:0|3:0,0:0:0:0:
482,35,202007,1,2,0:0:0:0:
382,103,202195,2,0,L|375:193,1,85,8|2,0:0|0:0,0:0:0:0:
204,363,202570,6,0,P|164:303|193:213,1,170,2|8,3:0|0:0,0:0:0:0:
358,347,203132,2,0,P|403:345|442:337,1,85,2|2,0:0|3:0,0:0:0:0:
258,284,203507,1,2,0:0:0:0:
335,193,203695,2,0,P|353:146|359:106,1,85,8|2,0:0|0:0,0:0:0:0:
145,29,204070,5,2,3:0:0:0:
269,125,204257,1,2,0:0:0:0:
237,2,204445,1,8,0:0:0:0:
140,124,204632,1,2,0:0:0:0:
332,37,204820,5,2,3:0:0:0:
61,73,205007,1,4,0:0:0:0:
52,65,205382,6,0,P|34:122|84:216,1,170,4|2,0:0|0:0,0:0:0:0:
335,193,205945,1,8,0:0:0:0:
140,124,206132,1,2,0:0:0:0:
270,325,206320,2,0,P|276:304|280:280,3,42.5,2|0|2|0,3:0|0:0|0:0|0:0,0:0:0:0:
335,193,206695,2,0,P|324:173|310:154,3,42.5,8|0|2|0,0:0|0:0|0:0|0:0,0:0:0:0:
287,53,207070,6,0,B|203:37|203:37|165:62,2,127.5,4|4|4,0:0|0:0|0:0,0:0:0:0:
429,220,207820,1,2,3:0:0:0:
413,250,207913,1,0,0:0:0:0:
388,273,208007,1,2,0:0:0:0:
357,286,208101,1,0,0:0:0:0:
324,288,208195,2,0,L|283:277,1,42.5,2|0,0:0|0:0,0:0:0:0:
209,176,208382,2,0,L|206:133,1,42.5,2|0,0:0|0:0,0:0:0:0:
378,81,208570,6,0,B|367:165|367:165|331:194,2,127.5,4|4|4,0:0|0:0|0:0,0:0:0:0:
89,15,209320,1,2,3:0:0:0:
78,47,209413,1,0,0:0:0:0:
80,80,209507,1,2,0:0:0:0:
94,111,209601,1,0,0:0:0:0:
118,135,209695,2,0,L|159:147,1,42.5,2|0,0:0|0:0,0:0:0:0:
260,38,209882,2,0,L|219:51,1,42.5,2|0,0:0|0:0,0:0:0:0:
7,154,210070,6,0,B|17:238|17:238|53:267,1,127.5,4|0,0:0|0:0,0:0:0:0:
123,308,210445,1,8,0:0:0:0:
342,223,210632,1,2,0:0:0:0:
161,141,210820,6,0,P|155:183|170:223,1,85,4|0,0:0|0:0,0:0:0:0:
392,332,211195,1,4,0:0:0:0:
123,308,211382,1,2,0:0:0:0:
287,106,211570,5,4,0:0:0:0:
256,368,211757,1,2,3:0:0:0:
170,161,211945,5,4,0:0:0:0:
432,192,212132,1,2,3:0:0:0:
225,278,212320,5,4,0:0:0:0:
256,16,212507,1,2,0:0:0:0:
342,223,212695,5,4,0:0:0:0:
80,192,212882,1,2,0:0:0:0:
338,153,213070,5,4,0:0:0:0:
131,316,213257,1,2,3:0:0:0:
217,109,213445,5,4,0:0:0:0:
380,316,213632,1,2,3:0:0:0:
173,230,213820,5,4,0:0:0:0:
380,67,214007,1,2,0:0:0:0:
294,274,214195,5,4,0:0:0:0:
131,67,214382,2,0,P|152:40|245:20,1,127.500004863739,2|4,0:0|0:0,0:0:0:0:
256,192,214851,12,0,219070,0:0:0:0:
