osu file format v12

[General]
AudioFilename: 01. Segments Blue.mp3
AudioLeadIn: 0
PreviewTime: 7234
Countdown: 1
SampleSet: Normal
StackLeniency: 0.7
Mode: 0
LetterboxInBreaks: 1
WidescreenStoryboard: 0

[Editor]
Bookmarks: 7234,13855,20475,27096,53579,93303,99924,103234,104889,106544,119993
DistanceSpacing: 1
BeatDivisor: 4
GridSize: 8

[Metadata]
Title:Segments Blue
TitleUnicode:Segments Blue
Artist:seleP
ArtistUnicode:seleP
Creator:baraatje123
Version:Segments Red
Source:Lilium Doll
Tags:Cul Vocaloid MagoichiSaica Winek Nardoxyribonucleic Nardo
BeatmapID:331915
BeatmapSetID:131854

[Difficulty]
HPDrainRate:6
CircleSize:3
OverallDifficulty:6
ApproachRate:8
SliderMultiplier:2.60000000596046
SliderTickRate:2

[Events]
//Background and Video events
0,0,"CUL.full.914383.jpg",0,0
//Break Periods
2,80261,92553
//Storyboard Layer 0 (Background)
//Storyboard Layer 1 (Fail)
//Storyboard Layer 2 (Pass)
//Storyboard Layer 3 (Foreground)
//Storyboard Sound Samples
//Background Colour Transformations
3,100,150,0,0

[TimingPoints]
613.756684721381,413.793103448276,4,1,0,70,1,0
13855,-100,4,1,0,70,0,1
13958,-100,4,1,0,70,0,0
18510,-50,4,1,0,70,0,0
18820,-100,4,1,0,70,0,0
20475,-100,4,1,0,70,0,1
20579,-100,4,1,0,100,0,0
24613,-50,4,1,0,70,0,0
24820,-100,4,1,0,70,0,0
33302,-200,4,1,0,70,0,0
33717,-100,4,1,0,70,0,0
35786,-50,4,1,0,70,0,0
36199,-100,4,1,0,70,0,0
39510,-200,4,1,0,70,0,0
39924,-100,4,1,0,70,0,0
53579,-100,4,1,0,70,0,1
71786,-200,4,1,0,70,0,1
73027,-100,4,1,0,70,0,1
80062,-100,4,1,0,70,0,0
93303,-100,4,1,0,70,0,1
106544,-100,4,1,0,70,0,0
116682,-50,4,1,0,70,0,0
116889,-100,4,1,0,70,0,0
117303,-50,4,1,0,70,0,0
117510,-100,4,1,0,70,0,0
133027,-100,4,1,0,70,0,1
137372,-150.001500015,4,1,0,70,0,1
139648,-100,4,1,0,70,0,1
140889,-900,4,1,0,70,0,1
142958,-100,4,1,0,70,0,1
145751,-50,4,1,0,70,0,1
146165,-50,4,1,0,70,0,0
146268,-100,4,1,0,70,0,1
150614,-150.001500015,4,1,0,70,0,1
152889,-100,4,1,0,70,0,1
154130,-900,4,1,0,70,0,1
156200,-100,4,1,0,70,0,1
159303,-100,4,1,0,70,0,0
168613,-50,4,1,0,70,0,0
168820,-100,4,1,0,70,0,0
172751,-66.6666666666667,4,1,0,70,0,0
185889,-66.6666666666667,4,1,0,70,0,0
185993,-133.333333333333,4,1,0,70,0,1
186096,-133.333333333333,4,1,0,70,0,0
199234,-66.6666666666667,4,1,0,70,0,1
199337,-66.6666666666667,4,1,0,70,0,0
212424,-66.6666666666667,4,1,0,70,0,0
212475,-66.6666666666667,4,1,0,70,0,1
212527,-66.6666666666667,4,1,0,70,0,0

[Colours]
Combo1 : 0,147,147
Combo2 : 198,0,0
Combo3 : 251,204,96
Combo4 : 250,145,145
Combo5 : 74,255,74

[HitObjects]
64,192,7234,1,6,0:0:0:0:
192,192,7441,1,0,0:0:0:0:
320,192,7648,1,2,0:0:0:0:
208,128,7855,1,0,0:0:0:0:
336,128,8062,2,0,L|384:200,1,65.0000001490115,2|0,0:0|0:0,0:0:0:0:
400,56,8372,1,0,0:0:0:0:
296,64,8580,5,0,0:0:0:0:
296,64,8683,1,2,0:0:0:0:
296,64,8786,1,0,0:0:0:0:
256,112,8889,1,2,0:0:0:0:
128,72,9096,1,0,0:0:0:0:
88,168,9303,1,2,0:0:0:0:
128,264,9510,1,0,0:0:0:0:
256,248,9717,1,2,0:0:0:0:
312,280,9820,1,0,0:0:0:0:
320,152,10027,1,0,0:0:0:0:
432,80,10234,6,0,L|432:152,1,65.0000001490115,0|2,0:0|0:0,0:0:0:0:
400,200,10441,2,0,L|400:288,1,65.0000001490115,0|2,0:0|0:0,0:0:0:0:
272,256,10751,1,0,0:0:0:0:
168,232,10958,1,2,0:0:0:0:
272,216,11165,1,0,0:0:0:0:
168,192,11372,1,2,0:0:0:0:
120,176,11476,1,0,0:0:0:0:
224,168,11683,1,0,0:0:0:0:
304,104,11889,5,0,0:0:0:0:
352,128,11993,1,0,0:0:0:0:
312,160,12096,1,0,0:0:0:0:
264,136,12200,1,2,0:0:0:0:
192,64,12406,2,0,L|56:136,3,130.000000298023,0|2|0|2,0:0|0:0|0:0|0:0,0:0:0:0:
80,176,13131,1,0,0:0:0:0:
80,280,13338,1,0,0:0:0:0:
184,280,13545,6,0,L|256:280,2,65.0000001490115,0|0|0,0:0|0:0|0:0,0:0:0:0:
184,216,13855,5,6,0:0:0:0:
224,336,14062,1,0,0:0:0:0:
282,309,14165,1,0,0:0:0:0:
317,255,14268,1,10,0:0:0:0:
318,191,14372,1,0,0:0:0:0:
286,136,14475,1,0,0:0:0:0:
160,96,14682,1,2,0:0:0:0:
101,122,14785,1,0,0:0:0:0:
66,176,14888,1,0,0:0:0:0:
65,240,14992,1,0,0:0:0:0:
97,295,15095,1,10,0:0:0:0:
160,316,15199,5,0,0:0:0:0:
224,336,15303,1,0,0:0:0:0:
288,332,15406,1,0,0:0:0:0:
352,336,15510,6,0,L|424:192,1,130.000000298023,2|0,0:0|0:0,0:0:0:0:
351,103,15924,2,0,L|410:219,1,130.000000298023,10|0,0:0|0:0,0:0:0:0:
280,192,16337,1,2,0:0:0:0:
280,192,16441,1,0,0:0:0:0:
152,192,16648,1,0,0:0:0:0:
232,88,16855,6,0,L|312:56,1,65.0000001490115,0|0,0:0|0:0,0:0:0:0:
256,120,17062,2,0,L|312:160,1,65.0000001490115,0|6,0:0|0:0,0:0:0:0:
184,112,17372,1,0,0:0:0:0:
200,48,17475,1,0,0:0:0:0:
184,112,17579,1,10,0:0:0:0:
56,104,17786,1,0,0:0:0:0:
48,232,17993,1,2,0:0:0:0:
48,232,18096,1,0,0:0:0:0:
112,232,18199,1,0,0:0:0:0:
112,296,18303,1,0,0:0:0:0:
456,136,18510,6,0,P|400:80|336:48,2,130.000000298023,0|0|0,0:0|0:0|0:0,0:0:0:0:
352,152,18820,1,6,0:0:0:0:
160,192,19027,1,2,0:0:0:0:
352,224,19234,1,10,0:0:0:0:
160,256,19441,1,2,0:0:0:0:
352,288,19648,1,6,0:0:0:0:
256,304,19751,1,0,0:0:0:0:
64,336,19958,1,0,0:0:0:0:
256,368,20165,1,0,0:0:0:0:
256,368,20268,5,10,0:0:0:0:
256,368,20372,1,0,0:0:0:0:
256,368,20475,1,14,0:0:0:0:
384,360,20682,1,0,0:0:0:0:
408,339,20785,1,0,0:0:0:0:
428,313,20888,1,8,0:0:0:0:
442,284,20992,1,0,0:0:0:0:
449,252,21095,1,0,0:0:0:0:
450,220,21199,1,0,0:0:0:0:
443,188,21302,1,2,0:0:0:0:
429,158,21406,1,0,0:0:0:0:
410,132,21509,1,0,0:0:0:0:
385,111,21613,1,0,0:0:0:0:
357,96,21716,1,10,0:0:0:0:
326,87,21819,5,0,0:0:0:0:
293,85,21923,1,0,0:0:0:0:
264,88,22027,1,0,0:0:0:0:
236,104,22130,1,4,0:0:0:0:
214,128,22233,1,0,0:0:0:0:
200,157,22337,1,0,0:0:0:0:
195,189,22440,5,0,0:0:0:0:
200,221,22544,1,8,0:0:0:0:
214,251,22647,1,0,0:0:0:0:
235,275,22751,1,0,0:0:0:0:
263,291,22854,1,0,0:0:0:0:
294,299,22958,1,2,0:0:0:0:
327,298,23061,1,0,0:0:0:0:
357,287,23164,1,0,0:0:0:0:
383,268,23268,1,0,0:0:0:0:
400,240,23372,1,10,0:0:0:0:
395,207,23475,5,0,0:0:0:0:
379,179,23578,1,0,0:0:0:0:
354,160,23682,1,0,0:0:0:0:
323,151,23785,1,6,0:0:0:0:
291,154,23889,1,0,0:0:0:0:
262,170,23992,1,0,0:0:0:0:
72,192,24199,2,0,P|0:128|24:56,1,130.000000298023,10|0,0:0|0:0,0:0:0:0:
112,336,24613,2,0,P|184:272|160:200,1,130.000000298023,6|0,0:0|0:0,0:0:0:0:
64,192,24924,1,0,0:0:0:0:
192,192,25130,6,0,B|192:128|192:128|200:144,3,65.0000001490115,0|0|0|4,0:0|0:0|0:0|0:0,0:0:0:0:
304,192,25648,1,0,0:0:0:0:
184,248,25855,1,12,0:0:0:0:
312,248,26062,1,0,0:0:0:0:
192,304,26268,1,4,0:0:0:0:
256,304,26372,1,0,0:0:0:0:
192,192,26579,1,0,0:0:0:0:
256,80,26786,2,14,L|336:80,2,65.0000001490115,0|0|0,0:0|0:0|0:0,0:0:0:0:
192,80,27096,5,4,0:0:0:0:
64,72,27303,2,0,P|88:192|136:240,1,130.000000298023,0|8,0:0|0:0,0:0:0:0:
88,328,27717,1,0,0:0:0:0:
136,288,27820,2,4,L|200:304,2,65.0000001490115,0|0|0,0:0|0:0|0:0,0:0:0:0:
88,328,28234,2,2,P|24:272|24:208,1,130.000000298023,0|0,0:0|0:0,0:0:0:0:
144,192,28544,2,0,L|224:152,1,65.0000001490115,0|0,0:0|0:0,0:0:0:0:
256,128,28751,1,0,0:0:0:0:
184,240,28958,2,0,L|272:264,2,65.0000001490115,0|0|8,0:0|0:0|0:0,0:0:0:0:
246,257,29268,1,0,0:0:0:0:
256,192,29372,1,0,0:0:0:0:
246,257,29475,1,0,0:0:0:0:
256,320,29579,2,0,L|328:320,1,65.0000001490115,0|0,0:0|0:0,0:0:0:0:
321,320,29786,2,2,P|352:248|320:232,2,130.000000298023,0|8|0,0:0|0:0|0:0,0:0:0:0:
360,192,30406,5,0,0:0:0:0:
256,112,30613,1,0,0:0:0:0:
152,192,30820,1,8,0:0:0:0:
48,112,31027,1,0,0:0:0:0:
48,144,31131,1,0,0:0:0:0:
48,176,31234,1,0,0:0:0:0:
48,240,31337,1,0,0:0:0:0:
48,304,31441,1,0,0:0:0:0:
112,304,31544,2,2,L|256:304,1,130.000000298023,0|0,0:0|0:0,0:0:0:0:
272,304,31803,2,0,L|312:304,2,32.5000000745057,0|0|0,0:0|0:0|0:0,0:0:0:0:
264,208,32062,2,2,L|384:208,1,97.5000002235172,0|0,0:0|0:0,0:0:0:0:
360,176,32268,2,2,L|360:64,1,97.5000002235172,0|0,0:0|0:0,0:0:0:0:
328,80,32475,2,2,L|216:80,1,97.5000002235172,8|0,0:0|0:0,0:0:0:0:
232,112,32682,2,2,L|232:224,1,97.5000002235172,0|0,0:0|0:0,0:0:0:0:
264,208,32889,2,2,L|384:208,1,97.5000002235172,0|0,0:0|0:0,0:0:0:0:
360,176,33095,2,2,L|360:64,1,97.5000002235172,0|0,0:0|0:0,0:0:0:0:
344,80,33302,2,2,L|232:80,1,97.5000002235172,8|0,0:0|0:0,0:0:0:0:
246,80,33717,6,0,P|128:80|128:120,1,195.000000447034,4|0,0:0|0:0,0:0:0:0:
192,96,34130,2,0,P|310:96|310:56,1,195.000000447034,8|0,0:0|0:0,0:0:0:0:
368,32,34544,2,2,L|464:32,2,65.0000001490115,0|0|0,0:0|0:0|0:0,0:0:0:0:
368,96,34855,2,0,L|416:160,1,65.0000001490115,0|8,0:0|0:0,0:0:0:0:
360,192,35062,1,0,0:0:0:0:
327,192,35165,1,0,0:0:0:0:
295,192,35268,1,0,0:0:0:0:
262,192,35372,1,10,0:0:0:0:
230,192,35475,1,0,0:0:0:0:
168,192,35579,1,2,0:0:0:0:
104,192,35682,1,0,0:0:0:0:
40,192,35786,2,2,B|40:216|40:216|40:240|64:264|88:264|88:264|264:264,2,260.000000596046,10|2|10,0:0|0:0|0:0,0:0:0:0:
40,192,36406,6,8,B|40:168|40:168|40:144|64:120|88:120|88:120|264:120,2,260.000000596046,2|2|0,0:0|0:0|0:0,0:0:0:0:
168,192,37441,1,8,0:0:0:0:
296,192,37648,1,0,0:0:0:0:
360,192,37751,1,0,0:0:0:0:
424,192,37855,1,0,0:0:0:0:
320,272,38062,2,0,P|192:256|152:288,1,130.000000298023,0|8,0:0|0:0,0:0:0:0:
197,253,38372,2,0,L|128:328,2,65.0000001490115,0|0|0,0:0|0:0|0:0,0:0:0:0:
136,248,38682,2,8,L|48:264,3,65.000000298023,2|0|2|0,0:0|0:0|0:0|0:0,0:0:0:0:
88,192,39096,1,10,0:0:0:0:
216,192,39303,1,2,0:0:0:0:
152,192,39406,1,0,0:0:0:0:
152,192,39510,2,10,P|152:112|232:80,1,130.000000298023,2|10,0:0|0:0,0:0:0:0:
248,80,40027,6,2,L|328:80,2,65.0000001490115,0|2|0,0:0|0:0|0:0,0:0:0:0:
248,144,40337,5,4,0:0:0:0:
376,144,40544,1,0,0:0:0:0:
496,192,40751,2,8,B|496:200|496:200|496:184|496:184|488:192|488:192|448:192|448:192|432:192|416:208|416:224|416:224|416:240,1,130.000000298023,8|0,0:0|0:0,0:0:0:0:
352,232,41062,2,8,B|344:232|344:232|344:224|344:224|336:224|336:224|336:216|336:216|328:216|328:216|328:208|328:208|320:208|320:208|320:200|320:200|312:200,2,65.0000001490115,0|4|0,0:0|0:0|0:0,0:0:0:0:
288,248,41372,2,0,B|264:256|264:256|256:272|256:272|256:256|256:256|248:264,2,65.000000298023,0|0|8,0:0|0:0|0:0,0:0:0:0:
256,192,41682,1,0,0:0:0:0:
256,192,41786,2,0,P|144:192|112:160,2,130.000000298023,0|4|0,0:0|0:0|0:0,0:0:0:0:
134,185,42406,2,0,P|196:168|256:192,2,130.000000298023,12|0|4,0:0|0:0|0:0,0:0:0:0:
48,88,43027,5,0,0:0:0:0:
112,88,43130,1,0,0:0:0:0:
176,88,43234,1,12,0:0:0:0:
440,80,43648,6,2,P|384:232|280:232,1,260.000000596046,4|8,0:0|0:0,0:0:0:0:
176,232,44268,2,2,L|232:184,1,65.0000001490115,0|0,0:0|0:0,0:0:0:0:
176,232,44475,2,8,P|232:80|336:80,1,260.000000596046,4|8,0:0|0:0,0:0:0:0:
440,80,45095,2,0,L|384:128,1,65.0000001490115,0|0,0:0|0:0,0:0:0:0:
488,32,45303,1,4,0:0:0:0:
24,96,45510,1,0,0:0:0:0:
488,160,45716,1,12,0:0:0:0:
24,224,45924,1,0,0:0:0:0:
488,288,46131,1,2,0:0:0:0:
256,320,46234,1,0,0:0:0:0:
24,352,46337,1,0,0:0:0:0:
488,288,46544,1,10,0:0:0:0:
248,192,46958,6,0,L|392:192,1,130.000000298023,2|0,0:0|0:0,0:0:0:0:
264,128,47372,2,0,L|248:192,4,65.0000001490115,8|0|0|0|2,0:0|0:0|0:0|0:0|0:0,0:0:0:0:
152,192,47993,1,0,0:0:0:0:
136,320,48199,2,0,P|288:328|320:320,1,130.000000298023,8|0,0:0|0:0,0:0:0:0:
392,296,48613,2,0,P|400:144|392:112,1,130.000000298023,2|0,0:0|0:0,0:0:0:0:
344,48,49027,2,0,P|192:40|160:48,1,130.000000298023,10|0,0:0|0:0,0:0:0:0:
104,104,49441,6,2,P|96:256|104:288,2,130.000000298023,2|0|10,0:0|0:0|0:0,0:0:0:0:
200,192,50062,1,0,0:0:0:0:
328,192,50268,6,2,L|328:120,2,65.0000001490115,2|0|0,0:0|0:0|0:0,0:0:0:0:
256,97,50682,1,8,0:0:0:0:
136,48,50889,5,0,0:0:0:0:
136,112,50993,1,0,0:0:0:0:
136,48,51096,1,2,0:0:0:0:
136,112,51199,1,0,0:0:0:0:
136,48,51303,1,0,0:0:0:0:
136,176,51510,1,8,0:0:0:0:
136,304,51717,6,4,L|288:304,2,130.000000298023,0|2|0,0:0|0:0|0:0,0:0:0:0:
256,248,52337,2,4,L|408:216,1,130.000000596046,10|0,0:0|0:0,0:0:0:0:
256,192,52751,6,0,L|256:128,15,32.5000000745057,6|0|0|0|0|0|0|0|12|0|0|0|4|0|0|0,0:0|0:0|0:0|0:0|0:0|0:0|0:0|0:0|0:0|0:0|0:0|0:0|0:0|0:0|0:0|0:0,0:0:0:0:
144,232,53579,6,0,P|48:272|32:224,1,130.000000298023,4|0,0:0|0:0,0:0:0:0:
208,296,53993,2,0,P|304:256|320:304,1,130.000000298023,8|0,0:0|0:0,0:0:0:0:
448,192,54406,2,0,L|352:192,2,65.0000001490115,8|0|0,0:0|0:0|0:0,0:0:0:0:
448,112,54717,6,2,L|368:112,1,65.0000001490115,0|8,0:0|0:0,0:0:0:0:
344,48,54924,2,0,P|224:48|168:72,1,130.000000298023,0|0,0:0|0:0,0:0:0:0:
215,50,55234,1,8,0:0:0:0:
215,50,55337,2,0,P|144:128|120:192,1,130.000000298023,0|0,0:0|0:0,0:0:0:0:
133,149,55648,1,8,0:0:0:0:
133,149,55751,2,0,P|120:224|136:280,1,130.000000298023,0|0,0:0|0:0,0:0:0:0:
133,275,56062,1,8,0:0:0:0:
133,275,56165,2,0,P|196:336|264:368,1,130.000000298023,0|0,0:0|0:0,0:0:0:0:
232,356,56475,1,8,0:0:0:0:
232,356,56579,2,0,P|284:368|372:352,1,130.000000298023,0|0,0:0|0:0,0:0:0:0:
360,356,56889,5,12,0:0:0:0:
360,356,56993,2,0,P|420:336|480:280,1,130.000000298023,0|0,0:0|0:0,0:0:0:0:
470,293,57303,1,8,0:0:0:0:
470,293,57406,2,0,P|488:232|472:148,1,130.000000298023,0|0,0:0|0:0,0:0:0:0:
479,167,57717,1,8,0:0:0:0:
479,167,57820,2,0,P|444:84|392:48,1,130.000000298023,0|0,0:0|0:0,0:0:0:0:
415,59,58130,1,8,0:0:0:0:
415,59,58234,2,0,B|356:120|356:120|360:124|360:124|348:168,1,130.000000298023,0|0,0:0|0:0,0:0:0:0:
292,192,58544,2,8,B|288:104|288:104|284:104|284:104|272:84|268:136,2,130.000000298023,12|0|8,0:0|0:0|0:0,0:0:0:0:
160,192,59165,1,0,0:0:0:0:
272,256,59372,1,12,0:0:0:0:
292,192,59475,1,0,0:0:0:0:
424,192,59682,6,2,L|424:140,5,32.5000000745057,0|0|12|0|0|0,0:0|0:0|0:0|0:0|0:0|0:0,0:0:0:0:
344,76,60096,5,0,0:0:0:0:
344,76,60199,1,12,0:0:0:0:
344,76,60303,1,0,0:0:0:0:
344,76,60406,1,0,0:0:0:0:
344,76,60510,1,0,0:0:0:0:
268,76,60613,1,0,0:0:0:0:
112,76,60820,2,0,P|84:140|92:212,1,130.000000298023,0|8,0:0|0:0,0:0:0:0:
87,198,61130,2,8,P|128:200|164:184,2,65.0000001490115,0|0|0,0:0|0:0|0:0,0:0:0:0:
92,276,61441,6,0,P|116:276|204:252,1,65.0000001490115,8|0,0:0|0:0,0:0:0:0:
236,264,61648,2,8,B|248:188|292:140|352:132|416:160|424:216|416:292|356:328|268:336|264:324,1,390.000000894069,0|8,0:0|0:0,0:0:0:0:
184,224,62475,1,0,0:0:0:0:
256,84,62682,1,8,0:0:0:0:
256,164,62786,1,0,0:0:0:0:
408,128,62993,2,8,L|408:316,1,130.000000298023,0|0,0:0|0:0,0:0:0:0:
408,258,63303,1,0,0:0:0:0:
256,292,63510,6,0,L|256:208,1,65.0000001490115,12|0,0:0|0:0,0:0:0:0:
256,148,63717,2,0,L|288:28,1,65.0000001490115,0|0,0:0|0:0,0:0:0:0:
196,68,63924,1,8,0:0:0:0:
40,68,64130,1,0,0:0:0:0:
40,224,64337,2,4,P|56:220|112:240,2,65.0000001490115,12|0|0,0:0|0:0|0:0,0:0:0:0:
40,304,64648,1,0,0:0:0:0:
256,208,64958,6,2,P|276:200|320:212,2,65.0000001490115,0|0|12,0:0|0:0|0:0,0:0:0:0:
248,272,65268,2,10,L|256:208,1,65.000000298023,0|0,0:0|0:0,0:0:0:0:
176,208,65475,1,0,0:0:0:0:
176,128,65579,1,12,0:0:0:0:
332,128,65786,1,0,0:0:0:0:
480,176,65993,2,4,P|432:208|432:224,2,65.0000001490115,12|0|0,0:0|0:0|0:0,0:0:0:0:
432,240,66303,1,0,0:0:0:0:
352,224,66406,2,0,L|320:224,8,32.5000000745057,12|0|0|0|0|0|0|0|12,0:0|0:0|0:0|0:0|0:0|0:0|0:0|0:0|0:0,0:0:0:0:
280,192,66924,6,0,L|240:80,2,65.0000001490115,0|0|0,0:0|0:0|0:0,0:0:0:0:
200,192,67234,1,8,0:0:0:0:
40,192,67441,1,0,0:0:0:0:
40,352,67648,1,8,0:0:0:0:
40,352,67855,1,0,0:0:0:0:
40,352,67959,2,0,P|168:352|200:344,1,130.000000298023,0|0,0:0|0:0,0:0:0:0:
216,288,68268,6,0,L|216:256,3,32.5000000745057,0|0|0|0,0:0|0:0|0:0|0:0,0:0:0:0:
256,256,68475,2,0,P|368:256|400:208,1,130.000000298023,8|0,0:0|0:0,0:0:0:0:
256,152,68889,2,0,P|368:152|400:200,1,130.000000298023,8|0,0:0|0:0,0:0:0:0:
376,312,69303,2,8,P|320:336|256:318,1,65.0000001490115,8|0,0:0|0:0,0:0:0:0:
256,184,69613,1,0,0:0:0:0:
416,192,69820,6,2,B|352:160|352:160|360:136,2,65.0000001490115,0|0|0,0:0|0:0|0:0,0:0:0:0:
344,160,70130,2,2,P|256:80|200:72,3,130.000000298023,12|0|8|0,0:0|0:0|0:0|0:0,0:0:0:0:
128,192,70958,2,8,L|128:264,1,65.0000001490115,8|0,0:0|0:0,0:0:0:0:
128,127,71165,2,4,L|128:192,1,65.0000001490115,0|0,0:0|0:0,0:0:0:0:
192,127,71372,2,8,L|128:127,1,65.0000001490115,8|0,0:0|0:0,0:0:0:0:
192,62,71579,2,4,L|192:127,1,65.0000001490115,0|0,0:0|0:0,0:0:0:0:
257,63,71786,2,8,L|192:62,6,65.0000001490115,12|0|8|0|12|0|8,0:0|0:0|0:0|0:0|0:0|0:0|0:0,0:0:0:0:
296,64,73079,6,0,L|296:96,6,32.5000000745057,0|0|0|0|0|0|0,0:0|0:0|0:0|0:0|0:0|0:0|0:0,0:0:0:0:
336,64,73441,5,12,0:0:0:0:
496,64,73648,2,4,P|472:152|408:200,1,130.000000298023,0|8,0:0|0:0,0:0:0:0:
288,176,74062,2,4,P|312:88|376:40,1,130.000000298023,0|8,0:0|0:0,0:0:0:0:
337,61,74372,1,0,0:0:0:0:
337,61,74579,1,0,0:0:0:0:
336,64,74682,1,8,0:0:0:0:
424,192,74889,6,8,P|400:248|336:296,1,130.000000298023,0|12,0:0|0:0,0:0:0:0:
232,192,75303,2,8,P|256:248|320:296,1,130.000000298023,0|8,0:0|0:0,0:0:0:0:
328,296,75717,1,0,0:0:0:0:
216,192,75924,2,8,P|232:88|312:32,1,195.000000447034,8|0,0:0|0:0,0:0:0:0:
322,111,76337,2,0,P|351:60|299:35,1,130.000000298023,8|0,0:0|0:0,0:0:0:0:
299,35,76648,5,0,0:0:0:0:
247,74,76751,2,0,L|299:35,2,65.0000001490115,12|0|0,0:0|0:0|0:0,0:0:0:0:
88,72,77165,1,8,0:0:0:0:
88,232,77372,1,0,0:0:0:0:
248,232,77579,2,8,P|296:208|328:208,2,65.0000001490115,12|0|0,0:0|0:0|0:0,0:0:0:0:
248,72,77993,1,8,0:0:0:0:
248,224,78199,2,0,L|88:224,1,130.000000298023,0|14,0:0|0:0,0:0:0:0:
88,72,78613,1,2,0:0:0:0:
248,72,78820,1,14,0:0:0:0:
248,232,79027,1,2,0:0:0:0:
88,232,79234,1,14,0:0:0:0:
88,72,79441,1,2,0:0:0:0:
224,144,79648,2,0,P|312:128|496:232,1,260.000001192092,12|12,0:0|0:0,0:0:0:0:
48,192,93303,5,2,0:0:0:0:
112,192,93510,1,0,0:0:0:0:
176,192,93717,1,2,0:0:0:0:
240,192,93924,1,0,0:0:0:0:
304,192,94130,1,2,0:0:0:0:
336,192,94234,1,2,0:0:0:0:
400,192,94441,1,2,0:0:0:0:
464,192,94648,6,8,L|464:120,2,65.0000001490115,4|0|4,0:0|0:0|0:0,0:0:0:0:
464,224,94958,5,2,0:0:0:0:
464,288,95165,1,0,0:0:0:0:
400,288,95372,1,2,0:0:0:0:
400,224,95579,1,0,0:0:0:0:
336,224,95786,1,2,0:0:0:0:
336,224,95889,1,2,0:0:0:0:
272,224,96096,1,2,0:0:0:0:
336,224,96303,6,8,B|320:264|320:264|328:288,2,65.0000001490115,4|0|4,0:0|0:0|0:0,0:0:0:0:
336,192,96613,5,2,0:0:0:0:
400,192,96820,1,0,0:0:0:0:
336,192,97027,1,2,0:0:0:0:
272,192,97234,1,0,0:0:0:0:
208,192,97440,1,2,0:0:0:0:
176,192,97544,1,2,0:0:0:0:
112,192,97751,1,2,0:0:0:0:
48,192,97958,6,8,L|48:264,2,65.0000001490115,4|0|4,0:0|0:0|0:0,0:0:0:0:
48,160,98268,5,2,0:0:0:0:
48,96,98475,1,0,0:0:0:0:
112,96,98682,1,2,0:0:0:0:
112,160,98889,1,0,0:0:0:0:
176,160,99096,1,2,0:0:0:0:
176,160,99199,1,2,0:0:0:0:
240,160,99406,1,2,0:0:0:0:
304,160,99613,6,8,B|320:120|320:120|312:96,2,65.0000001490115,4|0|4,0:0|0:0|0:0,0:0:0:0:
304,192,99924,5,8,0:0:0:0:
336,192,100130,2,8,L|480:192,1,130.000000298023,8|8,0:0|0:0,0:0:0:0:
464,256,100544,1,8,0:0:0:0:
400,256,100751,5,8,0:0:0:0:
336,256,100958,2,8,L|184:256,1,130.000000298023,8|8,0:0|0:0,0:0:0:0:
208,192,101372,1,8,0:0:0:0:
144,192,101579,6,8,L|144:48,3,130.000000298023,8|8|8|8,0:0|0:0|0:0|0:0,0:0:0:0:
208,62,102406,6,8,L|208:192,3,130.000000298023,8|8|8|8,0:0|0:0|0:0|0:0,0:0:0:0:
272,192,103234,6,8,L|272:112,3,65.0000001490115,12|8|12|8,0:0|0:0|0:0|0:0,0:0:0:0:
304,128,103648,6,8,L|304:48,3,65.0000001490115,12|8|12|8,0:0|0:0|0:0|0:0,0:0:0:0:
336,64,104062,6,8,L|336:136,3,65.0000001490115,12|8|12|8,0:0|0:0|0:0|0:0,0:0:0:0:
368,128,104475,6,8,L|368:200,3,65.0000001490115,12|8|12|8,0:0|0:0|0:0|0:0,0:0:0:0:
368,224,104889,6,0,L|320:224,1,32.5000000745057,12|0,0:0|0:0,0:0:0:0:
336,240,104993,6,0,L|304:240,1,32.5000000745057,12|0,0:0|0:0,0:0:0:0:
304,256,105096,6,0,L|272:256,1,32.5000000745057,12|0,0:0|0:0,0:0:0:0:
272,272,105199,6,0,L|240:272,1,32.5000000745057,12|0,0:0|0:0,0:0:0:0:
240,288,105303,6,0,L|208:288,1,32.5000000745057,12|0,0:0|0:0,0:0:0:0:
208,304,105406,6,0,L|176:304,1,32.5000000745057,12|0,0:0|0:0,0:0:0:0:
176,320,105510,6,0,L|144:320,1,32.5000000745057,12|0,0:0|0:0,0:0:0:0:
144,336,105613,6,0,L|112:336,1,32.5000000745057,12|0,0:0|0:0,0:0:0:0:
112,320,105717,6,0,L|112:272,1,32.5000000745057,12|0,0:0|0:0,0:0:0:0:
128,288,105820,6,0,L|128:248,1,32.5000000745057,12|0,0:0|0:0,0:0:0:0:
144,256,105924,6,0,L|144:200,1,32.5000000745057,12|0,0:0|0:0,0:0:0:0:
160,224,106027,6,0,L|160:176,1,32.5000000745057,12|0,0:0|0:0,0:0:0:0:
176,192,106130,6,0,L|176:144,1,32.5000000745057,12|0,0:0|0:0,0:0:0:0:
192,160,106234,6,0,L|192:128,1,32.5000000745057,12|0,0:0|0:0,0:0:0:0:
208,128,106337,6,0,L|208:96,1,32.5000000745057,12|0,0:0|0:0,0:0:0:0:
224,96,106441,6,0,L|224:64,1,32.5000000745057,12|0,0:0|0:0,0:0:0:0:
256,192,106544,5,12,0:0:0:0:
384,192,106751,2,0,P|368:112|328:88,1,130.000000596046,0|0,0:0|0:0,0:0:0:0:
208,128,107165,1,0,0:0:0:0:
176,192,107268,1,0,0:0:0:0:
144,256,107372,1,0,0:0:0:0:
248,328,107579,2,0,B|304:312|304:312|320:256|352:248,1,130.000000596046,0|0,0:0|0:0,0:0:0:0:
352,184,107889,1,0,0:0:0:0:
336,120,107993,2,0,B|328:104|336:88|336:88|312:96|232:72,1,130.000000596046,0|0,0:0|0:0,0:0:0:0:
278,297,108406,2,2,B|296:298|306:313|306:313|311:288|371:231,1,130.000000596046,0|0,0:0|0:0,0:0:0:0:
153,158,108820,2,2,B|143:173|125:174|125:174|144:191|164:272,1,130.000000596046,0|0,0:0|0:0,0:0:0:0:
161,263,109130,1,0,0:0:0:0:
224,288,109234,1,0,0:0:0:0:
288,296,109337,1,0,0:0:0:0:
352,296,109441,1,0,0:0:0:0:
256,96,109648,6,2,L|256:136,3,32.5000001490115,0|0|0|0,0:0|0:0|0:0|0:0,0:0:0:0:
256,192,109855,5,0,0:0:0:0:
392,192,110062,1,0,0:0:0:0:
392,64,110268,2,0,B|408:72|392:96|392:96|368:80|304:72|320:120,1,130.000000596046,0|0,0:0|0:0,0:0:0:0:
256,96,110579,1,0,0:0:0:0:
192,96,110682,2,0,B|184:128|128:144|128:144|80:192|176:232,1,195.000000894069,0|0,0:0|0:0,0:0:0:0:
162,226,111096,1,0,0:0:0:0:
168,360,111303,2,0,B|184:320|200:312|200:312|200:320|208:320|208:320|224:296,1,97.5000004470344,0|0,0:0|0:0,0:0:0:0:
256,296,111510,2,0,L|256:256,3,32.5000001490115,8|0|8|0,0:0|0:0|0:0|0:0,0:0:0:0:
360,192,111717,2,0,L|320:192,3,32.5000001490115,8|0|8|0,0:0|0:0|0:0|0:0,0:0:0:0:
256,88,111924,2,0,L|256:128,3,32.5000001490115,8|0|8|0,0:0|0:0|0:0|0:0,0:0:0:0:
152,192,112131,2,0,L|192:192,3,32.5000001490115,8|0|8|0,0:0|0:0|0:0|0:0,0:0:0:0:
256,296,112337,2,0,L|256:256,3,32.5000001490115,8|0|8|0,0:0|0:0|0:0|0:0,0:0:0:0:
360,192,112544,2,0,L|320:192,3,32.5000001490115,8|0|8|0,0:0|0:0|0:0|0:0,0:0:0:0:
256,88,112751,2,2,L|256:112,15,16.2500000745057,8|0|0|0|8|0|0|0|8|0|0|0|8|0|0|0,0:0|0:0|0:0|0:0|0:0|0:0|0:0|0:0|0:0|0:0|0:0|0:0|0:0|0:0|0:0|0:0,0:0:0:0:
352,96,113165,5,8,0:0:0:0:
264,192,113372,2,0,B|224:216|224:240|224:240|208:224|176:288,1,130.000000596046,0|8,0:0|0:0,0:0:0:0:
48,272,113786,1,0,0:0:0:0:
48,144,113993,2,0,B|64:136|72:120|72:120|80:128|112:128,2,65.000000298023,0|0|0,0:0|0:0|0:0,0:0:0:0:
104,104,114303,1,0,0:0:0:0:
160,72,114406,2,0,B|232:128|264:80|240:64|200:112|192:208,1,195.000000894069,8|0,0:0|0:0,0:0:0:0:
194,189,114820,1,0,0:0:0:0:
480,32,115027,1,0,0:0:0:0:
32,352,115234,1,8,0:0:0:0:
416,32,115441,1,0,0:0:0:0:
96,352,115648,1,0,0:0:0:0:
480,96,115855,1,0,0:0:0:0:
32,288,116062,1,8,0:0:0:0:
160,288,116268,6,0,P|168:272|184:264,3,32.5000001490115,0|0|0|0,0:0|0:0|0:0|0:0,0:0:0:0:
336,192,116475,5,0,0:0:0:0:
72,192,116682,2,0,B|120:144|104:104|104:104|88:64|176:40|240:136,1,260.000001192092,0|8,0:0|0:0,0:0:0:0:
336,192,117096,1,0,0:0:0:0:
72,192,117303,2,0,B|120:268|208:244|192:204|192:204|176:164|224:116,1,260.000001192092,0|0,0:0|0:0,0:0:0:0:
352,104,117717,2,0,L|432:104,1,65.000000298023,8|0,0:0|0:0,0:0:0:0:
480,104,117924,1,0,0:0:0:0:
485,168,118027,1,0,0:0:0:0:
471,231,118130,1,0,0:0:0:0:
438,287,118234,1,0,0:0:0:0:
389,329,118337,1,0,0:0:0:0:
330,355,118441,1,0,0:0:0:0:
265,361,118544,1,8,0:0:0:0:
202,347,118648,1,0,0:0:0:0:
146,314,118751,1,0,0:0:0:0:
202,347,118854,1,0,0:0:0:0:
265,361,118958,1,0,0:0:0:0:
330,355,119061,1,0,0:0:0:0:
389,329,119165,1,0,0:0:0:0:
438,287,119268,1,0,0:0:0:0:
471,231,119372,1,8,0:0:0:0:
485,168,119475,1,0,0:0:0:0:
480,104,119579,6,0,L|424:104,7,32.5000001490115,0|0|0|0|0|0|0|0,0:0|0:0|0:0|0:0|0:0|0:0|0:0|0:0,0:0:0:0:
352,128,119993,5,0,0:0:0:0:
224,96,120199,2,0,P|120:112|112:136,1,130.000000596046,8|0,0:0|0:0,0:0:0:0:
56,152,120510,2,0,B|64:160|88:168|88:168|64:176|56:184,2,65.000000298023,0|0|0,0:0|0:0|0:0,0:0:0:0:
64,216,120820,2,0,P|136:232|200:208,2,130.000000596046,0|8|0,0:0|0:0|0:0,0:0:0:0:
56,280,121337,1,0,0:0:0:0:
48,344,121441,1,0,0:0:0:0:
64,280,121544,1,0,0:0:0:0:
56,344,121648,1,0,0:0:0:0:
72,280,121751,1,0,0:0:0:0:
64,344,121855,1,8,0:0:0:0:
80,280,121958,1,0,0:0:0:0:
72,344,122062,1,0,0:0:0:0:
88,280,122165,1,0,0:0:0:0:
80,344,122268,1,0,0:0:0:0:
96,280,122372,1,0,0:0:0:0:
88,344,122475,1,0,0:0:0:0:
104,280,122579,1,0,0:0:0:0:
96,344,122682,2,0,L|160:344,8,32.5000001490115,8|0|0|0|0|0|0|0|0,0:0|0:0|0:0|0:0|0:0|0:0|0:0|0:0|0:0,0:0:0:0:
376,144,123303,5,0,0:0:0:0:
296,40,123510,2,0,B|304:48|264:32|264:32|248:72|176:64,1,130.000000596046,8|0,0:0|0:0,0:0:0:0:
408,232,123924,2,2,B|400:240|416:200|416:200|376:184|384:112,1,130.000000596046,0|0,0:0|0:0,0:0:0:0:
216,344,124337,2,8,B|208:336|248:352|248:352|264:312|336:320,1,130.000000596046,8|0,0:0|0:0,0:0:0:0:
104,152,124751,2,4,B|112:144|96:184|96:184|136:200|128:272,1,130.000000596046,0|0,0:0|0:0,0:0:0:0:
224,352,125165,2,2,B|216:344|256:360|256:360|272:320|335:327,1,130.000000596046,8|0,0:0|0:0,0:0:0:0:
416,224,125579,2,8,B|408:232|424:192|424:192|384:176|391:112,1,130.000000596046,0|0,0:0|0:0,0:0:0:0:
296,32,125993,2,4,B|304:40|264:24|264:24|248:64|184:56,1,130.000000596046,8|0,0:0|0:0,0:0:0:0:
144,176,126406,6,0,P|124:134|155:100,1,97.5000004470345,0|0,0:0|0:0,0:0:0:0:
160,136,126613,2,0,P|224:112|240:152,1,97.5000004470345,0|0,0:0|0:0,0:0:0:0:
208,144,126820,2,0,P|232:208|184:224,1,130.000000596046,8|0,0:0|0:0,0:0:0:0:
64,192,127234,1,0,0:0:0:0:
64,224,127337,1,0,0:0:0:0:
64,257,127440,1,0,0:0:0:0:
64,128,127648,1,8,0:0:0:0:
136,240,127855,2,0,L|232:240,1,65.000000298023,0|0,0:0|0:0,0:0:0:0:
256,96,128062,6,0,L|256:16,1,65.000000298023,0|0,0:0|0:0,0:0:0:0:
256,288,128268,2,0,L|256:368,1,65.000000298023,0|0,0:0|0:0,0:0:0:0:
323,124,128475,2,0,L|380:67,1,65.000000298023,8|0,0:0|0:0,0:0:0:0:
188,259,128682,2,0,L|131:316,1,65.000000298023,0|0,0:0|0:0,0:0:0:0:
352,192,128889,2,0,L|432:192,1,65.000000298023,0|0,0:0|0:0,0:0:0:0:
160,192,129096,2,0,L|80:192,1,65.000000298023,0|0,0:0|0:0,0:0:0:0:
323,259,129303,2,0,L|380:316,1,65.000000298023,8|0,0:0|0:0,0:0:0:0:
188,124,129510,6,0,L|131:67,1,65.000000298023,0|0,0:0|0:0,0:0:0:0:
208,64,129717,2,8,L|312:64,3,65.000000298023,0|0|0|0,0:0|0:0|0:0|0:0,0:0:0:0:
256,128,130130,2,4,L|384:128,1,65.000000298023,8|0,0:0|0:0,0:0:0:0:
352,184,130337,6,8,L|408:240,1,65.000000298023,0|0,0:0|0:0,0:0:0:0:
332,244,130544,2,12,L|228:244,3,65.000000298023,0|0|0|0,0:0|0:0|0:0|0:0,0:0:0:0:
284,180,130958,2,10,L|176:176,1,65.000000298023,8|0,0:0|0:0,0:0:0:0:
80,192,131165,5,0,0:0:0:0:
80,128,131268,2,0,P|80:96|112:72,1,65.000000298023,0|0,0:0|0:0,0:0:0:0:
80,256,131475,2,0,P|80:288|112:312,1,65.000000298023,0|0,0:0|0:0,0:0:0:0:
125,146,131682,2,0,P|147:124|187:129,1,65.000000298023,0|8,0:0|0:0,0:0:0:0:
34,237,131889,2,0,P|12:259|17:299,1,65.000000298023,0|0,0:0|0:0,0:0:0:0:
144,192,132096,2,0,P|176:192|200:224,1,65.000000298023,0|8,0:0|0:0,0:0:0:0:
16,192,132303,2,8,P|-8:192|-24:232,1,65.000000298023,8|8,0:0|0:0,0:0:0:0:
125,237,132510,2,8,P|147:259|187:254,1,65.000000298023,8|8,0:0|0:0,0:0:0:0:
34,146,132717,2,8,P|12:124|17:84,1,65.000000298023,8|8,0:0|0:0,0:0:0:0:
472,32,132924,5,8,0:0:0:0:
32,352,133027,5,12,0:0:0:0:
296,352,133234,1,0,0:0:0:0:
416,120,133441,1,8,0:0:0:0:
152,120,133648,1,0,0:0:0:0:
32,352,133855,1,8,0:0:0:0:
32,352,133958,1,0,0:0:0:0:
256,192,134062,12,0,136234,0:0:0:0:
64,176,136337,6,0,P|128:96|184:80,1,130.000000596046,12|0,0:0|0:0,0:0:0:0:
392,192,136751,2,0,P|328:272|272:288,1,130.000000596046,8|0,0:0|0:0,0:0:0:0:
144,72,137165,1,8,0:0:0:0:
144,72,137268,1,0,0:0:0:0:
144,160,137475,2,2,P|200:280|200:40,1,823.325129317899,0|0,0:0|0:0,0:0:0:0:
256,88,139648,6,0,L|344:88,1,65.000000298023,12|0,0:0|0:0,0:0:0:0:
256,200,139855,2,0,L|168:200,1,65.000000298023,0|0,0:0|0:0,0:0:0:0:
256,312,140062,2,0,L|336:312,1,65.000000298023,8|0,0:0|0:0,0:0:0:0:
376,200,140268,2,0,L|304:200,1,65.000000298023,0|0,0:0|0:0,0:0:0:0:
248,88,140475,2,0,L|160:88,1,65.000000298023,8|0,0:0|0:0,0:0:0:0:
183,88,140682,1,0,0:0:0:0:
64,320,140889,2,2,L|208:320,1,130.000000596046,8|0,0:0|0:0,0:0:0:0:
256,336,142958,6,8,L|256:192,2,130.000000596046,12|0|8,0:0|0:0|0:0,0:0:0:0:
256,206,143579,2,8,L|256:336,2,130.000000596046,0|12|0,0:0|0:0|0:0,0:0:0:0:
192,192,144199,1,8,0:0:0:0:
192,160,144303,1,0,0:0:0:0:
256,88,144613,1,12,0:0:0:0:
320,88,144820,1,0,0:0:0:0:
384,88,145027,1,12,0:0:0:0:
384,152,145233,1,0,0:0:0:0:
384,216,145441,1,12,0:0:0:0:
352,216,145544,1,0,0:0:0:0:
384,272,145751,2,2,B|400:288|360:312|360:312|328:272|144:384|216:264|216:264|304:152|136:168|104:176|104:176|0:208|136:80,1,650.00000298023,0|12,0:0|0:0,0:0:0:0:
32,32,146475,5,0,0:0:0:0:
296,32,146682,1,8,0:0:0:0:
416,264,146889,1,0,0:0:0:0:
152,264,147096,1,8,0:0:0:0:
152,264,147199,1,0,0:0:0:0:
256,192,147303,12,0,149475,0:0:0:0:
64,208,149579,6,0,P|128:288|184:304,1,130.000000596046,12|0,0:0|0:0,0:0:0:0:
392,192,149993,2,0,P|328:112|272:96,1,130.000000596046,8|0,0:0|0:0,0:0:0:0:
144,312,150407,1,8,0:0:0:0:
144,312,150510,1,0,0:0:0:0:
144,224,150717,2,0,P|200:104|200:352,1,866.658030860946,0|0,0:0|0:0,0:0:0:0:
256,296,152889,6,0,L|344:296,1,65.000000298023,12|0,0:0|0:0,0:0:0:0:
256,184,153096,2,0,L|168:184,1,65.000000298023,0|0,0:0|0:0,0:0:0:0:
256,72,153303,2,0,L|336:72,1,65.000000298023,8|0,0:0|0:0,0:0:0:0:
376,184,153509,2,0,L|304:184,1,65.000000298023,0|0,0:0|0:0,0:0:0:0:
248,296,153716,2,0,L|160:296,1,65.000000298023,8|0,0:0|0:0,0:0:0:0:
183,296,153923,1,0,0:0:0:0:
64,64,154130,2,0,L|208:64,1,130.000000596046,8|0,0:0|0:0,0:0:0:0:
256,48,156200,6,0,L|256:192,5,130.000000596046,8|0|8|0|12|0,0:0|0:0|0:0|0:0|0:0|0:0,0:0:0:0:
192,192,157441,1,8,0:0:0:0:
192,224,157545,1,0,0:0:0:0:
256,296,157855,1,12,0:0:0:0:
320,296,158062,1,0,0:0:0:0:
384,296,158269,1,12,0:0:0:0:
384,232,158475,1,0,0:0:0:0:
384,168,158683,1,12,0:0:0:0:
352,168,158786,1,0,0:0:0:0:
384,112,158993,1,0,0:0:0:0:
160,296,159303,5,8,0:0:0:0:
272,296,159406,5,8,0:0:0:0:
384,296,159510,5,12,0:0:0:0:
296,192,159717,2,0,P|224:192|144:200,2,130.000000596046,0|8|0,0:0|0:0|0:0,0:0:0:0:
256,72,160337,2,0,P|288:128|296:192,1,130.000000596046,0|0,0:0|0:0,0:0:0:0:
232,192,160648,1,0,0:0:0:0:
166,196,160751,2,2,B|128:144|128:144|96:160|48:112,1,130.000000596046,8|0,0:0|0:0,0:0:0:0:
64,64,161062,1,0,0:0:0:0:
128,64,161165,2,12,B|160:64|160:80|160:80|160:96|200:96|200:80|200:80|200:64|240:64,4,130.000000596046,0|0|8|0|0,0:0|0:0|0:0|0:0|0:0,0:0:0:0:
64,64,162096,1,0,0:0:0:0:
88,192,162303,1,0,0:0:0:0:
216,192,162510,5,0,0:0:0:0:
216,192,162613,1,0,0:0:0:0:
280,200,162717,1,0,0:0:0:0:
344,200,162820,2,0,B|344:176|328:176|328:176|320:176|320:176|328:168|328:168|320:168|320:168|328:160|328:160|320:160|320:160|368:176|416:152|344:24,1,260.000001192092,12|8,0:0|0:0,0:0:0:0:
256,128,163441,1,0,0:0:0:0:
256,256,163648,1,0,0:0:0:0:
320,256,163751,1,0,0:0:0:0:
256,256,163855,2,2,L|256:112,1,130.000000596046,0|8,0:0|0:0,0:0:0:0:
320,128,164165,5,0,0:0:0:0:
320,128,164268,1,0,0:0:0:0:
320,128,164372,1,0,0:0:0:0:
320,128,164475,1,4,0:0:0:0:
192,128,164682,1,0,0:0:0:0:
256,128,164786,2,2,B|256:80|256:80|256:56|232:32|208:32|208:32|120:32|80:216,1,325.000001490115,0|4,0:0|0:0,0:0:0:0:
89,178,165406,1,0,0:0:0:0:
88,312,165613,2,2,L|168:312,1,65.000000298023,0|12,0:0|0:0,0:0:0:0:
280,312,165924,6,8,L|272:216,2,65.000000298023,0|0|4,0:0|0:0|0:0,0:0:0:0:
264,184,166337,1,0,0:0:0:0:
264,184,166441,1,0,0:0:0:0:
200,192,166544,2,8,B|192:144|232:112|232:112|272:144|336:112,1,195.000000894069,12|0,0:0|0:0,0:0:0:0:
386,154,166958,1,0,0:0:0:0:
440,192,167062,2,8,L|360:136,1,65.000000298023,0|0,0:0|0:0,0:0:0:0:
440,192,167268,2,8,B|472:224|440:256|440:256|400:216|360:256,1,130.000000596046,0|0,0:0|0:0,0:0:0:0:
389,237,167579,5,0,0:0:0:0:
328,240,167682,1,0,0:0:0:0:
389,237,167786,1,4,0:0:0:0:
328,240,167889,1,0,0:0:0:0:
328,240,167993,1,0,0:0:0:0:
200,240,168199,2,0,P|192:160|232:96,1,130.000000596046,8|0,0:0|0:0,0:0:0:0:
464,192,168613,2,0,P|472:272|432:336,2,130.000000596046,0|0|0,0:0|0:0|0:0,0:0:0:0:
464,64,169027,1,8,0:0:0:0:
408,96,169130,6,8,L|344:96,5,32.5000001490115,0|0|0|0|0|0,0:0|0:0|0:0|0:0|0:0|0:0,0:0:0:0:
376,128,169441,1,4,0:0:0:0:
248,128,169648,2,0,P|144:160|112:200,1,130.000000596046,0|8,0:0|0:0,0:0:0:0:
192,200,169958,1,0,0:0:0:0:
320,184,170062,2,0,P|288:80|248:48,1,130.000000596046,0|4,0:0|0:0,0:0:0:0:
248,128,170372,1,0,0:0:0:0:
264,256,170475,2,0,P|368:224|400:184,1,130.000000596046,0|8,0:0|0:0,0:0:0:0:
320,184,170786,1,0,0:0:0:0:
192,200,170889,2,0,P|224:304|264:336,5,130.000000596046,0|4|0|12|0|4,0:0|0:0|0:0|0:0|0:0|0:0,0:0:0:0:
304,328,172027,2,14,B|312:328|312:328|304:328|304:328|312:328|312:328|304:328|304:328|312:328|312:328|304:328|304:328|312:328|312:328|304:328|304:328|312:328|312:328|304:328|304:328|312:328|312:328|304:328|304:328|312:328|312:328|304:328|304:328|312:328|312:328|304:328|304:328|312:328|312:328|304:328|304:328|304:264|344:224|368:224|368:224|392:224|432:264|432:344,1,390.000001788138,0|0,0:0|0:0,0:0:0:0:
429,311,172751,5,4,0:0:0:0:
429,311,172855,1,0,0:0:0:0:
429,311,172958,1,0,0:0:0:0:
429,311,173062,1,0,0:0:0:0:
496,240,173165,2,0,B|488:128|488:128|480:104|400:72,1,195.000008332729,8|0,0:0|0:0,0:0:0:0:
232,48,173579,2,0,L|152:144,1,97.5000041663645,0|0,0:0|0:0,0:0:0:0:
176,320,173889,1,0,0:0:0:0:
328,192,174096,6,8,P|352:176|432:184,2,97.5000041663645,0|0|0,0:0|0:0|0:0,0:0:0:0:
232,192,174406,2,0,P|208:176|128:184,2,97.5000041663645,0|0|0,0:0|0:0|0:0,0:0:0:0:
432,192,174820,1,8,0:0:0:0:
240,192,175027,1,0,0:0:0:0:
48,192,175234,1,0,0:0:0:0:
48,192,175337,1,0,0:0:0:0:
240,184,175544,1,0,0:0:0:0:
400,72,175751,6,0,L|400:184,5,97.5000041663645,0|0|0|12|0|0,0:0|0:0|0:0|0:0|0:0|0:0,0:0:0:0:
216,104,176475,2,8,P|152:208|160:304,1,195.000008332729,8|0,0:0|0:0,0:0:0:0:
344,296,176889,2,8,L|344:184,1,97.5000041663645,0|0,0:0|0:0,0:0:0:0:
344,296,177199,1,0,0:0:0:0:
176,192,177406,6,0,P|216:224|312:208,1,97.5000041663645,0|0,0:0|0:0,0:0:0:0:
256,112,177613,2,0,P|224:152|240:248,1,97.5000041663645,0|4,0:0|0:0,0:0:0:0:
336,192,177820,2,0,P|296:160|200:176,1,97.5000041663645,0|0,0:0|0:0,0:0:0:0:
256,272,178027,2,0,P|288:232|272:136,1,97.5000041663645,0|8,0:0|0:0,0:0:0:0:
488,192,178337,1,0,0:0:0:0:
294,187,178544,1,4,0:0:0:0:
256,96,178648,1,0,0:0:0:0:
256,288,178855,1,0,0:0:0:0:
88,192,179062,5,0,0:0:0:0:
88,192,179165,1,0,0:0:0:0:
88,192,179268,1,0,0:0:0:0:
88,192,179372,2,0,B|96:240|96:240|112:208|232:192,2,195.000008332729,4|0|8,0:0|0:0|0:0,0:0:0:0:
294,187,179993,1,0,0:0:0:0:
88,192,180199,1,0,0:0:0:0:
184,192,180303,1,0,0:0:0:0:
184,192,180510,1,0,0:0:0:0:
88,192,180613,1,8,0:0:0:0:
128,280,180717,6,8,P|240:320|304:304,4,97.5000041663645,0|0|0|4|0,0:0|0:0|0:0|0:0|0:0,0:0:0:0:
224,256,181234,1,0,0:0:0:0:
400,344,181441,1,8,0:0:0:0:
376,152,181648,1,0,0:0:0:0:
296,328,181855,1,0,0:0:0:0:
296,328,181958,1,0,0:0:0:0:
296,328,182165,1,0,0:0:0:0:
256,192,182372,12,0,185889,0:0:0:0:
256,112,185993,6,0,P|320:128|328:184,2,97.5000041663645,12|0|8,0:0|0:0|0:0,0:0:0:0:
160,104,186613,1,0,0:0:0:0:
160,152,186717,1,0,0:0:0:0:
160,104,186820,1,2,0:0:0:0:
160,152,186924,1,0,0:0:0:0:
248,120,187130,1,0,0:0:0:0:
312,192,187337,6,8,P|272:264|264:272,1,48.7500020831822,0|0,0:0|0:0,0:0:0:0:
200,192,187544,2,8,P|240:120|248:112,1,48.7500020831822,0|0,0:0|0:0,0:0:0:0:
304,192,187855,2,2,L|200:192,1,97.5000041663645,0|8,0:0|0:0,0:0:0:0:
136,264,188268,5,0,0:0:0:0:
102,280,188372,1,0,0:0:0:0:
54,280,188475,1,2,0:0:0:0:
96,192,188682,1,2,0:0:0:0:
145,192,188786,1,0,0:0:0:0:
392,192,189303,6,2,P|392:104|384:56,1,97.5000041663645,4|0,0:0|0:0,0:0:0:0:
344,184,189717,1,8,0:0:0:0:
256,144,189924,2,8,L|256:56,1,48.7500020831822,0|0,0:0|0:0,0:0:0:0:
232,136,190130,2,8,L|232:224,1,48.7500020831822,2|0,0:0|0:0,0:0:0:0:
312,136,190441,1,0,0:0:0:0:
232,184,190648,5,0,0:0:0:0:
229,231,190751,1,0,0:0:0:0:
180,231,190855,1,0,0:0:0:0:
132,231,190958,1,4,0:0:0:0:
168,136,191165,1,0,0:0:0:0:
72,136,191372,1,8,0:0:0:0:
168,128,191579,1,0,0:0:0:0:
264,144,191786,1,6,0:0:0:0:
264,144,191889,1,0,0:0:0:0:
168,152,192096,1,0,0:0:0:0:
488,24,192613,5,6,0:0:0:0:
439,24,192819,1,0,0:0:0:0:
390,24,193026,1,0,0:0:0:0:
341,24,193233,1,0,0:0:0:0:
317,24,193337,1,0,0:0:0:0:
293,24,193440,1,0,0:0:0:0:
268,24,193544,1,0,0:0:0:0:
219,24,193750,1,0,0:0:0:0:
171,24,193957,5,0,0:0:0:0:
146,24,194061,1,0,0:0:0:0:
122,24,194164,1,0,0:0:0:0:
97,24,194268,1,4,0:0:0:0:
49,24,194475,1,0,0:0:0:0:
40,63,194681,1,0,0:0:0:0:
40,112,194888,1,0,0:0:0:0:
40,136,194993,1,0,0:0:0:0:
40,161,195095,1,2,0:0:0:0:
40,208,195303,1,2,0:0:0:0:
40,234,195406,1,0,0:0:0:0:
44,352,195923,5,4,0:0:0:0:
92,352,196130,1,0,0:0:0:0:
141,352,196337,1,0,0:0:0:0:
190,352,196544,1,0,0:0:0:0:
214,352,196647,1,0,0:0:0:0:
239,352,196750,1,0,0:0:0:0:
263,352,196854,1,0,0:0:0:0:
312,352,197061,1,0,0:0:0:0:
360,352,197268,5,0,0:0:0:0:
385,352,197371,1,0,0:0:0:0:
409,352,197475,1,0,0:0:0:0:
434,352,197578,1,4,0:0:0:0:
482,352,197785,1,0,0:0:0:0:
488,308,197992,1,12,0:0:0:0:
488,259,198199,1,0,0:0:0:0:
488,211,198406,1,4,0:0:0:0:
488,186,198509,1,0,0:0:0:0:
488,137,198716,1,0,0:0:0:0:
415,88,199233,5,12,0:0:0:0:
391,88,199337,1,0,0:0:0:0:
367,88,199440,1,0,0:0:0:0:
342,88,199544,1,0,0:0:0:0:
318,88,199647,1,8,0:0:0:0:
294,88,199750,1,0,0:0:0:0:
269,88,199854,1,0,0:0:0:0:
245,88,199957,1,0,0:0:0:0:
220,88,200061,1,10,0:0:0:0:
196,88,200164,1,0,0:0:0:0:
172,88,200268,1,2,0:0:0:0:
147,88,200371,1,0,0:0:0:0:
123,88,200475,1,10,0:0:0:0:
104,92,200578,1,0,0:0:0:0:
104,117,200681,5,0,0:0:0:0:
104,141,200785,1,0,0:0:0:0:
104,166,200888,5,0,0:0:0:0:
104,190,200992,1,0,0:0:0:0:
104,214,201095,1,0,0:0:0:0:
104,239,201199,1,0,0:0:0:0:
104,263,201302,1,0,0:0:0:0:
104,287,201406,1,0,0:0:0:0:
128,288,201509,1,0,0:0:0:0:
152,288,201612,1,0,0:0:0:0:
177,288,201716,1,10,0:0:0:0:
201,288,201819,1,0,0:0:0:0:
225,288,201923,1,2,0:0:0:0:
250,288,202026,1,0,0:0:0:0:
274,288,202130,1,2,0:0:0:0:
298,288,202233,1,0,0:0:0:0:
323,288,202337,5,0,0:0:0:0:
347,288,202440,1,0,0:0:0:0:
372,288,202544,5,12,0:0:0:0:
396,288,202647,1,0,0:0:0:0:
420,288,202750,1,0,0:0:0:0:
424,266,202854,1,0,0:0:0:0:
424,242,202957,1,0,0:0:0:0:
424,218,203061,1,0,0:0:0:0:
424,193,203164,1,0,0:0:0:0:
424,169,203268,1,0,0:0:0:0:
417,152,203371,1,10,0:0:0:0:
392,152,203475,1,0,0:0:0:0:
368,152,203578,1,2,0:0:0:0:
343,152,203681,1,0,0:0:0:0:
319,152,203785,1,10,0:0:0:0:
295,152,203888,1,0,0:0:0:0:
270,152,203992,5,0,0:0:0:0:
246,152,204095,1,0,0:0:0:0:
222,152,204199,5,12,0:0:0:0:
197,152,204302,1,0,0:0:0:0:
173,152,204406,1,0,0:0:0:0:
168,171,204509,1,0,0:0:0:0:
168,195,204612,1,0,0:0:0:0:
168,219,204716,1,0,0:0:0:0:
188,224,204819,1,0,0:0:0:0:
212,224,204923,1,0,0:0:0:0:
237,224,205026,1,14,0:0:0:0:
261,224,205130,1,0,0:0:0:0:
285,224,205233,1,2,0:0:0:0:
310,224,205337,1,0,0:0:0:0:
334,224,205440,1,14,0:0:0:0:
256,48,205855,6,2,B|312:64|328:88|328:88|344:80|408:72|456:112,2,195.000008332729,10|0|8,0:0|0:0|0:0,0:0:0:0:
64,72,206475,2,8,L|64:192,1,97.5000041663645,0|0,0:0|0:0,0:0:0:0:
160,192,206682,2,8,L|248:144,1,97.5000041663645,8|0,0:0|0:0,0:0:0:0:
152,320,206993,2,2,B|96:200|96:200|160:192,1,195.000008332729,0|0,0:0|0:0,0:0:0:0:
256,192,207303,1,0,0:0:0:0:
158,192,207406,1,0,0:0:0:0:
200,104,207510,6,2,P|304:104|384:128,1,146.250006249547,12|0,0:0|0:0,0:0:0:0:
296,104,207717,2,2,P|296:208|272:288,1,146.250006249547,0|0,0:0|0:0,0:0:0:0:
296,200,207924,2,2,P|192:200|112:176,1,146.250006249547,8|0,0:0|0:0,0:0:0:0:
200,200,208130,2,2,P|200:96|224:16,1,146.250006249547,0|0,0:0|0:0,0:0:0:0:
200,104,208337,1,10,0:0:0:0:
288,280,208544,2,2,P|376:272|488:208,1,195.000008332729,2|0,0:0|0:0,0:0:0:0:
288,152,208958,6,8,L|240:152,4,48.7500020831822,0|0|0|0|4,0:0|0:0|0:0|0:0|0:0,0:0:0:0:
480,192,209372,2,8,L|376:192,2,97.5000041663645,0|0|0,0:0|0:0|0:0,0:0:0:0:
288,208,209786,2,8,L|224:208,2,48.7500020831822,0|0|0,0:0|0:0|0:0,0:0:0:0:
192,208,209993,2,8,L|192:160,2,48.7500020831822,14|0|0,0:0|0:0|0:0,0:0:0:0:
288,208,210199,1,2,0:0:0:0:
128,208,210406,1,10,0:0:0:0:
85,129,210510,2,0,P|91:176|128:208,2,97.5000041663645,0|0|0,0:0|0:0|0:0,0:0:0:0:
168,48,210820,2,8,P|191:138|127:208,1,195.000008332729,12|0,0:0|0:0,0:0:0:0:
168,48,211234,2,8,P|191:138|127:208,1,195.000008332729,12|0,0:0|0:0,0:0:0:0:
168,48,211648,2,8,P|191:138|127:208,1,195.000008332729,12|0,0:0|0:0,0:0:0:0:
336,328,212062,2,0,B|296:344|304:320|304:320|272:304|232:256|144:320|144:320|168:248|24:232,1,390.000016665458,4|10,0:0|0:0,0:0:0:0:
448,192,212682,6,2,P|408:136|288:88,1,195.000008332729,0|8,0:0|0:0,0:0:0:0:
128,192,213096,1,0,0:0:0:0:
256,336,213303,2,2,L|368:296,1,97.5000041663645,0|0,0:0|0:0,0:0:0:0:
256,336,213613,1,0,0:0:0:0:
176,56,213924,5,0,0:0:0:0:
210,90,214027,1,0,0:0:0:0:
244,124,214130,1,0,0:0:0:0:
432,192,214337,1,0,0:0:0:0:
244,259,214544,1,8,0:0:0:0:
210,293,214647,1,0,0:0:0:0:
176,328,214750,1,0,0:0:0:0:
32,192,214958,2,0,L|152:192,1,97.5000041663645,0|0,0:0|0:0,0:0:0:0:
328,192,215268,1,0,0:0:0:0:
48,288,215579,6,0,L|160:224,2,97.5000041663645,0|0|4,0:0|0:0|0:0,0:0:0:0:
132,239,215889,1,0,0:0:0:0:
136,144,215993,2,0,B|120:128|144:128|152:104|152:104|168:128|200:112|224:24|288:104,1,195.000008332729,0|8,0:0|0:0,0:0:0:0:
408,240,216406,2,0,B|424:256|400:256|392:280|392:280|376:256|344:272|320:360|256:280,1,195.000008332729,0|0,0:0|0:0,0:0:0:0:
267,292,216717,1,0,0:0:0:0:
350,284,216820,1,0,0:0:0:0:
408,240,216923,1,0,0:0:0:0:
384,48,217130,6,0,P|352:64|304:112,3,97.5000041663645,0|0|0|4,0:0|0:0|0:0|0:0,0:0:0:0:
256,296,217648,1,0,0:0:0:0:
128,48,217855,2,8,P|160:64|208:112,5,97.5000041663645,8|0|0|0|4|0,0:0|0:0|0:0|0:0|0:0|0:0,0:0:0:0:
256,296,218579,1,0,0:0:0:0:
472,96,218889,6,8,L|384:48,1,97.5000041663645,0|0,0:0|0:0,0:0:0:0:
392,144,219096,2,8,L|288:200,1,97.5000041663645,4|0,0:0|0:0,0:0:0:0:
352,104,219303,1,0,0:0:0:0:
352,200,219406,1,0,0:0:0:0:
296,120,219510,2,8,P|184:120|112:192,1,195.000008332729,8|0,0:0|0:0,0:0:0:0:
88,360,219924,2,0,B|104:304|104:304|112:352,1,97.5000041663645,0|0,0:0|0:0,0:0:0:0:
240,200,220234,1,0,0:0:0:0:
80,88,220441,6,8,L|152:16,1,97.5000041663645,0|0,0:0|0:0,0:0:0:0:
216,88,220648,2,8,L|296:168,1,97.5000041663645,0|0,0:0|0:0,0:0:0:0:
472,104,220958,2,8,P|496:184|472:296,1,195.000008332729,0|8,0:0|0:0,0:0:0:0:
40,280,221372,2,8,P|16:200|40:88,1,195.000008332729,0|0,0:0|0:0,0:0:0:0:
37,92,221682,1,0,0:0:0:0:
200,192,221889,1,0,0:0:0:0:
400,96,222096,6,8,P|456:176|480:264,1,97.5000041663645,0|0,0:0|0:0,0:0:0:0:
336,296,222303,2,8,P|304:328|240:344,1,97.5000041663645,0|0,0:0|0:0,0:0:0:0:
40,176,222510,2,0,P|64:136|128:128,1,97.5000041663645,0|0,0:0|0:0,0:0:0:0:
464,312,222820,1,8,0:0:0:0:
256,64,223027,1,0,0:0:0:0:
40,176,223234,2,8,P|176:104|232:96,1,195.000008332729,4|0,0:0|0:0,0:0:0:0:
400,96,223648,2,8,P|264:168|208:176,1,195.000008332729,8|0,0:0|0:0,0:0:0:0:
136,344,223958,1,0,0:0:0:0:
394,249,224062,1,4,0:0:0:0:
313,330,224268,1,0,0:0:0:0:
198,330,224475,1,12,0:0:0:0:
117,249,224682,1,0,0:0:0:0:
117,134,224889,1,4,0:0:0:0:
149,85,224993,1,0,0:0:0:0:
256,42,225199,5,0,0:0:0:0:
362,85,225406,5,4,0:0:0:0:
394,134,225510,5,4,0:0:0:0:
405,192,225613,5,14,0:0:0:0:
