osu file format v12

[General]
AudioFilename: 01. Segments Blue.mp3
AudioLeadIn: 0
PreviewTime: 7234
Countdown: 1
SampleSet: Normal
StackLeniency: 0.7
Mode: 0
LetterboxInBreaks: 1
WidescreenStoryboard: 1

[Editor]
Bookmarks: 7234,13855,20475,27096,53579,93303,99924,103234,104889,106544,119993
DistanceSpacing: 1
BeatDivisor: 4
GridSize: 4

[Metadata]
Title:Segments Blue
TitleUnicode:Segments Blue
Artist:seleP
ArtistUnicode:seleP
Creator:baraatje123
Version:Segments Orange
Source:Lilium Doll
Tags:Cul Vocaloid MagoichiSaica Winek Nardoxyribonucleic Nardo
BeatmapID:331912
BeatmapSetID:131854

[Difficulty]
HPDrainRate:6
CircleSize:3
OverallDifficulty:5
ApproachRate:8
SliderMultiplier:1.60000000596046
SliderTickRate:2

[Events]
//Background and Video events
0,0,"CUL.full.914383.jpg",0,0
//Break Periods
2,80262,92553
2,108199,109855
//Storyboard Layer 0 (Background)
//Storyboard Layer 1 (Fail)
//Storyboard Layer 2 (Pass)
//Storyboard Layer 3 (Foreground)
//Storyboard Sound Samples
//Background Colour Transformations
3,100,150,0,0

[TimingPoints]
613.756684721381,413.793103448276,4,1,0,70,1,0
13855,-100,4,1,0,70,0,1
13958,-100,4,1,0,70,0,0
20475,-100,4,1,0,70,0,1
20579,-100,4,1,0,100,0,0
53579,-83.3333333333333,4,1,0,70,0,1
69717,-50,4,1,0,70,0,1
71372,-200,4,1,0,70,0,1
71786,-50,4,1,0,70,0,1
73027,-83.3333333333333,4,1,0,70,0,1
80062,-100,4,1,0,70,0,0
93303,-83.3333333333333,4,1,0,70,0,1
106544,-100,4,1,0,70,0,0
121441,-66.6666666666667,4,1,0,70,0,0
123510,-100,4,1,0,70,0,0
133027,-83.3333333333333,4,1,0,70,0,1
134165,-133.333333333333,4,1,0,70,0,1
136337,-83.3333333333333,4,1,0,70,0,1
146165,-100,4,1,0,70,0,0
146268,-83.3333333333333,4,1,0,70,0,1
159096,-83.3333333333333,4,1,0,70,0,0
175648,-50,4,1,0,70,0,0
177406,-200,4,1,0,70,0,0
177717,-50,4,1,0,70,0,0
178958,-83.3333333333333,4,1,0,70,0,0
185993,-100,4,1,0,70,0,1
186096,-100,4,1,0,70,0,0
199234,-100,4,1,0,70,0,1
199337,-100,4,1,0,70,0,0
212475,-100,4,1,0,70,0,1
212527,-100,4,1,0,70,0,0

[Colours]
Combo1 : 0,147,147
Combo2 : 198,0,0
Combo3 : 251,204,96
Combo4 : 250,145,145
Combo5 : 74,255,74

[HitObjects]
32,48,7234,2,0,L|128:48,1,80.000000298023,6|0,0:0|0:0,0:0:0:0:
112,128,7648,2,0,L|192:128,1,80.000000298023,2|0,0:0|0:0,0:0:0:0:
192,208,8062,2,0,L|256:208,1,40.0000001490115,2|0,0:0|0:0,0:0:0:0:
232,208,8372,1,0,0:0:0:0:
368,64,8889,6,0,P|400:112|400:160,1,80.000000298023,2|0,0:0|0:0,0:0:0:0:
336,160,9303,2,0,P|304:112|304:64,1,80.000000298023,2|0,0:0|0:0,0:0:0:0:
240,48,9717,2,0,L|96:96,1,120.000000447035,2|0,0:0|0:0,0:0:0:0:
48,272,10544,5,2,0:0:0:0:
48,272,10751,1,0,0:0:0:0:
288,272,11372,1,2,0:0:0:0:
288,160,11682,1,0,0:0:0:0:
256,192,12199,12,0,13648,0:0:0:0:
144,112,13855,6,0,L|208:48,1,80.000000298023,6|0,0:0|0:0,0:0:0:0:
272,96,14268,2,0,L|192:176,1,80.000000298023,10|0,0:0|0:0,0:0:0:0:
144,192,14682,2,0,B|176:240|176:240|192:224|240:240,1,120.000000447035,2|0,0:0|0:0,0:0:0:0:
240,272,15096,2,0,P|320:304|368:288,1,120.000000447035,10|0,0:0|0:0,0:0:0:0:
384,272,15510,6,0,L|400:176,4,80.000000298023,2|0|10|0|2,0:0|0:0|0:0|0:0|0:0,0:0:0:0:
352,272,16441,2,0,P|304:272|272:256,1,80.000000298023,0|0,0:0|0:0,0:0:0:0:
224,64,17165,6,0,B|176:32|176:32|160:48,1,80.000000298023,6|0,0:0|0:0,0:0:0:0:
144,128,17578,2,0,B|192:160|192:160|208:144,1,80.000000298023,10|0,0:0|0:0,0:0:0:0:
288,144,17993,1,2,0:0:0:0:
288,144,18096,1,0,0:0:0:0:
368,144,18303,1,0,0:0:0:0:
256,192,18820,12,14,20475,0:0:0:0:
160,160,20682,5,0,0:0:0:0:
80,160,20889,2,0,L|80:256,1,80.000000298023,8|0,0:0|0:0,0:0:0:0:
160,240,21303,2,0,L|224:240,1,40.0000001490115,2|0,0:0|0:0,0:0:0:0:
320,240,21613,2,0,P|384:176|384:64,1,200.000000745057,0|4,0:0|0:0,0:0:0:0:
304,80,22337,2,0,L|224:144,2,80.000000298023,0|8|0,0:0|0:0|0:0,0:0:0:0:
224,48,22958,2,0,P|128:48|96:64,1,120.000000447034,2|0,0:0|0:0,0:0:0:0:
16,240,23786,6,0,L|112:224,1,80.000000298023,6|0,0:0|0:0,0:0:0:0:
176,240,24199,2,0,L|272:224,1,80.000000298023,10|0,0:0|0:0,0:0:0:0:
336,240,24613,2,0,L|400:224,1,40.0000001490115,6|0,0:0|0:0,0:0:0:0:
336,160,24924,1,0,0:0:0:0:
224,160,25234,1,0,0:0:0:0:
224,160,25441,1,4,0:0:0:0:
144,160,25648,2,0,L|144:80,1,80.000000298023,0|12,0:0|0:0,0:0:0:0:
144,240,26062,2,0,L|144:160,1,80.000000298023,0|4,0:0|0:0,0:0:0:0:
144,320,26475,2,0,L|144:240,1,80.000000298023,0|12,0:0|0:0,0:0:0:0:
144,160,26889,1,0,0:0:0:0:
192,96,27096,6,0,P|272:64|512:64,1,320.000001192092,4|0,0:0|0:0,0:0:0:0:
480,224,28337,2,0,P|416:272|320:304,1,160.000000596046,8|0,0:0|0:0,0:0:0:0:
192,240,29165,2,0,L|144:160,1,80.000000298023,8|0,0:0|0:0,0:0:0:0:
208,112,29579,2,0,L|272:64,1,80.000000298023,0|0,0:0|0:0,0:0:0:0:
272,64,29993,1,8,0:0:0:0:
416,112,30406,5,0,0:0:0:0:
400,272,30820,1,8,0:0:0:0:
368,112,31234,1,0,0:0:0:0:
352,272,31648,1,8,0:0:0:0:
320,112,32062,1,0,0:0:0:0:
304,272,32476,1,8,0:0:0:0:
144,224,32889,2,0,L|112:224|80:224,3,40.0000001490115,0|0|0|0,0:0|0:0|0:0|0:0,0:0:0:0:
104,160,33303,2,0,L|144:160,3,40.0000001490115,8|0|0|0,0:0|0:0|0:0|0:0,0:0:0:0:
160,128,33717,6,0,P|224:80|304:64,1,160.000000596046,4|8,0:0|0:0,0:0:0:0:
384,192,34544,2,0,L|224:192,1,160.000000596046,0|8,0:0|0:0,0:0:0:0:
64,192,35372,2,0,P|80:144|112:128,1,80.000000298023,10|2,0:0|0:0,0:0:0:0:
176,128,35786,1,10,0:0:0:0:
176,128,35993,1,2,0:0:0:0:
176,208,36199,1,10,0:0:0:0:
176,208,36406,1,2,0:0:0:0:
176,208,36613,1,10,0:0:0:0:
320,160,37027,6,0,B|272:80|192:64|144:80|96:144|96:224,1,320.000001192092,8|0,0:0|0:0,0:0:0:0:
224,304,38268,2,0,P|272:304|304:320,1,80.000000298023,8|0,0:0|0:0,0:0:0:0:
272,240,38682,2,0,P|320:240|352:256,1,80.000000298023,2|2,0:0|0:0,0:0:0:0:
320,176,39096,2,0,P|368:176|400:192,1,80.000000298023,10|2,0:0|0:0,0:0:0:0:
368,112,39510,2,0,P|416:112|448:128,1,80.000000298023,2|2,0:0|0:0,0:0:0:0:
416,48,39924,2,0,P|464:48|496:64,1,80.000000298023,10|2,0:0|0:0,0:0:0:0:
416,48,40337,6,0,B|352:48|352:48|320:48|304:64|304:80|304:80|304:96|288:112|272:112|272:112|256:112|240:96|240:80|240:80|240:64|224:48|208:48|208:48|160:48,1,320.000001192092,4|4,0:0|0:0,0:0:0:0:
96,192,41579,1,8,0:0:0:0:
112,192,41786,1,0,0:0:0:0:
128,192,41993,1,4,0:0:0:0:
144,192,42199,1,0,0:0:0:0:
160,192,42406,1,12,0:0:0:0:
176,192,42613,1,0,0:0:0:0:
192,272,42820,1,4,0:0:0:0:
200,272,42924,1,0,0:0:0:0:
208,272,43027,1,0,0:0:0:0:
224,192,43234,1,12,0:0:0:0:
384,144,43648,6,0,P|304:96|224:96,1,160.000000596046,4|8,0:0|0:0,0:0:0:0:
164,116,44268,1,0,0:0:0:0:
100,68,44475,2,0,P|164:52|180:52,2,80.000000298023,4|0|8,0:0|0:0|0:0,0:0:0:0:
96,240,45303,2,0,L|272:224,1,160.000000596046,4|12,0:0|0:0,0:0:0:0:
336,224,45924,1,0,0:0:0:0:
416,224,46130,2,0,P|368:208|352:208,2,40.0000001490115,2|0|0,0:0|0:0|0:0,0:0:0:0:
416,144,46544,2,0,P|400:96|288:48,1,160.000000596046,10|2,0:0|0:0,0:0:0:0:
160,96,47372,5,8,0:0:0:0:
32,192,47786,2,0,P|96:176|128:192,2,80.000000298023,2|0|8,0:0|0:0|0:0,0:0:0:0:
112,336,48613,2,0,P|160:288|160:272,3,80.000000298023,2|0|10|0,0:0|0:0|0:0|0:0,0:0:0:0:
192,256,49337,2,0,L|240:208,1,40.0000001490115,0|2,0:0|0:0,0:0:0:0:
256,160,49648,2,0,L|336:144,2,80.000000298023,0|10|0,0:0|0:0|0:0,0:0:0:0:
272,80,50268,6,0,P|192:64|176:64,2,80.000000298023,2|0|8,0:0|0:0|0:0,0:0:0:0:
192,112,50889,1,0,0:0:0:0:
128,160,51096,1,2,0:0:0:0:
128,160,51199,1,0,0:0:0:0:
128,160,51303,1,0,0:0:0:0:
128,160,51510,1,8,0:0:0:0:
48,176,51717,2,0,P|64:240|80:256,1,80.000000298023,0|2,0:0|0:0,0:0:0:0:
144,240,52130,1,0,0:0:0:0:
224,208,52337,2,0,P|272:176|304:176,1,80.000000298023,10|0,0:0|0:0,0:0:0:0:
368,192,52751,5,6,0:0:0:0:
368,192,52855,1,0,0:0:0:0:
368,192,52958,1,0,0:0:0:0:
368,192,53062,1,0,0:0:0:0:
368,192,53165,1,12,0:0:0:0:
368,192,53268,1,0,0:0:0:0:
368,192,53372,1,4,0:0:0:0:
368,192,53475,1,0,0:0:0:0:
368,192,53579,5,4,0:0:0:0:
336,96,53786,2,0,P|256:80|224:80,1,95.9999974279402,0|8,0:0|0:0,0:0:0:0:
144,112,54199,1,0,0:0:0:0:
112,256,54406,2,0,B|192:208|192:176|192:176|256:112,1,191.99999485588,8|8,0:0|0:0,0:0:0:0:
336,96,55027,6,0,P|352:80|368:96,2,47.9999987139701,0|0|8,0:0|0:0|0:0,0:0:0:0:
352,192,55441,2,0,P|256:176|224:160,2,95.9999974279402,0|8|0,0:0|0:0|0:0,0:0:0:0:
448,160,56062,1,8,0:0:0:0:
448,160,56165,1,0,0:0:0:0:
432,304,56372,1,0,0:0:0:0:
336,304,56579,6,0,L|256:256,1,47.9999987139701,0|0,0:0|0:0,0:0:0:0:
304,224,56786,2,0,L|256:176,1,47.9999987139701,0|12,0:0|0:0,0:0:0:0:
208,112,57096,2,0,B|288:80|304:96|304:96|320:80|400:112,1,191.99999485588,0|0,0:0|0:0,0:0:0:0:
320,160,57717,2,0,B|304:176|304:176|288:160|272:176|272:176|256:160|240:176|240:176|224:160|208:176|208:176|192:160|176:176|176:176|160:160,1,191.99999485588,8|8,0:0|0:0,0:0:0:0:
96,96,58337,1,0,0:0:0:0:
96,96,58441,1,0,0:0:0:0:
96,96,58544,1,12,0:0:0:0:
132,206,58751,1,0,0:0:0:0:
37,138,58958,1,8,0:0:0:0:
154,138,59165,1,0,0:0:0:0:
60,206,59373,1,12,0:0:0:0:
60,206,59475,1,0,0:0:0:0:
48,304,59682,2,0,P|224:272|288:208,1,239.99999356985,0|12,0:0|0:0,0:0:0:0:
308,148,60406,6,0,P|392:88|388:68,1,95.9999974279402,0|0,0:0|0:0,0:0:0:0:
408,208,60820,2,0,P|356:240|316:232,1,95.9999974279402,0|8,0:0|0:0,0:0:0:0:
276,228,61130,1,0,0:0:0:0:
180,216,61337,1,0,0:0:0:0:
176,120,61544,5,0,0:0:0:0:
176,120,61648,1,0,0:0:0:0:
176,120,61751,1,0,0:0:0:0:
176,120,61855,1,12,0:0:0:0:
80,116,62062,2,0,P|68:180|72:248,1,95.9999974279402,0|8,0:0|0:0,0:0:0:0:
120,292,62475,2,0,P|176:312|224:312,1,95.9999974279402,0|8,0:0|0:0,0:0:0:0:
228,268,62786,2,0,P|264:188|304:176,1,95.9999974279402,0|0,0:0|0:0,0:0:0:0:
308,160,63096,2,0,P|320:104|244:80,1,143.99999614191,8|0,0:0|0:0,0:0:0:0:
224,116,63510,6,0,P|168:168|136:168,1,95.9999974279402,12|0,0:0|0:0,0:0:0:0:
288,116,63924,2,0,P|344:168|376:168,1,95.9999974279402,8|0,0:0|0:0,0:0:0:0:
256,172,64337,1,12,0:0:0:0:
256,220,64441,1,0,0:0:0:0:
256,316,64648,1,0,0:0:0:0:
168,352,64855,6,0,L|100:320,3,47.9999987139701,0|0|0|12,0:0|0:0|0:0|0:0,0:0:0:0:
84,244,65372,2,0,P|116:196|164:176,3,95.9999974279402,0|12|0|12,0:0|0:0|0:0|0:0,0:0:0:0:
164,132,66096,2,0,P|248:104|276:116,1,95.9999974279402,0|0,0:0|0:0,0:0:0:0:
272,148,66406,2,0,P|320:136|284:52,1,143.99999614191,12|0,0:0|0:0,0:0:0:0:
276,92,66820,6,0,P|212:56|156:24,1,95.9999974279402,12|0,0:0|0:0,0:0:0:0:
76,132,67234,2,0,P|52:208|56:224,1,95.9999974279402,8|0,0:0|0:0,0:0:0:0:
152,240,67648,2,0,P|212:236|220:228,3,47.9999987139701,8|0|0|0,0:0|0:0|0:0|0:0,0:0:0:0:
204,196,68062,2,0,P|227:192|250:199,3,47.9999987139701,8|0|0|0,0:0|0:0|0:0|0:0,0:0:0:0:
264,248,68476,6,0,P|324:244|332:236,3,47.9999987139701,8|0|0|0,0:0|0:0|0:0|0:0,0:0:0:0:
316,204,68890,2,0,P|339:200|362:207,3,47.9999987139701,8|0|0|0,0:0|0:0|0:0|0:0,0:0:0:0:
372,256,69303,2,0,P|432:252|440:244,3,47.9999987139701,8|0|0|0,0:0|0:0|0:0|0:0,0:0:0:0:
424,212,69717,2,0,P|447:208|488:224,7,40.0000001490115,8|0|0|0|0|0|0|0,0:0|0:0|0:0|0:0|0:0|0:0|0:0|0:0,0:0:0:0:
460,172,70130,6,0,P|404:112|284:104,1,160.000000596046,12|0,0:0|0:0,0:0:0:0:
168,92,70544,2,0,P|80:144|32:100,1,160.000000596046,8|0,0:0|0:0,0:0:0:0:
72,276,70958,2,0,P|136:212|168:200,1,80.000000298023,8|0,0:0|0:0,0:0:0:0:
216,348,71268,1,0,0:0:0:0:
220,252,71475,6,0,L|244:252,2,20.0000000745057,0|0|0,0:0|0:0|0:0,0:0:0:0:
300,252,71786,2,0,L|352:252,3,40.0000001490115,12|0|0|0,0:0|0:0|0:0|0:0,0:0:0:0:
344,172,71993,2,0,L|396:172,3,40.0000001490115,0|0|0|0,0:0|0:0|0:0|0:0,0:0:0:0:
376,92,72200,2,0,L|428:92,3,40.0000001490115,8|0|0|0,0:0|0:0|0:0|0:0,0:0:0:0:
428,12,72407,2,0,L|480:12,3,40.0000001490115,0|0|0|0,0:0|0:0|0:0|0:0,0:0:0:0:
472,92,72614,2,0,L|524:92,2,40.0000001490115,12|0|0,0:0|0:0|0:0,0:0:0:0:
428,244,72924,1,0,0:0:0:0:
400,280,73027,6,0,P|364:312|292:328,1,95.9999974279402,8|0,0:0|0:0,0:0:0:0:
228,296,73441,2,0,P|188:236|204:188,1,95.9999974279402,12|0,0:0|0:0,0:0:0:0:
190,215,73751,1,0,0:0:0:0:
192,120,73855,2,0,L|280:52,1,95.9999974279402,8|0,0:0|0:0,0:0:0:0:
360,32,74268,2,0,L|360:88,1,47.9999987139701,8|0,0:0|0:0,0:0:0:0:
456,76,74579,2,0,L|408:112,1,47.9999987139701,0|8,0:0|0:0,0:0:0:0:
372,128,74786,6,0,P|324:152|316:140,3,47.9999987139701,0|0|0|12,0:0|0:0|0:0|0:0,0:0:0:0:
247,152,75303,2,0,P|204:208|199:278,1,143.99999614191,0|0,0:0|0:0,0:0:0:0:
200,232,75717,2,0,P|152:192|88:184,1,95.9999974279402,0|8,0:0|0:0,0:0:0:0:
76,172,76027,1,0,0:0:0:0:
76,172,76234,1,0,0:0:0:0:
88,76,76441,6,0,P|192:44|224:56,1,143.99999614191,0|12,0:0|0:0,0:0:0:0:
316,36,76958,2,0,P|368:100|372:136,1,95.9999974279402,0|8,0:0|0:0,0:0:0:0:
288,160,77372,2,0,P|224:128|220:104,1,95.9999974279402,0|12,0:0|0:0,0:0:0:0:
172,104,77682,2,0,L|112:124,1,47.9999987139701,0|0,0:0|0:0,0:0:0:0:
144,164,77889,2,0,L|172:224,1,47.9999987139701,0|8,0:0|0:0,0:0:0:0:
188,248,78096,6,0,L|248:252,3,47.9999987139701,0|0|0|14,0:0|0:0|0:0|0:0,0:0:0:0:
256,344,78613,1,2,0:0:0:0:
256,248,78820,1,14,0:0:0:0:
256,152,79027,1,2,0:0:0:0:
256,56,79234,1,14,0:0:0:0:
304,56,79441,1,2,0:0:0:0:
352,56,79648,1,12,0:0:0:0:
400,56,79855,1,0,0:0:0:0:
400,56,80062,5,12,0:0:0:0:
32,36,93303,6,0,L|148:36,1,95.9999974279402,2|0,0:0|0:0,0:0:0:0:
132,132,93717,2,0,L|248:132,1,95.9999974279402,2|0,0:0|0:0,0:0:0:0:
256,224,94130,2,0,L|256:288,1,47.9999987139701,2|2,0:0|0:0,0:0:0:0:
256,368,94441,2,0,L|256:312,1,47.9999987139701,2|0,0:0|0:0,0:0:0:0:
292,288,94648,6,0,L|292:216,1,47.9999987139701,4|0,0:0|0:0,0:0:0:0:
220,240,94855,2,0,L|220:288,1,47.9999987139701,4|2,0:0|0:0,0:0:0:0:
136,332,95165,2,0,P|96:280|104:216,2,95.9999974279402,0|2|0,0:0|0:0|0:0,0:0:0:0:
152,236,95786,1,2,0:0:0:0:
152,236,95889,1,2,0:0:0:0:
152,140,96096,1,2,0:0:0:0:
228,80,96303,5,4,0:0:0:0:
272,60,96406,1,0,0:0:0:0:
320,52,96510,1,4,0:0:0:0:
364,64,96613,1,2,0:0:0:0:
356,160,96820,2,0,L|256:188,2,95.9999974279402,0|2|0,0:0|0:0|0:0,0:0:0:0:
368,256,97441,2,0,L|324:292,1,47.9999987139701,2|2,0:0|0:0,0:0:0:0:
256,228,97751,1,2,0:0:0:0:
256,132,97958,6,0,L|208:136,3,47.9999987139701,4|0|4|2,0:0|0:0|0:0|0:0,0:0:0:0:
112,152,98475,1,0,0:0:0:0:
84,244,98682,1,2,0:0:0:0:
148,316,98889,1,0,0:0:0:0:
180,224,99096,1,2,0:0:0:0:
148,188,99199,1,2,0:0:0:0:
112,152,99303,1,0,0:0:0:0:
96,196,99406,1,2,0:0:0:0:
84,244,99510,1,0,0:0:0:0:
112,284,99717,1,0,0:0:0:0:
180,224,99924,5,8,0:0:0:0:
204,231,100130,1,8,0:0:0:0:
229,230,100337,1,8,0:0:0:0:
254,224,100544,1,8,0:0:0:0:
278,214,100751,5,8,0:0:0:0:
299,200,100958,1,8,0:0:0:0:
317,182,101165,1,8,0:0:0:0:
326,159,101372,1,8,0:0:0:0:
308,146,101579,5,8,0:0:0:0:
285,155,101786,1,8,0:0:0:0:
266,173,101992,1,8,0:0:0:0:
252,194,102199,1,8,0:0:0:0:
244,218,102406,5,8,0:0:0:0:
239,244,102613,1,8,0:0:0:0:
240,269,102820,1,8,0:0:0:0:
244,294,103027,1,8,0:0:0:0:
340,300,103234,6,0,L|388:296,3,47.9999987139701,12|8|12|8,0:0|0:0|0:0|0:0,0:0:0:0:
380,248,103648,2,0,L|432:240,3,47.9999987139701,12|8|12|8,0:0|0:0|0:0|0:0,0:0:0:0:
424,192,104062,2,0,L|476:184,3,47.9999987139701,12|8|12|8,0:0|0:0|0:0|0:0,0:0:0:0:
456,140,104475,2,0,L|516:128,3,47.9999987139701,12|8|12|8,0:0|0:0|0:0|0:0,0:0:0:0:
432,48,104889,6,0,L|400:48,3,23.999999356985,12|0|12|0,0:0|0:0|0:0|0:0,0:0:0:0:
400,72,105097,6,0,L|368:72,3,23.999999356985,12|0|12|0,0:0|0:0|0:0|0:0,0:0:0:0:
372,96,105304,6,0,L|340:96,3,23.999999356985,12|0|12|0,0:0|0:0|0:0|0:0,0:0:0:0:
344,120,105511,6,0,L|312:120,3,23.999999356985,12|0|12|0,0:0|0:0|0:0|0:0,0:0:0:0:
316,144,105717,6,0,L|284:144,3,23.999999356985,12|0|12|0,0:0|0:0|0:0|0:0,0:0:0:0:
284,168,105924,6,0,L|252:168,3,23.999999356985,12|0|12|0,0:0|0:0|0:0|0:0,0:0:0:0:
256,192,106131,6,0,L|224:192,3,23.999999356985,12|0|12|0,0:0|0:0|0:0|0:0,0:0:0:0:
228,216,106338,6,0,L|196:216,3,23.999999356985,12|0|12|0,0:0|0:0|0:0|0:0,0:0:0:0:
224,216,106544,5,12,0:0:0:0:
128,148,111510,6,0,L|196:144,1,40.0000001490115,8|8,0:0|0:0,0:0:0:0:
176,184,111717,2,0,L|224:180,1,40.0000001490115,8|8,0:0|0:0,0:0:0:0:
224,220,111924,2,0,L|292:220,2,40.0000001490115,8|8|8,0:0|0:0|0:0,0:0:0:0:
256,248,112234,2,0,L|304:248,3,40.0000001490115,8|8|8|8,0:0|0:0|0:0|0:0,0:0:0:0:
336,236,112648,2,0,L|320:196,4,40.0000001490115,8|8|8|8|8,0:0|0:0|0:0|0:0|0:0,0:0:0:0:
376,224,113165,6,0,P|416:188|392:112,1,120.000000447034,8|0,0:0|0:0,0:0:0:0:
376,104,113579,2,0,P|328:76|292:112,1,80.000000298023,8|0,0:0|0:0,0:0:0:0:
232,92,113993,2,0,L|176:104,1,40.0000001490115,0|0,0:0|0:0,0:0:0:0:
128,144,114303,2,0,L|100:192,1,40.0000001490115,0|8,0:0|0:0,0:0:0:0:
112,220,114510,2,0,P|124:260|132:264,2,40.0000001490115,0|0|0,0:0|0:0|0:0,0:0:0:0:
152,212,114820,6,0,B|188:184|260:224|260:224|284:160,1,160.000000596046,0|8,0:0|0:0,0:0:0:0:
336,132,115441,1,0,0:0:0:0:
360,212,115648,2,0,B|324:184|252:224|252:224|228:160,1,160.000000596046,0|8,0:0|0:0,0:0:0:0:
256,104,116268,1,0,0:0:0:0:
256,24,116475,1,0,0:0:0:0:
84,296,117303,6,0,P|96:252|144:224,2,80.000000298023,0|0|8,0:0|0:0|0:0,0:0:0:0:
160,320,117924,2,0,L|216:304,1,40.0000001490115,0|0,0:0|0:0,0:0:0:0:
236,316,118130,2,0,P|276:304|308:256,1,80.000000298023,0|0,0:0|0:0,0:0:0:0:
320,200,118544,2,0,P|292:124|268:96,1,80.000000298023,8|0,0:0|0:0,0:0:0:0:
264,100,118855,1,0,0:0:0:0:
232,72,118958,2,0,L|176:40,1,40.0000001490115,0|0,0:0|0:0,0:0:0:0:
160,44,119165,1,0,0:0:0:0:
80,44,119372,2,0,P|32:160|60:212,1,160.000000596046,8|0,0:0|0:0,0:0:0:0:
120,192,119993,6,0,L|216:192,1,80.000000298023,0|8,0:0|0:0,0:0:0:0:
312,192,120406,2,0,L|392:192,1,80.000000298023,0|0,0:0|0:0,0:0:0:0:
471,184,120820,2,0,P|478:106|432:44,1,160.000000596046,0|0,0:0|0:0,0:0:0:0:
432,44,121337,1,0,0:0:0:0:
376,64,121441,5,0,0:0:0:0:
336,88,121648,1,0,0:0:0:0:
300,120,121855,1,8,0:0:0:0:
272,160,122062,1,0,0:0:0:0:
244,200,122268,1,0,0:0:0:0:
228,244,122475,1,0,0:0:0:0:
216,292,122682,1,8,0:0:0:0:
224,340,122889,1,0,0:0:0:0:
264,368,123096,5,0,0:0:0:0:
312,372,123303,1,0,0:0:0:0:
356,348,123510,1,8,0:0:0:0:
384,308,123717,2,0,P|412:300|448:304,2,40.0000001490115,0|0|0,0:0|0:0|0:0,0:0:0:0:
364,296,124027,2,0,L|336:248,1,40.0000001490115,0|0,0:0|0:0,0:0:0:0:
324,220,124337,1,8,0:0:0:0:
276,212,124544,5,0,0:0:0:0:
252,204,124648,1,0,0:0:0:0:
232,188,124751,1,0,0:0:0:0:
188,172,124958,2,0,P|180:112|208:88,1,80.000000298023,0|8,0:0|0:0,0:0:0:0:
236,112,125372,2,0,P|260:96|280:116,2,40.0000001490115,0|0|0,0:0|0:0|0:0,0:0:0:0:
280,128,125786,1,0,0:0:0:0:
328,128,125993,2,0,L|376:128,3,40.0000001490115,8|0|0|0,0:0|0:0|0:0|0:0,0:0:0:0:
392,132,126406,6,0,P|448:168|472:272,1,160.000000596046,0|8,0:0|0:0,0:0:0:0:
428,252,127027,1,0,0:0:0:0:
380,252,127234,2,0,L|380:308,1,40.0000001490115,0|0,0:0|0:0,0:0:0:0:
332,252,127544,1,0,0:0:0:0:
212,244,127855,2,0,P|216:196|232:172,1,40.0000001490115,0|0,0:0|0:0,0:0:0:0:
208,164,128062,6,0,P|208:120|220:76,3,80.000000298023,0|0|8|0,0:0|0:0|0:0|0:0,0:0:0:0:
256,84,128786,1,0,0:0:0:0:
295,85,128890,2,0,P|304:124|304:164,3,80.000000298023,0|0|8|0,0:0|0:0|0:0|0:0,0:0:0:0:
384,156,129717,6,0,L|448:156,1,40.0000001490115,0|0,0:0|0:0,0:0:0:0:
504,156,130027,1,0,0:0:0:0:
408,224,130337,1,0,0:0:0:0:
328,224,130544,2,0,L|264:224,1,40.0000001490115,0|0,0:0|0:0,0:0:0:0:
208,228,130855,2,0,P|168:196|172:112,1,120.000000447034,0|0,0:0|0:0,0:0:0:0:
184,96,131268,1,0,0:0:0:0:
220,76,131372,1,0,0:0:0:0:
260,64,131578,1,0,0:0:0:0:
300,52,131785,1,8,0:0:0:0:
340,60,131992,1,0,0:0:0:0:
372,88,132199,5,8,0:0:0:0:
372,88,132303,1,8,0:0:0:0:
372,88,132406,1,8,0:0:0:0:
372,88,132510,1,8,0:0:0:0:
372,88,132613,1,8,0:0:0:0:
372,88,132717,1,8,0:0:0:0:
372,88,132820,1,8,0:0:0:0:
372,88,132924,1,8,0:0:0:0:
416,108,133027,6,0,P|404:160|352:200,1,95.9999974279402,12|0,0:0|0:0,0:0:0:0:
292,140,133441,2,0,P|232:192|228:228,1,95.9999974279402,8|0,0:0|0:0,0:0:0:0:
152,264,133855,2,0,L|116:204,1,47.9999987139701,8|0,0:0|0:0,0:0:0:0:
56,160,134165,2,0,B|112:76|248:172|248:172|240:132|236:64|176:24|56:48|32:80|20:112,1,510.000021354854,0|8,0:0|0:0,0:0:0:0:
220,56,136337,6,0,L|328:56,1,95.9999974279402,12|0,0:0|0:0,0:0:0:0:
316,152,136751,2,0,L|216:152,1,95.9999974279402,8|0,0:0|0:0,0:0:0:0:
124,156,137165,1,8,0:0:0:0:
148,348,137579,2,0,B|316:280|392:144|336:68|224:48|176:152|212:272|272:332|408:356|408:356|420:300|408:232|456:140,1,863.999976851462,8|0,0:0|0:0,0:0:0:0:
396,88,139648,6,0,P|312:56|272:56,3,95.9999974279402,12|0|8|0,0:0|0:0|0:0|0:0,0:0:0:0:
212,44,140475,2,0,L|120:80,1,95.9999974279402,8|0,0:0|0:0,0:0:0:0:
92,172,140889,2,0,B|136:300|260:316|312:252|192:176|160:112|248:44|344:132|344:132|352:272|384:320|440:248|392:144|380:84|460:80|496:180|488:240|488:284|476:348|420:352|392:320|376:264|324:356|324:356,1,959.999974279402,8|12,0:0|0:0,0:0:0:0:
472,228,143165,6,0,P|456:292|400:312,1,95.9999974279402,0|8,0:0|0:0,0:0:0:0:
364,240,143579,2,0,L|256:256,2,95.9999974279402,0|12|0,0:0|0:0|0:0,0:0:0:0:
428,172,144199,2,0,B|344:52|344:52|312:156|268:180|244:88|148:84|96:200|156:292|272:328|244:192|364:268|208:316|184:344|80:276|40:156|128:192|104:108|96:64|160:52|208:72|260:56|248:16|192:20|96:32,1,863.999976851462,8|0,0:0|0:0,0:0:0:0:
304,275,146268,5,12,0:0:0:0:
208,108,146475,1,0,0:0:0:0:
352,192,146682,1,8,0:0:0:0:
160,191,146889,1,0,0:0:0:0:
304,108,147096,1,8,0:0:0:0:
208,275,147303,1,0,0:0:0:0:
256,192,147510,2,0,B|256:108|256:108|208:108|208:108|160:192|160:192|208:276|208:276|304:276|304:276|352:192|352:192|304:108|304:108|256:108|256:108|256:208|256:208|256:216,1,767.999979423521,8|0,0:0|0:0,0:0:0:0:
396,88,149579,6,0,P|312:56|272:56,3,95.9999974279402,12|0|8|0,0:0|0:0|0:0|0:0,0:0:0:0:
212,44,150406,2,0,L|120:80,1,95.9999974279402,8|0,0:0|0:0,0:0:0:0:
92,172,150820,2,0,B|136:300|260:316|104:12|192:176|160:112|248:44|344:132|352:272|384:320|440:248|392:144|380:84|460:80|496:180|488:240|488:284|476:348|420:352|392:320|376:264|296:236|296:284|328:316|324:356|372:-136|208:356|200:300|160:300|144:328|96:344|48:316|40:256|44:240,1,959.999974279402,8|12,0:0|0:0,0:0:0:0:
40,156,153096,6,0,P|56:92|112:72,1,95.9999974279402,0|8,0:0|0:0,0:0:0:0:
148,144,153510,2,0,L|256:128,2,95.9999974279402,0|8|0,0:0|0:0|0:0,0:0:0:0:
108,232,154130,2,0,B|192:352|192:352|224:248|268:224|292:300|388:320|440:204|380:112|264:76|280:212|328:88|352:60|420:12|496:248|408:212|432:296|440:340|376:352|328:332|244:288|208:372|272:360|368:372,1,863.999976851462,8|0,0:0|0:0,0:0:0:0:
304,275,156199,5,8,0:0:0:0:
208,108,156406,1,0,0:0:0:0:
352,192,156613,1,8,0:0:0:0:
160,191,156820,1,0,0:0:0:0:
304,108,157027,1,12,0:0:0:0:
208,275,157234,1,0,0:0:0:0:
256,192,157441,2,0,B|256:108|256:108|304:108|304:108|352:192|352:192|304:276|304:276|208:276|208:276|160:192|160:192|208:108|208:108|256:108|256:108|256:208|256:208|256:216,1,767.999979423521,8|12,0:0|0:0,0:0:0:0:
256,213,159199,5,8,0:0:0:0:
256,192,159303,5,8,0:0:0:0:
256,213,159406,5,8,0:0:0:0:
300,192,159510,5,12,0:0:0:0:
336,96,159717,2,0,P|256:80|224:80,1,95.9999974279402,0|8,0:0|0:0,0:0:0:0:
144,112,160130,1,0,0:0:0:0:
112,256,160337,2,0,B|192:208|192:176|192:176|256:112,1,191.99999485588,0|8,0:0|0:0,0:0:0:0:
336,96,160958,6,0,P|352:80|368:96,2,47.9999987139701,0|0|0,0:0|0:0|0:0,0:0:0:0:
352,192,161372,2,0,P|256:176|224:160,2,95.9999974279402,0|8|0,0:0|0:0|0:0,0:0:0:0:
448,160,161993,1,0,0:0:0:0:
448,160,162096,1,0,0:0:0:0:
432,304,162303,1,0,0:0:0:0:
336,304,162510,6,0,L|256:256,1,47.9999987139701,0|0,0:0|0:0,0:0:0:0:
304,224,162717,2,0,L|256:176,1,47.9999987139701,0|12,0:0|0:0,0:0:0:0:
208,112,163027,2,0,B|288:80|304:96|304:96|320:80|400:112,1,191.99999485588,0|0,0:0|0:0,0:0:0:0:
320,160,163648,2,0,B|304:176|304:176|288:160|272:176|272:176|256:160|240:176|240:176|224:160|208:176|208:176|192:160|176:176|176:176|160:160,1,191.99999485588,0|8,0:0|0:0,0:0:0:0:
96,96,164268,1,0,0:0:0:0:
64,64,164372,1,0,0:0:0:0:
96,96,164475,1,4,0:0:0:0:
132,206,164682,1,0,0:0:0:0:
37,138,164889,1,8,0:0:0:0:
154,138,165096,1,0,0:0:0:0:
60,206,165304,1,4,0:0:0:0:
60,206,165406,1,0,0:0:0:0:
48,304,165613,2,0,P|224:272|288:208,1,239.99999356985,0|4,0:0|0:0,0:0:0:0:
308,148,166337,6,0,P|392:88|388:68,1,95.9999974279402,0|12,0:0|0:0,0:0:0:0:
408,208,166751,2,0,P|356:240|316:232,1,95.9999974279402,0|0,0:0|0:0,0:0:0:0:
276,228,167061,1,0,0:0:0:0:
180,216,167268,1,0,0:0:0:0:
176,120,167475,5,0,0:0:0:0:
176,120,167579,1,0,0:0:0:0:
176,120,167682,1,0,0:0:0:0:
176,120,167786,1,4,0:0:0:0:
80,116,167993,2,0,P|68:180|72:248,1,95.9999974279402,0|8,0:0|0:0,0:0:0:0:
120,292,168406,2,0,P|176:312|224:312,1,95.9999974279402,0|0,0:0|0:0,0:0:0:0:
228,268,168717,2,0,P|264:188|304:176,1,95.9999974279402,0|0,0:0|0:0,0:0:0:0:
308,160,169027,2,0,P|320:104|244:80,1,143.99999614191,8|0,0:0|0:0,0:0:0:0:
224,116,169441,6,0,P|168:168|136:168,1,95.9999974279402,4|0,0:0|0:0,0:0:0:0:
288,116,169855,2,0,P|344:168|376:168,1,95.9999974279402,8|0,0:0|0:0,0:0:0:0:
256,172,170268,1,4,0:0:0:0:
256,220,170372,1,0,0:0:0:0:
256,316,170579,1,0,0:0:0:0:
168,352,170786,6,0,L|100:320,3,47.9999987139701,0|0|0|4,0:0|0:0|0:0|0:0,0:0:0:0:
84,244,171303,2,0,P|116:196|164:176,3,95.9999974279402,0|12|0|4,0:0|0:0|0:0|0:0,0:0:0:0:
164,132,172027,2,0,P|248:104|276:116,1,95.9999974279402,0|0,0:0|0:0,0:0:0:0:
272,148,172337,2,0,P|320:136|284:52,1,143.99999614191,12|0,0:0|0:0,0:0:0:0:
276,92,172751,6,0,P|212:56|156:24,1,95.9999974279402,4|0,0:0|0:0,0:0:0:0:
76,132,173165,2,0,P|52:208|56:224,1,95.9999974279402,8|0,0:0|0:0,0:0:0:0:
152,240,173579,2,0,P|212:236|220:228,3,47.9999987139701,0|0|0|0,0:0|0:0|0:0|0:0,0:0:0:0:
204,196,173993,2,0,P|227:192|250:199,3,47.9999987139701,8|0|0|0,0:0|0:0|0:0|0:0,0:0:0:0:
264,248,174407,6,0,P|324:244|332:236,3,47.9999987139701,0|0|0|0,0:0|0:0|0:0|0:0,0:0:0:0:
316,204,174821,2,0,P|339:200|362:207,3,47.9999987139701,8|0|0|0,0:0|0:0|0:0|0:0,0:0:0:0:
372,256,175234,2,0,P|432:252|440:244,3,47.9999987139701,0|0|0|0,0:0|0:0|0:0|0:0,0:0:0:0:
424,212,175648,2,0,P|447:208|488:224,7,40.0000001490115,8|0|0|0|0|0|0|0,0:0|0:0|0:0|0:0|0:0|0:0|0:0|0:0,0:0:0:0:
460,172,176061,6,0,P|404:112|284:104,1,160.000000596046,12|0,0:0|0:0,0:0:0:0:
168,92,176475,2,0,P|80:144|32:100,1,160.000000596046,8|0,0:0|0:0,0:0:0:0:
72,276,176889,2,0,P|136:212|168:200,1,80.000000298023,0|0,0:0|0:0,0:0:0:0:
216,348,177199,1,0,0:0:0:0:
220,252,177406,6,0,L|244:252,2,20.0000000745057,0|0|0,0:0|0:0|0:0,0:0:0:0:
300,252,177717,2,0,L|352:252,3,40.0000001490115,4|0|0|0,0:0|0:0|0:0|0:0,0:0:0:0:
344,172,177924,2,0,L|396:172,3,40.0000001490115,0|0|0|0,0:0|0:0|0:0|0:0,0:0:0:0:
376,92,178131,2,0,L|428:92,3,40.0000001490115,8|0|0|0,0:0|0:0|0:0|0:0,0:0:0:0:
428,12,178338,2,0,L|480:12,3,40.0000001490115,0|0|0|0,0:0|0:0|0:0|0:0,0:0:0:0:
472,92,178545,2,0,L|524:92,2,40.0000001490115,4|0|0,0:0|0:0|0:0,0:0:0:0:
428,244,178855,1,0,0:0:0:0:
400,280,178958,6,0,P|364:312|292:328,1,95.9999974279402,12|0,0:0|0:0,0:0:0:0:
228,296,179372,2,0,P|188:236|204:188,1,95.9999974279402,4|0,0:0|0:0,0:0:0:0:
190,215,179682,1,0,0:0:0:0:
192,120,179786,2,0,L|280:52,1,95.9999974279402,8|0,0:0|0:0,0:0:0:0:
360,32,180199,2,0,L|360:88,1,47.9999987139701,0|0,0:0|0:0,0:0:0:0:
360,32,180510,2,0,L|360:84,1,47.9999987139701,0|8,0:0|0:0,0:0:0:0:
372,128,180717,6,0,P|324:152|316:140,3,47.9999987139701,0|0|0|4,0:0|0:0|0:0|0:0,0:0:0:0:
247,152,181234,2,0,P|204:208|199:278,1,143.99999614191,0|0,0:0|0:0,0:0:0:0:
200,232,181648,2,0,P|152:192|88:184,1,95.9999974279402,0|0,0:0|0:0,0:0:0:0:
76,172,181958,1,0,0:0:0:0:
76,172,182165,1,0,0:0:0:0:
88,76,182372,6,0,P|192:44|224:56,1,143.99999614191,0|4,0:0|0:0,0:0:0:0:
316,36,182889,2,0,P|368:100|372:136,1,95.9999974279402,0|8,0:0|0:0,0:0:0:0:
288,160,183303,2,0,P|224:128|220:104,1,95.9999974279402,0|4,0:0|0:0,0:0:0:0:
172,104,183613,2,0,L|112:124,1,47.9999987139701,0|0,0:0|0:0,0:0:0:0:
144,164,183820,2,0,L|172:224,1,47.9999987139701,0|8,0:0|0:0,0:0:0:0:
188,248,184027,6,0,L|248:252,3,47.9999987139701,0|0|0|4,0:0|0:0|0:0|0:0,0:0:0:0:
256,344,184544,1,0,0:0:0:0:
256,248,184751,1,12,0:0:0:0:
256,152,184958,1,0,0:0:0:0:
256,56,185165,1,4,0:0:0:0:
304,56,185372,1,0,0:0:0:0:
352,56,185579,1,12,0:0:0:0:
400,56,185786,1,0,0:0:0:0:
400,56,185993,5,12,0:0:0:0:
404,216,186406,1,8,0:0:0:0:
244,212,186820,1,2,0:0:0:0:
164,212,187027,1,2,0:0:0:0:
244,212,187234,1,10,0:0:0:0:
248,52,187648,1,0,0:0:0:0:
168,52,187855,1,0,0:0:0:0:
88,48,188062,1,8,0:0:0:0:
88,128,188268,1,0,0:0:0:0:
128,128,188372,1,0,0:0:0:0:
168,128,188475,1,2,0:0:0:0:
248,132,188682,1,2,0:0:0:0:
288,132,188786,1,0,0:0:0:0:
392,336,189302,5,4,0:0:0:0:
232,340,189716,1,8,0:0:0:0:
236,180,190130,1,2,0:0:0:0:
236,100,190337,1,2,0:0:0:0:
236,180,190544,1,10,0:0:0:0:
396,184,190958,1,4,0:0:0:0:
396,104,191165,1,0,0:0:0:0:
400,24,191371,1,8,0:0:0:0:
320,24,191578,1,0,0:0:0:0:
320,64,191682,1,0,0:0:0:0:
320,104,191785,1,6,0:0:0:0:
316,184,191992,1,2,0:0:0:0:
316,224,192096,1,0,0:0:0:0:
112,328,192613,5,6,0:0:0:0:
108,168,193027,1,8,0:0:0:0:
268,172,193440,1,0,0:0:0:0:
348,172,193647,1,2,0:0:0:0:
268,172,193854,1,2,0:0:0:0:
264,332,194268,1,4,0:0:0:0:
344,332,194475,1,0,0:0:0:0:
424,336,194682,1,8,0:0:0:0:
424,256,194889,1,0,0:0:0:0:
384,256,194992,1,0,0:0:0:0:
344,256,195096,1,2,0:0:0:0:
264,252,195302,1,2,0:0:0:0:
224,252,195406,1,0,0:0:0:0:
120,48,195923,5,4,0:0:0:0:
280,44,196337,1,0,0:0:0:0:
276,204,196751,1,14,0:0:0:0:
276,284,196958,1,2,0:0:0:0:
276,204,197165,1,10,0:0:0:0:
116,200,197578,1,4,0:0:0:0:
116,280,197785,1,0,0:0:0:0:
112,360,197992,1,12,0:0:0:0:
192,360,198199,1,0,0:0:0:0:
192,320,198302,1,0,0:0:0:0:
192,280,198406,1,4,0:0:0:0:
196,200,198613,1,0,0:0:0:0:
196,160,198716,1,0,0:0:0:0:
244,20,199234,5,12,0:0:0:0:
228,21,199440,1,0,0:0:0:0:
213,25,199647,1,8,0:0:0:0:
198,29,199854,1,0,0:0:0:0:
183,36,200061,1,10,0:0:0:0:
170,43,200268,1,2,0:0:0:0:
157,52,200475,1,10,0:0:0:0:
145,61,200682,1,0,0:0:0:0:
134,72,200889,5,8,0:0:0:0:
123,84,201096,1,0,0:0:0:0:
115,97,201302,1,0,0:0:0:0:
107,111,201509,1,0,0:0:0:0:
101,125,201716,1,10,0:0:0:0:
96,140,201923,1,2,0:0:0:0:
92,155,202130,1,2,0:0:0:0:
90,171,202337,1,0,0:0:0:0:
89,186,202544,5,12,0:0:0:0:
90,202,202751,1,0,0:0:0:0:
92,217,202958,1,8,0:0:0:0:
96,232,203165,1,0,0:0:0:0:
101,247,203371,1,10,0:0:0:0:
108,261,203578,1,2,0:0:0:0:
116,275,203785,1,10,0:0:0:0:
125,288,203992,1,0,0:0:0:0:
135,299,204199,5,12,0:0:0:0:
146,310,204406,1,0,0:0:0:0:
158,320,204613,1,8,0:0:0:0:
171,329,204820,1,0,0:0:0:0:
185,336,205027,1,14,0:0:0:0:
200,342,205234,1,2,0:0:0:0:
215,346,205440,1,14,0:0:0:0:
230,349,205647,1,0,0:0:0:0:
245,351,205854,5,10,0:0:0:0:
261,351,206061,1,0,0:0:0:0:
277,350,206268,1,8,0:0:0:0:
292,347,206475,1,0,0:0:0:0:
307,343,206682,1,8,0:0:0:0:
322,338,206889,1,2,0:0:0:0:
336,331,207096,1,2,0:0:0:0:
349,323,207302,1,0,0:0:0:0:
361,313,207509,5,12,0:0:0:0:
373,303,207716,1,0,0:0:0:0:
383,291,207923,1,8,0:0:0:0:
393,279,208130,1,0,0:0:0:0:
401,265,208337,1,10,0:0:0:0:
408,251,208544,1,2,0:0:0:0:
413,237,208751,1,0,0:0:0:0:
418,222,208958,1,0,0:0:0:0:
420,206,209165,5,4,0:0:0:0:
422,191,209371,1,0,0:0:0:0:
421,175,209578,1,0,0:0:0:0:
420,160,209785,1,0,0:0:0:0:
417,144,209992,1,14,0:0:0:0:
412,129,210199,1,2,0:0:0:0:
406,115,210406,1,10,0:0:0:0:
399,101,210613,1,0,0:0:0:0:
390,88,210820,5,12,0:0:0:0:
381,76,211027,1,0,0:0:0:0:
370,65,211234,1,12,0:0:0:0:
358,54,211440,1,0,0:0:0:0:
345,45,211647,1,12,0:0:0:0:
332,38,211854,1,0,0:0:0:0:
317,31,212061,1,4,0:0:0:0:
303,26,212268,1,0,0:0:0:0:
288,22,212475,5,10,0:0:0:0:
288,308,214130,2,0,P|308:256|424:240,1,160.000000596046,0|8,0:0|0:0,0:0:0:0:
140,224,214958,2,0,P|192:244|208:360,1,160.000000596046,0|8,0:0|0:0,0:0:0:0:
224,76,215786,2,0,P|204:128|88:144,1,160.000000596046,4|8,0:0|0:0,0:0:0:0:
372,160,216613,2,0,P|320:140|304:24,1,160.000000596046,0|8,0:0|0:0,0:0:0:0:
360,192,217441,5,4,0:0:0:0:
360,192,217648,1,0,0:0:0:0:
360,192,217855,1,8,0:0:0:0:
360,192,218062,1,0,0:0:0:0:
360,192,218268,1,4,0:0:0:0:
360,192,218372,1,0,0:0:0:0:
360,192,218579,1,0,0:0:0:0:
360,192,218786,1,0,0:0:0:0:
360,192,218889,1,0,0:0:0:0:
360,192,218993,1,0,0:0:0:0:
280,192,219096,5,4,0:0:0:0:
280,192,219303,1,0,0:0:0:0:
280,192,219510,1,8,0:0:0:0:
280,192,219717,1,0,0:0:0:0:
280,192,219924,1,0,0:0:0:0:
280,192,220027,1,0,0:0:0:0:
280,192,220234,1,0,0:0:0:0:
280,192,220441,1,0,0:0:0:0:
280,192,220544,1,0,0:0:0:0:
280,192,220648,1,0,0:0:0:0:
200,192,220751,5,0,0:0:0:0:
200,192,220958,1,0,0:0:0:0:
200,192,221165,1,8,0:0:0:0:
200,192,221372,1,0,0:0:0:0:
200,192,221579,1,0,0:0:0:0:
200,192,221682,1,0,0:0:0:0:
200,192,221889,1,0,0:0:0:0:
200,192,222096,1,0,0:0:0:0:
200,192,222199,1,0,0:0:0:0:
200,192,222303,1,0,0:0:0:0:
120,192,222406,5,0,0:0:0:0:
120,192,222613,1,0,0:0:0:0:
120,192,222820,1,8,0:0:0:0:
120,192,223027,1,0,0:0:0:0:
120,192,223234,1,4,0:0:0:0:
120,192,223337,1,0,0:0:0:0:
120,192,223544,1,0,0:0:0:0:
120,192,223751,1,0,0:0:0:0:
120,192,223855,1,0,0:0:0:0:
120,192,223958,1,0,0:0:0:0:
40,192,224062,5,4,0:0:0:0:
40,192,224268,1,0,0:0:0:0:
40,192,224475,1,12,0:0:0:0:
40,192,224682,1,0,0:0:0:0:
40,192,224889,1,4,0:0:0:0:
40,192,224993,1,0,0:0:0:0:
40,192,225199,1,0,0:0:0:0:
40,192,225406,1,4,0:0:0:0:
40,192,225510,1,4,0:0:0:0:
40,192,225613,1,14,0:0:0:0:
