osu file format v12

[General]
AudioFilename: 01. Segments Blue.mp3
AudioLeadIn: 0
PreviewTime: 7234
Countdown: 1
SampleSet: Normal
StackLeniency: 0.7
Mode: 0
LetterboxInBreaks: 1
WidescreenStoryboard: 1

[Editor]
Bookmarks: 7234,13855,20475,27096,53579,93303,99924,103234,104889,106544,119993
DistanceSpacing: 1
BeatDivisor: 4
GridSize: 8

[Metadata]
Title:Segments Blue
TitleUnicode:Segments Blue
Artist:seleP
ArtistUnicode:seleP
Creator:baraatje123
Version:Segments Green
Source:Lilium Doll
Tags:Cul Vocaloid MagoichiSaica Winek Nardoxyribonucleic Nardo
BeatmapID:348541
BeatmapSetID:131854

[Difficulty]
HPDrainRate:2
CircleSize:2
OverallDifficulty:1
ApproachRate:2
SliderMultiplier:1.20000000596046
SliderTickRate:2

[Events]
//Background and Video events
0,0,"CUL.full.914383.jpg",0,0
//Break Periods
2,80262,91743
2,108199,111510
2,212675,219191
//Storyboard Layer 0 (Background)
//Storyboard Layer 1 (Fail)
//Storyboard Layer 2 (Pass)
//Storyboard Layer 3 (Foreground)
//Storyboard Sound Samples
//Background Colour Transformations
3,100,150,0,0

[TimingPoints]
613.756684721381,413.793103448276,4,1,0,70,1,0
13855,-100,4,1,0,70,0,1
13958,-100,4,1,0,70,0,0
20475,-100,4,1,0,70,0,1
20579,-100,4,1,0,100,0,0
53579,-83.3333333333333,4,1,0,70,0,1
80062,-100,4,1,0,70,0,0
93303,-83.3333333333333,4,1,0,70,0,1
106544,-100,4,1,0,70,0,0
121441,-66.6666666666667,4,1,0,70,0,0
123510,-100,4,1,0,70,0,0
133027,-83.3333333333333,4,1,0,70,0,1
146165,-100,4,1,0,70,0,0
146268,-83.3333333333333,4,1,0,70,0,1
159096,-100,4,1,0,70,0,0
185993,-100,4,1,0,70,0,1
186096,-100,4,1,0,70,0,0
199234,-100,4,1,0,70,0,1
199337,-100,4,1,0,70,0,0
212475,-100,4,1,0,70,0,1
212527,-100,4,1,0,70,0,0

[Colours]
Combo1 : 0,147,147
Combo2 : 198,0,0
Combo3 : 251,204,96
Combo4 : 250,145,145
Combo5 : 74,255,74

[HitObjects]
40,192,7234,1,6,0:0:0:0:
160,192,7648,2,0,L|280:160,1,120.000000596046,2|2,0:0|0:0,0:0:0:0:
264,280,8475,2,0,L|336:280,1,60.000000298023,2|2,0:0|0:0,0:0:0:0:
384,280,8889,6,0,P|440:240|440:192,1,120.000000596046,2|2,0:0|0:0,0:0:0:0:
320,192,9717,1,2,0:0:0:0:
256,88,10130,6,0,L|200:144,2,60.000000298023,2|2|2,0:0|0:0|0:0,0:0:0:0:
171,172,10958,1,2,0:0:0:0:
288,168,11372,1,2,0:0:0:0:
256,48,11786,6,0,P|320:40|336:48,1,60.000000298023,2|0,0:0|0:0,0:0:0:0:
344,88,12199,1,2,0:0:0:0:
344,208,12613,1,2,0:0:0:0:
344,88,13027,1,2,0:0:0:0:
256,168,13441,6,0,B|264:176|256:184|264:192|256:200|264:208|256:216|264:224|256:232,1,60.000000298023,10|0,0:0|0:0,0:0:0:0:
200,232,13855,6,0,P|128:208|128:56,1,240.000002384186,6|2,0:0|0:0,0:0:0:0:
240,56,15096,1,10,0:0:0:0:
360,56,15510,2,0,B|408:56|408:56|408:112|408:112|408:176|432:176|432:176|432:240,1,240.000001192092,0|2,0:0|0:0,0:0:0:0:
320,192,16751,6,0,L|240:192,1,60.0000005960464,10|0,0:0|0:0,0:0:0:0:
200,192,17165,1,6,0:0:0:0:
184,72,17579,1,10,0:0:0:0:
96,160,17993,1,2,0:0:0:0:
72,272,18406,6,0,B|112:312|168:312|216:264|216:264|248:296|304:296|392:208,1,360.000003576279,10|6,0:0|0:0,0:0:0:0:
288,144,20062,1,6,0:0:0:0:
168,144,20475,6,0,B|160:96|160:96|120:56|80:64,1,120.000001192093,14|8,0:0|0:0,0:0:0:0:
56,176,21303,2,0,L|56:256,2,60.0000005960464,2|0|10,0:0|0:0|0:0,0:0:0:0:
176,192,22130,5,4,0:0:0:0:
296,192,22544,2,0,B|320:96|320:96|360:104,1,120.000001192093,8|2,0:0|0:0,0:0:0:0:
416,192,23372,5,10,0:0:0:0:
296,192,23786,2,0,B|232:224|232:224|168:192|168:192|72:240,1,240.000002384186,6|6,0:0|0:0,0:0:0:0:
95,112,25027,2,8,P|212:110|295:191,1,240.000002384186,10|12,0:0|0:0,0:0:0:0:
256,304,26268,2,0,L|328:304,2,60.0000005960464,4|0|12,0:0|0:0|0:0,0:0:0:0:
256,240,26889,1,0,0:0:0:0:
256,240,27096,6,0,P|256:144|360:40,1,240.000002384186,4|0,0:0|0:0,0:0:0:0:
368,104,28130,1,0,0:0:0:0:
424,128,28337,6,8,P|424:224|360:352,1,240.000002384186,8|8,0:0|0:0,0:0:0:0:
256,296,29579,1,0,0:0:0:0:
196,296,29786,2,0,L|256:296,1,60.0000005960464,0|8,0:0|0:0,0:0:0:0:
256,240,30199,6,0,P|248:176|160:80,1,180.000001788139,0|8,0:0|0:0,0:0:0:0:
120,88,31027,1,0,0:0:0:0:
64,88,31234,2,0,P|32:168|112:312,1,240.000002384186,0|0,0:0|0:0,0:0:0:0:
152,304,32268,2,0,L|224:304,1,60.0000005960464,0|8,0:0|0:0,0:0:0:0:
272,304,32682,2,0,L|344:304,2,60.0000005960464,0|0|0,0:0|0:0|0:0,0:0:0:0:
212,304,33303,2,0,L|72:304,1,120.000001192093,8|4,0:0|0:0,0:0:0:0:
136,192,34130,6,0,P|168:144|216:96,1,120.000001192093,8|0,0:0|0:0,0:0:0:0:
312,160,34958,2,0,P|280:208|232:256,1,120.000001192093,8|10,0:0|0:0,0:0:0:0:
256,192,35579,12,2,36820,0:0:0:0:
296,192,37027,6,0,L|272:136,1,60.0000005960464,8|0,0:0|0:0,0:0:0:0:
240,192,37441,2,0,L|120:176,1,120.000001192093,8|0,0:0|0:0,0:0:0:0:
64,280,38268,2,8,P|120:320|296:304,1,240.000002384186,8|10,0:0|0:0,0:0:0:0:
392,264,39510,1,2,0:0:0:0:
392,264,39924,1,10,0:0:0:0:
336,160,40337,6,0,P|264:80|240:72,1,120.000001192093,4|8,0:0|0:0,0:0:0:0:
256,200,41165,2,0,P|204:230|172:280,1,120.000001192093,4|8,0:0|0:0,0:0:0:0:
296,288,41993,2,0,P|326:339|376:371,1,120.000001192093,4|12,0:0|0:0,0:0:0:0:
384,248,42820,2,0,P|435:217|467:167,1,120.000001192093,4|12,0:0|0:0,0:0:0:0:
339,280,43648,6,0,P|307:230|256:200,1,120.000001192093,4|8,0:0|0:0,0:0:0:0:
176,288,44475,2,0,P|225:255|256:204,1,120.000001192093,4|8,0:0|0:0,0:0:0:0:
176,120,45303,2,0,P|208:169|259:200,1,120.000001192093,4|12,0:0|0:0,0:0:0:0:
344,120,46131,2,0,P|294:152|263:203,1,120.000001192093,2|10,0:0|0:0,0:0:0:0:
256,192,46958,12,12,53165,0:0:0:0:
96,192,53579,5,4,0:0:0:0:
240,192,53993,2,0,B|240:88|336:88|336:88|336:0|424:88,1,287.999992641448,8|8,0:0|0:0,0:0:0:0:
328,192,55234,2,0,B|328:272|264:344|264:352|256:352|248:352|248:344|184:272|184:224,1,287.99999407196,8|8,0:0|0:0,0:0:0:0:
64,192,56475,1,8,0:0:0:0:
208,192,56889,6,0,P|232:144|248:128,2,71.9999985179901,12|0|8,0:0|0:0|0:0,0:0:0:0:
280,192,57510,1,0,0:0:0:0:
280,264,57717,2,0,L|208:264,2,71.9999985179901,8|0|8,0:0|0:0|0:0,0:0:0:0:
352,264,58337,2,0,L|440:264,1,71.9999985179901,0|12,0:0|0:0,0:0:0:0:
432,192,58751,2,0,L|352:192,1,71.9999985179901,0|8,0:0|0:0,0:0:0:0:
360,120,59165,2,0,L|432:120,1,71.9999985179901,0|12,0:0|0:0,0:0:0:0:
432,48,59579,2,0,L|360:48,1,71.9999985179901,0|12,0:0|0:0,0:0:0:0:
216,48,60199,5,12,0:0:0:0:
72,48,60613,2,8,B|40:120|40:120|96:96|136:200|128:208|136:216|144:208|208:160,1,287.99999407196,0|8,0:0|0:0,0:0:0:0:
344,168,61855,2,0,B|396:207|404:215|412:207|404:199|444:95|500:119|500:119|468:47,1,287.99999407196,12|8,0:0|0:0,0:0:0:0:
360,144,63096,1,8,0:0:0:0:
256,40,63510,6,0,B|256:0|168:0|160:0|152:0|152:8|152:16|152:64|152:72|152:80|144:80|136:80|80:136|24:80,1,287.99999407196,12|12,0:0|0:0,0:0:0:0:
152,192,64751,1,0,0:0:0:0:
296,192,65165,2,0,B|296:232|384:232|392:232|400:232|400:224|400:216|400:168|400:160|400:152|408:152|416:152|472:96|528:152,1,287.99999407196,12|12,0:0|0:0,0:0:0:0:
400,40,66406,1,12,0:0:0:0:
256,40,66820,6,0,B|304:88|312:96|320:104|312:112|304:120|208:216|200:224|192:232|200:240|208:248|304:344|312:352|320:360|312:368|304:376|280:400,1,431.999991107941,12|8,0:0|0:0,0:0:0:0:
376,280,68475,1,8,0:0:0:0:
376,136,68889,1,8,0:0:0:0:
256,56,69303,2,0,B|280:80|284:84|288:88|284:92|280:96|232:144|228:148|224:152|228:156|232:160|280:208|284:212|288:216|284:220|280:224|268:236,1,215.99999555397,8|0,0:0|0:0,0:0:0:0:
272,304,70130,5,12,0:0:0:0:
184,192,70544,2,0,L|80:88,1,143.99999703598,8|8,0:0|0:0,0:0:0:0:
184,192,71372,2,0,L|288:296,1,143.99999703598,8|12,0:0|0:0,0:0:0:0:
184,192,72199,2,0,L|288:88,1,143.99999703598,8|12,0:0|0:0,0:0:0:0:
184,192,73027,2,0,L|80:296,1,143.99999703598,8|12,0:0|0:0,0:0:0:0:
224,272,73855,6,8,B|224:228|268:184|320:184|364:228|364:272|320:316|268:316|232:280,1,287.99999407196,8|8,0:0|0:0,0:0:0:0:
184,160,75096,1,12,0:0:0:0:
256,32,75510,2,8,B|256:112|256:112|256:72|312:72|312:152|312:152|312:112|368:112|368:192|368:192|368:152|424:152|424:232,1,431.999991107941,8|12,0:0|0:0,0:0:0:0:
280,192,77165,6,8,B|216:128|216:128|200:112|176:88|56:88|56:208,1,287.999992641448,8|8,0:0|0:0,0:0:0:0:
200,224,78406,2,8,B|264:288|264:288|280:304|304:328|424:328|424:208,1,287.999992641448,8|8,0:0|0:0,0:0:0:0:
288,176,79648,5,12,0:0:0:0:
288,104,79855,1,0,0:0:0:0:
288,40,80062,1,12,0:0:0:0:
64,192,93303,6,0,B|64:112|128:48|224:48|288:112|288:192|224:256|120:256|64:200,1,431.999991107941,2|0,0:0|0:0,0:0:0:0:
272,240,94958,6,0,B|267:214|371:214|435:278|435:358|371:422|275:422|211:358|211:278,1,431.999991107941,2|0,0:0|0:0,0:0:0:0:
104,200,96613,6,0,B|99:225|203:225|267:161|267:81|203:17|107:17|43:81|43:161,1,431.999991107941,2|0,0:0|0:0,0:0:0:0:
40,296,98268,6,12,B|39:362|103:426|199:426|263:362|263:282|199:218|95:218|100:244,1,431.999991107941,2|0,0:0|0:0,0:0:0:0:
120,96,99924,6,0,L|264:96,2,143.99999703598,8|8|8,0:0|0:0|0:0,0:0:0:0:
120,240,101165,2,0,L|264:240,2,143.99999703598,8|8|8,0:0|0:0|0:0,0:0:0:0:
120,96,102406,2,0,L|264:96,1,143.99999703598,8|8,0:0|0:0,0:0:0:0:
256,192,103234,12,12,104682,0:0:0:0:
256,192,104889,12,12,106544,0:0:0:0:
88,96,113165,6,0,L|200:208,1,120.000001192093,8|8,0:0|0:0,0:0:0:0:
296,184,113993,2,0,L|400:80,1,120.000001192093,0|8,0:0|0:0,0:0:0:0:
464,192,114820,2,0,L|416:256,1,60.0000005960464,0|0,0:0|0:0,0:0:0:0:
392,192,115234,2,0,L|344:256,1,60.0000005960464,8|0,0:0|0:0,0:0:0:0:
320,192,115648,2,0,L|272:256,1,60.0000005960464,0|0,0:0|0:0,0:0:0:0:
248,192,116062,2,0,L|200:256,1,60.0000005960464,8|0,0:0|0:0,0:0:0:0:
176,192,116475,6,0,B|136:120|136:120|168:64|312:48,1,240.000002384186,0|0,0:0|0:0,0:0:0:0:
392,64,117717,2,0,L|472:160,2,120.000001192093,8|0|8,0:0|0:0|0:0,0:0:0:0:
272,64,118958,2,0,B|272:152|272:152|272:112|272:104|264:104|192:104|184:104|184:112|184:160,1,240.000002384186,0|0,0:0|0:0,0:0:0:0:
232,184,119993,6,0,P|272:240|272:312,1,120.000001192093,0|0,0:0|0:0,0:0:0:0:
336,288,120613,2,0,P|344:229|380:182,1,120.000001192093,0|8,0:0|0:0,0:0:0:0:
504,192,121441,2,0,B|464:96|544:48|392:24|224:80|304:192|416:344|352:352|200:312|64:264|56:128|168:16|248:80|232:160,1,720.000007152557,0|0,0:0|0:0,0:0:0:0:
136,192,123510,5,8,0:0:0:0:
136,72,123924,1,0,0:0:0:0:
256,72,124337,2,0,L|256:192,1,120.000001192093,8|0,0:0|0:0,0:0:0:0:
136,192,125165,2,0,L|256:192,1,120.000001192093,8|0,0:0|0:0,0:0:0:0:
376,192,125993,2,0,L|248:192,1,120.000001192093,8|0,0:0|0:0,0:0:0:0:
256,72,126820,5,8,0:0:0:0:
256,192,127234,2,0,L|256:312,1,120.000001192093,0|8,0:0|0:0,0:0:0:0:
256,192,128062,12,8,129303,0:0:0:0:
56,192,129717,6,0,L|128:192,1,60.0000005960464,0|0,0:0|0:0,0:0:0:0:
176,192,130130,1,8,0:0:0:0:
296,192,130544,2,0,L|368:192,1,60.0000005960464,0|0,0:0|0:0,0:0:0:0:
416,192,130957,1,8,0:0:0:0:
256,192,131372,12,8,132820,0:0:0:0:
32,40,133027,6,0,P|96:160|216:256,1,287.99999407196,12|8,0:0|0:0,0:0:0:0:
352,280,134268,2,10,B|480:240|536:136|528:-24|304:-40|224:-24|128:80|152:224|200:280|296:256|360:152|376:120|328:88|288:112|280:120,1,720.000007152557,8|12,0:0|0:0,0:0:0:0:
192,72,136751,5,8,0:0:0:0:
192,216,137165,1,8,0:0:0:0:
336,216,137579,2,10,B|368:128|368:128|400:168|400:168|424:104|424:104|448:48|448:48|384:80|384:80|408:0|408:0|328:0|328:0|256:200,1,719.999985179901,8|12,0:0|0:0,0:0:0:0:
184,200,139855,6,4,L|184:304,4,71.9999985179901,0|8|0|8|0,0:0|0:0|0:0|0:0|0:0,0:0:0:0:
256,200,140889,2,0,B|256:56|272:16|272:16|312:80|432:8|432:8|504:96|504:104|304:280,1,719.999985179901,8|12,0:0|0:0,0:0:0:0:
192,192,143372,5,8,0:0:0:0:
48,192,143786,1,12,0:0:0:0:
144,80,144199,1,8,0:0:0:0:
288,80,144613,2,8,L|176:192,1,143.99999703598,12|12,0:0|0:0,0:0:0:0:
312,256,145441,2,8,B|288:320|288:320|432:344,1,143.99999703598,12|12,0:0|0:0,0:0:0:0:
432,208,146268,6,0,P|392:152|320:128,2,143.999996320724
296,248,147510,2,0,B|208:112|208:112|184:128|136:96|128:192|88:184|56:128|56:64|80:48|304:16,1,575.999985282896
424,96,149579,6,0,P|344:136|304:96,1,143.999996320724
320,256,150406,1,0,0:0:0:0:
304,112,150820,2,0,B|280:136|280:136|256:112|256:112|232:136|232:136|208:112|208:112|184:136|184:136|160:112|160:112|136:136|136:136|112:112|112:112|88:136|88:136|32:192|32:192|56:216|56:216|32:240|32:240|56:264|56:264|32:288|32:288|56:312|56:312|32:336,1,575.999985282896
184,312,152889,6,0,L|256:280,1,71.999998160362
280,216,153303,2,0,L|336:144,1,71.999998160362
344,88,153717,2,0,L|392:16,1,71.999998160362
456,40,154130,2,0,P|464:120|96:144,1,575.999985282896
224,88,156199,5,0,0:0:0:0:
272,144,156406,1,0,0:0:0:0:
320,192,156613,1,8,0:0:0:0:
392,192,156820,1,0,0:0:0:0:
464,192,157027,1,12,0:0:0:0:
416,248,157234,1,0,0:0:0:0:
368,304,157440,1,8,0:0:0:0:
224,304,157854,2,8,L|320:192,1,143.99999703598,12|12,0:0|0:0,0:0:0:0:
464,192,158682,2,8,L|368:304,1,143.99999703598,12|12,0:0|0:0,0:0:0:0:
424,192,159510,6,0,B|344:104|344:104|280:160|280:168|272:168|272:160|224:112,1,240.000002384186,12|0,0:0|0:0,0:0:0:0:
144,192,160751,1,8,0:0:0:0:
260,141,161165,6,0,B|240:160|240:168|232:168|232:160|168:104|168:104|88:192,1,240.000002384186,0|0,0:0|0:0,0:0:0:0:
104,312,162406,1,8,0:0:0:0:
192,224,162820,2,0,L|64:216,1,120.000000596046,12|0,0:0|0:0,0:0:0:0:
104,96,163648,2,0,L|184:144,1,60.0000005960464
184,72,164062,2,0,L|248:112,1,60.000000298023
208,160,164475,2,0,B|304:192|304:192|320:120|360:72|376:64|376:40|352:32|328:48|328:72|336:96|448:176|456:176|480:160|456:136|432:136|408:168|400:232,1,480.000004768371,4|4,0:0|0:0,0:0:0:0:
288,264,166544,5,12,0:0:0:0:
168,264,166958,2,0,L|120:136,1,120.000001192093,0|8,0:0|0:0,0:0:0:0:
168,40,167786,2,0,L|125:152,1,120.000001192093,4|8,0:0|0:0,0:0:0:0:
245,152,168613,2,0,L|125:152,1,120.000001192093,0|8,0:0|0:0,0:0:0:0:
16,192,169441,6,0,P|48:96|176:96,1,240.000002384186,4|4,0:0|0:0,0:0:0:0:
288,128,170682,2,8,L|384:128,1,60.0000005960464,8|0,0:0|0:0,0:0:0:0:
360,192,171096,1,4,0:0:0:0:
240,224,171510,1,12,0:0:0:0:
360,256,171924,1,4,0:0:0:0:
240,288,172337,1,12,0:0:0:0:
240,168,172751,6,0,B|360:192|360:192|240:224|240:224|360:256|360:256|240:288,1,480.000004768371,4|0,0:0|0:0,0:0:0:0:
176,192,174820,2,8,B|176:80|176:80|200:152|216:8,1,240.000002384186,8|8,0:0|0:0,0:0:0:0:
336,40,176062,2,0,B|336:248|336:248|336:136|496:136|496:280,1,480.000004768371,12|0,0:0|0:0,0:0:0:0:
376,280,178130,1,8,0:0:0:0:
495,271,178544,1,4,0:0:0:0:
376,280,178958,2,8,L|296:200,1,60.0000005960464,12|0,0:0|0:0,0:0:0:0:
272,232,179372,6,8,L|144:232,1,120.000001192093,4|8,0:0|0:0,0:0:0:0:
64,152,180199,2,0,L|208:152,1,120.000001192093,0|8,0:0|0:0,0:0:0:0:
272,232,181027,2,0,L|392:232,1,120.000001192093,4|8,0:0|0:0,0:0:0:0:
488,152,181855,2,0,L|352:152,1,120.000001192093,0|8,0:0|0:0,0:0:0:0:
248,152,182682,2,0,L|368:152,1,120.000001192093,4|8,0:0|0:0,0:0:0:0:
256,192,183510,12,12,185993,0:0:0:0:
104,144,186406,5,8,0:0:0:0:
104,264,186820,2,0,L|176:264,2,60.000000298023,2|2|10,0:0|0:0|0:0,0:0:0:0:
152,152,187648,1,0,0:0:0:0:
56,224,188062,1,8,0:0:0:0:
176,224,188475,1,2,0:0:0:0:
80,152,188889,1,2,0:0:0:0:
176,224,189303,5,4,0:0:0:0:
256,312,189717,1,8,0:0:0:0:
296,200,190130,1,2,0:0:0:0:
208,284,190544,1,10,0:0:0:0:
324,312,190958,1,4,0:0:0:0:
296,200,191372,1,8,0:0:0:0:
296,200,191786,1,6,0:0:0:0:
236,96,192199,1,14,0:0:0:0:
336,160,192613,5,6,0:0:0:0:
456,160,193027,1,8,0:0:0:0:
360,232,193440,1,0,0:0:0:0:
396,120,193854,1,2,0:0:0:0:
432,232,194268,1,4,0:0:0:0:
396,120,194682,1,8,0:0:0:0:
360,232,195096,1,2,0:0:0:0:
240,228,195510,2,0,L|252:88,1,120.000000596046,0|4,0:0|0:0,0:0:0:0:
364,68,196337,6,0,L|232:48,1,120.000000596046,0|14,0:0|0:0,0:0:0:0:
124,64,197165,2,0,L|48:176,1,120.000000596046,10|4,0:0|0:0,0:0:0:0:
84,280,197993,2,0,L|224:276,1,120.000000596046,12|4,0:0|0:0,0:0:0:0:
292,192,198820,2,0,B|360:192|360:192|416:188,1,120.000000596046,12|12,0:0|0:0,0:0:0:0:
396,248,199441,5,0,0:0:0:0:
366,302,199648,2,0,L|296:340,1,60.000000298023,8|0,0:0|0:0,0:0:0:0:
256,348,200062,2,0,L|196:320,1,60.000000298023,10|2,0:0|0:0,0:0:0:0:
145,302,200475,2,0,L|104:224,1,60.000000298023,10|0,0:0|0:0,0:0:0:0:
99,191,200889,2,0,L|128:116,1,60.000000298023,8|0,0:0|0:0,0:0:0:0:
145,81,201303,2,0,L|216:52,1,60.000000298023,8|0,0:0|0:0,0:0:0:0:
256,35,201717,2,0,L|328:64,1,60.000000298023,10|2,0:0|0:0,0:0:0:0:
366,81,202130,2,0,L|400:152,1,60.000000298023,2|0,0:0|0:0,0:0:0:0:
412,192,202544,6,0,L|388:260,1,60.000000298023,12|0,0:0|0:0,0:0:0:0:
366,302,202958,2,0,L|296:340,1,60.000000298023,8|0,0:0|0:0,0:0:0:0:
256,348,203372,2,0,L|196:320,1,60.000000298023,10|2,0:0|0:0,0:0:0:0:
145,302,203785,2,0,L|104:224,1,60.000000298023,10|0,0:0|0:0,0:0:0:0:
99,191,204199,2,0,L|128:116,1,60.000000298023,12|0,0:0|0:0,0:0:0:0:
145,81,204613,2,0,L|216:52,1,60.000000298023,8|0,0:0|0:0,0:0:0:0:
256,35,205027,2,0,L|328:64,1,60.000000298023,14|2,0:0|0:0,0:0:0:0:
366,81,205440,2,0,L|400:152,1,60.000000298023,14|0,0:0|0:0,0:0:0:0:
412,192,205854,5,10,0:0:0:0:
256,196,207510,5,0,0:0:0:0:
256,166,207716,1,0,0:0:0:0:
256,136,207923,1,0,0:0:0:0:
192,136,208130,2,14,L|152:136,2,30.0000001490115,0|0|10,0:0|0:0|0:0,0:0:0:0:
184,200,208544,2,14,L|184:256,1,30.0000001490115,2|0,0:0|0:0,0:0:0:0:
248,296,208958,5,0,0:0:0:0:
256,192,209165,12,0,212062,0:0:0:0:
256,192,212475,5,10,0:0:0:0:
92,148,220751,6,0,P|144:96|208:80,1,120.000000596046,0|8,0:0|0:0,0:0:0:0:
180,200,221579,2,0,P|216:232|296:240,1,120.000000596046,0|8,0:0|0:0,0:0:0:0:
336,136,222406,2,8,P|396:148|448:200,1,120.000000596046,0|8,0:0|0:0,0:0:0:0:
360,276,223234,2,8,L|296:288,1,60.000000298023,4|0,0:0|0:0,0:0:0:0:
301,287,223648,1,8,0:0:0:0:
256,192,224062,12,12,225303,0:0:0:0:
256,192,225510,6,8,L|256:160,2,30.0000001490115,4|14|0,0:0|0:0|0:0,0:0:0:0:
