osu file format v13

[General]
AudioFilename: 05. Ref-Rain.mp3
AudioLeadIn: 0
PreviewTime: 240430
Countdown: 0
SampleSet: Soft
StackLeniency: 0.7
Mode: 0
LetterboxInBreaks: 1
WidescreenStoryboard: 1

[Editor]
Bookmarks: 254144
DistanceSpacing: 2
BeatDivisor: 4
GridSize: 4
TimelineZoom: 2.899999

[Metadata]
Title:Ref-Rain
TitleUnicode:Ref-Rain
Artist:seleP
ArtistUnicode:seleP
Creator:MagoichiSaica
Version:Red-Rain
Source:
Tags:Vocaloid IA seleP Yuuki Kira LILIUM DOLL Baraatje123
BeatmapID:344456
BeatmapSetID:136642

[Difficulty]
HPDrainRate:7
CircleSize:4
OverallDifficulty:5
ApproachRate:8
SliderMultiplier:2.00000000596046
SliderTickRate:2

[Events]
//Background and Video events
0,0,"Ref-Rain.png",0,0
//Break Periods
2,72630,84965
2,142808,155251
2,211487,224251
//Storyboard Layer 0 (Background)
//Storyboard Layer 1 (Fail)
//Storyboard Layer 2 (Pass)
//Storyboard Layer 3 (Foreground)
//Storyboard Sound Samples
//Background Colour Transformations
3,100,163,162,255

[TimingPoints]
430,428.571428571429,4,2,0,70,1,0
15858,-100,4,2,3,70,0,1
29572,-100,4,2,4,70,0,0
58715,-100,4,2,3,70,0,1
72430,-100,4,2,3,70,0,0
85715,-100,4,2,1,70,0,0
99858,-100,4,2,4,70,0,0
129001,-66.6666666666667,4,2,3,70,0,1
142715,-100,4,2,3,70,0,0
156001,-100,4,2,1,70,0,0
170144,-100,4,2,1,5,0,1
170251,-100,4,2,1,5,0,0
183858,-66.6666666666667,4,2,3,70,0,1
194144,-66.6666666666667,4,2,4,70,0,1
197465,-66.6666666666667,4,2,4,70,0,0
197572,-66.6666666666667,4,2,4,70,0,1
204430,-83.3333333333333,4,2,4,70,0,1
211287,-100,4,2,0,70,0,0
225001,-100,4,2,4,70,0,0
240430,-100,4,2,3,70,0,1
254037,-100,4,2,3,50,0,0
254144,-83.3333333333333,4,2,4,50,0,1
267965,-100,4,2,4,50,0,0

[Colours]
Combo1 : 255,0,0
Combo2 : 128,128,255
Combo3 : 128,0,128
Combo4 : 128,0,255
Combo5 : 255,0,128

[HitObjects]
80,116,15858,6,0,P|132:136|184:136,1,100.000000298023,0|0,0:0|0:0,0:0:0:0:
220,116,16180,1,0,0:0:0:0:
268,96,16287,2,0,L|268:44,2,50.0000001490115,8|0|0,0:0|0:0|0:0,0:0:0:0:
396,148,16715,2,0,P|412:204|408:264,1,100.000000298023,0|0,0:0|0:0,0:0:0:0:
228,324,17144,1,8,0:0:0:0:
116,160,17358,1,0,0:0:0:0:
264,296,17572,1,0,0:0:0:0:
308,208,17787,2,0,L|308:104,1,100.000000298023,0|8,0:0|0:0,0:0:0:0:
276,72,18108,6,0,L|232:36,1,50.0000001490115,0|0,0:0|0:0,0:0:0:0:
108,48,18430,2,0,L|144:88,1,50.0000001490115,0|0,0:0|0:0,0:0:0:0:
156,100,18644,1,0,0:0:0:0:
168,116,18751,1,0,0:0:0:0:
180,132,18858,1,8,0:0:0:0:
192,148,18965,1,0,0:0:0:0:
204,164,19072,1,0,0:0:0:0:
256,252,19287,5,0,0:0:0:0:
448,192,19501,1,2,0:0:0:0:
304,52,19715,2,0,P|244:68|196:68,1,100.000000298023,0|2,0:0|0:0,0:0:0:0:
160,48,20037,1,0,0:0:0:0:
112,36,20144,2,0,P|88:84|88:140,1,100.000000298023,0|0,0:0|0:0,0:0:0:0:
77,325,20572,2,0,P|93:277|92:228,1,100.000000298023,8|2,0:0|0:0,0:0:0:0:
128,196,20894,1,0,0:0:0:0:
176,188,21001,2,0,B|220:160|220:160|232:176|232:200|232:200|248:192|296:180|336:184,1,200.000000596046,0|8,0:0|0:0,0:0:0:0:
404,204,21537,6,0,L|396:256,1,50.0000001490115,0|0,0:0|0:0,0:0:0:0:
484,204,21751,2,0,L|536:208,1,50.0000001490115,0|0,0:0|0:0,0:0:0:0:
480,132,21965,2,0,L|484:76,1,50.0000001490115,0|0,0:0|0:0,0:0:0:0:
400,128,22180,2,0,L|356:92,1,50.0000001490115,0|8,0:0|0:0,0:0:0:0:
316,56,22394,2,0,L|316:28,4,25.0000000745058,0|0|0|0|0,0:0|0:0|0:0|0:0|0:0,0:0:0:0:
256,64,22715,5,0,0:0:0:0:
120,100,22930,1,0,0:0:0:0:
256,124,23144,1,8,0:0:0:0:
392,160,23358,1,0,0:0:0:0:
256,184,23572,1,0,0:0:0:0:
120,220,23787,1,0,0:0:0:0:
256,248,24001,1,8,0:0:0:0:
392,272,24215,1,0,0:0:0:0:
256,308,24430,2,0,L|256:360,2,50.0000001490115,0|0|0,0:0|0:0|0:0,0:0:0:0:
124,260,24858,6,0,P|88:208|88:160,1,100.000000298023,8|0,0:0|0:0,0:0:0:0:
168,60,25287,1,0,0:0:0:0:
184,232,25501,2,0,L|280:192,1,100.000000298023,0|8,0:0|0:0,0:0:0:0:
288,192,25822,1,0,0:0:0:0:
296,192,25930,2,0,L|348:192,1,50.0000001490115,0|0,0:0|0:0,0:0:0:0:
416,232,26144,6,0,L|416:336,1,100.000000298023,0|0,0:0|0:0,0:0:0:0:
416,132,26572,2,0,L|416:28,1,100.000000298023,8|0,0:0|0:0,0:0:0:0:
308,56,27001,2,0,L|356:20,1,50.0000001490115,0|0,0:0|0:0,0:0:0:0:
240,32,27322,1,0,0:0:0:0:
240,32,27430,1,8,0:0:0:0:
152,96,27644,2,0,P|104:120|88:168,1,100.000000298023,0|8,0:0|0:0,0:0:0:0:
184,216,28072,1,0,0:0:0:0:
332,296,28287,2,0,P|292:256|288:208,1,100.000000298023,8|0,0:0|0:0,0:0:0:0:
292,204,28608,1,0,0:0:0:0:
296,196,28715,2,0,P|310:138|298:74,1,100.000000298023,8|0,0:0|0:0,0:0:0:0:
240,32,29144,2,0,P|228:88|232:136,1,100.000000298023,8|8,0:0|0:0,0:0:0:0:
376,128,29572,6,0,P|408:176|404:220,1,100.000000298023,0|0,0:0|0:0,0:0:0:0:
328,192,30001,2,0,P|328:244|360:280,1,100.000000298023,8|0,0:0|0:0,0:0:0:0:
436,264,30430,1,0,0:0:0:0:
388,328,30644,1,0,0:0:0:0:
308,328,30858,1,8,0:0:0:0:
252,268,31072,1,0,0:0:0:0:
172,260,31287,6,0,L|120:260,4,50.0000001490115,0|0|0|0|8,0:0|0:0|0:0|0:0|0:0,0:0:0:0:
120,95,31930,2,0,P|153:131|152:180,1,100.000000298023,0|0,0:0|0:0,0:0:0:0:
224,108,32358,1,0,0:0:0:0:
300,44,32572,1,8,0:0:0:0:
328,140,32787,1,0,0:0:0:0:
368,272,33001,6,0,L|264:272,1,100.000000298023,0|0,0:0|0:0,0:0:0:0:
76,212,33430,2,0,L|180:212,1,100.000000298023,8|0,0:0|0:0,0:0:0:0:
432,132,33858,2,0,L|328:132,1,100.000000298023,0|0,0:0|0:0,0:0:0:0:
140,72,34287,2,0,L|244:72,2,100.000000298023,8|0|0,0:0|0:0|0:0,0:0:0:0:
116,116,34822,5,0,0:0:0:0:
92,160,34930,1,0,0:0:0:0:
92,208,35037,1,0,0:0:0:0:
124,244,35144,1,8,0:0:0:0:
160,280,35251,1,0,0:0:0:0:
192,316,35358,2,0,L|232:276,2,50.0000001490115,0|0|0,0:0|0:0|0:0,0:0:0:0:
320,68,35787,2,0,L|280:108,2,50.0000001490115,0|0|8,0:0|0:0|0:0,0:0:0:0:
436,184,36215,6,0,B|388:220|388:220|372:216|372:216|352:236,1,100.000000298023,0|0,0:0|0:0,0:0:0:0:
336,332,36644,1,0,0:0:0:0:
216,332,36858,1,8,0:0:0:0:
148,232,37072,1,0,0:0:0:0:
204,124,37287,2,0,P|256:152|308:136,1,100.000000298023,0|0,0:0|0:0,0:0:0:0:
264,72,37715,2,0,P|224:40|168:48,1,100.000000298023,8|0,0:0|0:0,0:0:0:0:
212,148,38144,1,0,0:0:0:0:
212,256,38358,5,0,0:0:0:0:
212,108,38572,1,8,0:0:0:0:
212,300,38787,1,0,0:0:0:0:
212,60,39001,1,0,0:0:0:0:
212,340,39215,1,0,0:0:0:0:
432,308,39430,6,0,B|384:280|376:256|376:256|352:256,1,100.000000298023,8|0,0:0|0:0,0:0:0:0:
260,216,39858,1,0,0:0:0:0:
244,208,39965,1,0,0:0:0:0:
228,196,40072,1,0,0:0:0:0:
212,184,40180,1,0,0:0:0:0:
204,164,40287,1,0,0:0:0:0:
204,144,40394,1,0,0:0:0:0:
196,128,40501,1,0,0:0:0:0:
184,112,40608,1,0,0:0:0:0:
172,96,40715,1,0,0:0:0:0:
152,92,40822,1,0,0:0:0:0:
132,88,40930,1,0,0:0:0:0:
72,196,41144,6,0,L|72:248,1,50.0000001490115,8|0,0:0|0:0,0:0:0:0:
108,232,41358,2,0,L|116:288,1,50.0000001490115,0|0,0:0|0:0,0:0:0:0:
152,264,41572,2,0,L|188:304,1,50.0000001490115,0|0,0:0|0:0,0:0:0:0:
204,268,41787,2,0,L|256:284,1,50.0000001490115,0|0,0:0|0:0,0:0:0:0:
264,244,42001,2,0,L|316:240,4,50.0000001490115,8|0|0|0|0,0:0|0:0|0:0|0:0|0:0,0:0:0:0:
224,176,42644,2,0,L|188:140,1,50.0000001490115,0|0,0:0|0:0,0:0:0:0:
280,176,42858,2,0,L|312:132,2,50.0000001490115,8|0|0,0:0|0:0|0:0,0:0:0:0:
408,64,43287,6,0,B|396:116|408:172|436:208|396:264,1,200.000000596046,0|8,0:0|0:0,0:0:0:0:
320,268,43930,1,0,0:0:0:0:
112,168,44144,1,0,0:0:0:0:
312,64,44358,1,0,0:0:0:0:
440,192,44572,5,8,0:0:0:0:
396,284,44787,2,0,P|340:308|296:296,1,100.000000298023,0|0,0:0|0:0,0:0:0:0:
303,83,45215,2,0,P|352:77|396:100,1,100.000000298023,0|8,0:0|0:0,0:0:0:0:
256,192,45644,1,0,0:0:0:0:
256,192,45858,2,0,P|212:168|156:172,1,100.000000298023,0|0,0:0|0:0,0:0:0:0:
92,100,46287,1,8,0:0:0:0:
28,176,46501,1,0,0:0:0:0:
100,244,46715,6,0,L|100:300,2,50.0000001490115,2|0|2,0:0|0:0|0:0,0:0:0:0:
200,244,47144,2,0,L|240:284,2,50.0000001490115,8|0|2,0:0|0:0|0:0,0:0:0:0:
276,180,47572,2,0,L|324:156,2,50.0000001490115,2|0|2,0:0|0:0|0:0,0:0:0:0:
304,320,48001,6,0,B|348:288|348:288|352:268|352:268|368:288|368:288|368:268|368:268|432:216,1,200.000000596046,8|0,0:0|0:0,0:0:0:0:
444,172,48537,1,0,0:0:0:0:
440,124,48644,1,2,0:0:0:0:
348,84,48858,2,0,L|304:44,1,50.0000001490115,0|0,0:0|0:0,0:0:0:0:
256,128,49072,2,0,L|256:72,1,50.0000001490115,0|0,0:0|0:0,0:0:0:0:
164,84,49287,2,0,L|208:44,2,50.0000001490115,0|0|0,0:0|0:0|0:0,0:0:0:0:
88,148,49715,6,0,B|76:132|76:132|68:140|68:140|76:144|76:144|60:196|52:260|80:308,1,200.000000596046,8|0,0:0|0:0,0:0:0:0:
172,272,50358,1,0,0:0:0:0:
212,244,50465,1,0,0:0:0:0:
256,272,50572,1,8,0:0:0:0:
352,292,50787,2,0,P|404:312|444:296,1,100.000000298023,0|0,0:0|0:0,0:0:0:0:
443,87,51215,2,0,P|396:71|352:92,1,100.000000298023,0|8,0:0|0:0,0:0:0:0:
284,164,51644,6,0,L|240:132,1,50.0000001490115,0|0,0:0|0:0,0:0:0:0:
196,144,51858,1,0,0:0:0:0:
148,132,51965,1,0,0:0:0:0:
108,160,52072,1,0,0:0:0:0:
304,324,52287,6,0,P|252:320|224:280,1,100.000000298023,8|0,0:0|0:0,0:0:0:0:
312,236,52715,1,0,0:0:0:0:
400,192,52930,1,0,0:0:0:0:
348,108,53144,2,0,P|300:96|244:104,1,100.000000298023,8|0,0:0|0:0,0:0:0:0:
152,104,53572,5,0,0:0:0:0:
140,112,53680,1,0,0:0:0:0:
128,120,53787,1,0,0:0:0:0:
116,128,53894,1,0,0:0:0:0:
104,136,54001,1,0,0:0:0:0:
108,152,54108,1,0,0:0:0:0:
116,164,54215,1,0,0:0:0:0:
124,176,54322,1,0,0:0:0:0:
132,188,54430,1,0,0:0:0:0:
140,200,54537,1,0,0:0:0:0:
148,212,54644,1,0,0:0:0:0:
220,284,54858,6,0,P|256:324|304:324,1,100.000000298023,8|8,0:0|0:0,0:0:0:0:
292,224,55287,2,0,P|244:200|216:152,1,100.000000298023,8|0,0:0|0:0,0:0:0:0:
256,68,55715,1,8,0:0:0:0:
68,104,55930,1,8,0:0:0:0:
192,204,56144,2,0,L|224:248,2,50.0000001490115,8|0|0,0:0|0:0|0:0,0:0:0:0:
392,148,56572,6,0,L|424:192,1,50.0000001490115,8|0,0:0|0:0,0:0:0:0:
372,204,56787,2,0,L|352:252,1,50.0000001490115,0|0,0:0|0:0,0:0:0:0:
400,240,57001,2,0,L|452:260,1,50.0000001490115,0|0,0:0|0:0,0:0:0:0:
408,292,57215,1,0,0:0:0:0:
256,340,57430,5,0,0:0:0:0:
256,312,57537,1,0,0:0:0:0:
256,280,57644,1,0,0:0:0:0:
256,252,57751,1,0,0:0:0:0:
256,220,57858,1,0,0:0:0:0:
256,192,57965,1,0,0:0:0:0:
256,160,58072,1,0,0:0:0:0:
256,128,58180,1,0,0:0:0:0:
256,100,58287,1,0,0:0:0:0:
256,68,58394,1,0,0:0:0:0:
256,40,58501,1,0,0:0:0:0:
80,104,58715,6,0,L|168:48,1,100.000000298023,0|0,0:0|0:0,0:0:0:0:
368,176,59144,2,0,L|328:80,1,100.000000298023,8|0,0:0|0:0,0:0:0:0:
160,264,59572,2,0,L|256:312,3,100.000000298023,2|2|8|2,0:0|0:0|0:0|0:0,0:0:0:0:
376,120,60430,2,0,L|376:224,1,100.000000298023,0|0,0:0|0:0,0:0:0:0:
152,344,60858,2,0,L|176:240,1,100.000000298023,8|2,0:0|0:0,0:0:0:0:
280,64,61287,2,0,L|384:64,3,100.000000298023,2|0|8|0,0:0|0:0|0:0|0:0,0:0:0:0:
256,336,62144,2,0,L|280:224,1,100.000000298023,0|0,0:0|0:0,0:0:0:0:
152,104,62572,2,0,L|200:208,1,100.000000298023,8|0,0:0|0:0,0:0:0:0:
384,272,63001,6,0,L|328:184,1,100.000000298023,0|0,0:0|0:0,0:0:0:0:
112,296,63430,2,0,L|32:232,1,100.000000298023,8|0,0:0|0:0,0:0:0:0:
272,48,63858,2,0,L|312:144,2,100.000000298023,0|0|8,0:0|0:0|0:0,0:0:0:0:
128,192,64501,2,0,L|232:196,1,100.000000298023,2|2,0:0|0:0,0:0:0:0:
332,224,64930,2,0,L|424:284,1,100.000000298023,2|8,0:0|0:0,0:0:0:0:
480,148,65358,1,0,0:0:0:0:
432,32,65572,6,0,L|328:32,1,100.000000298023,0|0,0:0|0:0,0:0:0:0:
88,88,66001,2,0,L|192:88,1,100.000000298023,8|0,0:0|0:0,0:0:0:0:
272,136,66430,2,2,L|216:136,1,50.0000001490115,0|0,0:0|0:0,0:0:0:0:
336,172,66644,2,2,L|386:172,1,50.0000001490115,2|0,0:0|0:0,0:0:0:0:
272,208,66858,2,2,L|216:208,1,50.0000001490115,10|0,0:0|0:0,0:0:0:0:
336,248,67072,2,2,L|392:248,1,50.0000001490115,0|0,0:0|0:0,0:0:0:0:
348,328,67287,6,0,L|448:328,1,100.000000298023,0|0,0:0|0:0,0:0:0:0:
196,328,67715,2,0,L|96:328,1,100.000000298023,8|0,0:0|0:0,0:0:0:0:
136,248,68144,2,0,L|208:344,2,100.000000298023,0|0|8,0:0|0:0|0:0,0:0:0:0:
160,168,68787,1,0,0:0:0:0:
248,168,69001,5,0,0:0:0:0:
248,168,69108,1,0,0:0:0:0:
248,168,69215,1,0,0:0:0:0:
328,184,69430,1,8,0:0:0:0:
328,184,69537,1,0,0:0:0:0:
328,184,69644,1,0,0:0:0:0:
408,208,69858,1,0,0:0:0:0:
408,208,69965,1,0,0:0:0:0:
408,208,70072,1,0,0:0:0:0:
328,184,70287,1,8,0:0:0:0:
328,184,70394,1,0,0:0:0:0:
328,184,70501,1,0,0:0:0:0:
248,168,70715,1,8,0:0:0:0:
248,168,70822,1,0,0:0:0:0:
248,168,70930,1,0,0:0:0:0:
204,200,71144,5,8,0:0:0:0:
204,200,71251,1,0,0:0:0:0:
204,200,71358,1,0,0:0:0:0:
204,200,71465,1,0,0:0:0:0:
204,200,71572,1,8,0:0:0:0:
204,200,71680,1,0,0:0:0:0:
204,200,71787,1,0,0:0:0:0:
204,200,71894,1,0,0:0:0:0:
204,200,72001,1,8,0:0:0:0:
204,200,72108,1,0,0:0:0:0:
204,200,72215,1,8,0:0:0:0:
204,200,72430,1,8,0:0:0:0:
136,256,85715,5,8,0:0:0:0:
160,224,85822,1,0,0:0:0:0:
196,204,85930,1,0,0:0:0:0:
236,196,86037,1,0,0:0:0:0:
276,200,86144,1,8,0:0:0:0:
416,144,86572,5,8,0:0:0:0:
392,176,86679,1,0,0:0:0:0:
356,196,86787,1,0,0:0:0:0:
316,204,86894,1,0,0:0:0:0:
276,200,87001,1,8,0:0:0:0:
168,52,87430,6,0,P|132:108|100:136,1,100.000000298023,2|0,0:0|0:0,0:0:0:0:
140,276,87858,2,0,P|216:288|256:312,1,100.000000298023,0|2,0:0|0:0,0:0:0:0:
400,184,88287,2,0,P|344:176|284:192,1,100.000000298023,0|0,0:0|0:0,0:0:0:0:
301,184,88608,1,0,0:0:0:0:
301,184,88715,2,0,L|260:216,2,50.0000001490115,2|0|0,0:0|0:0|0:0,0:0:0:0:
140,60,89144,5,8,0:0:0:0:
156,96,89251,1,8,0:0:0:0:
156,136,89358,1,8,0:0:0:0:
140,172,89465,1,8,0:0:0:0:
116,204,89572,2,0,P|88:248|96:300,1,100.000000298023,8|0,0:0|0:0,0:0:0:0:
272,292,90001,2,0,P|372:280|444:204,1,200.000000596046,8|8,0:0|0:0,0:0:0:0:
120,48,90858,5,8,0:0:0:0:
200,108,91072,2,0,P|200:168|184:208,1,100.000000298023,0|8,0:0|0:0,0:0:0:0:
88,220,91501,1,0,0:0:0:0:
264,316,91715,1,8,0:0:0:0:
64,296,91930,1,0,0:0:0:0:
252,360,92144,2,0,P|312:356|356:340,1,100.000000298023,8|0,0:0|0:0,0:0:0:0:
416,156,92572,6,0,L|468:156,2,50.0000001490115,8|0|0,0:0|0:0|0:0,0:0:0:0:
384,116,92894,1,0,0:0:0:0:
384,68,93001,2,0,L|384:16,2,50.0000001490115,8|0|0,0:0|0:0|0:0,0:0:0:0:
292,108,93430,1,8,0:0:0:0:
248,80,93537,2,0,L|200:56,2,50.0000001490115,0|0|0,0:0|0:0|0:0,0:0:0:0:
248,128,93858,2,0,L|200:152,2,50.0000001490115,8|0|0,0:0|0:0|0:0,0:0:0:0:
152,92,94287,5,8,0:0:0:0:
40,192,94501,1,0,0:0:0:0:
152,92,94715,1,8,0:0:0:0:
264,192,94930,2,0,P|316:216|360:220,3,100.000000298023,0|8|0|8,0:0|0:0|0:0|0:0,0:0:0:0:
60,264,96001,5,8,0:0:0:0:
163,92,96215,1,0,0:0:0:0:
259,267,96430,1,8,0:0:0:0:
259,267,96644,1,0,0:0:0:0:
260,268,96858,1,8,0:0:0:0:
356,93,97073,1,0,0:0:0:0:
459,265,97287,1,8,0:0:0:0:
256,192,97715,12,0,99644,0:0:0:0:
136,128,99858,6,0,P|104:176|108:220,1,100.000000298023,0|0,0:0|0:0,0:0:0:0:
184,192,100287,2,0,P|184:244|152:280,1,100.000000298023,8|0,0:0|0:0,0:0:0:0:
76,264,100716,1,0,0:0:0:0:
124,328,100930,1,0,0:0:0:0:
204,328,101144,1,8,0:0:0:0:
260,268,101358,1,0,0:0:0:0:
340,260,101573,6,0,L|392:260,4,50.0000001490115,0|0|0|0|8,0:0|0:0|0:0|0:0|0:0,0:0:0:0:
392,95,102216,2,0,P|359:131|360:180,1,100.000000298023,0|0,0:0|0:0,0:0:0:0:
288,108,102644,1,0,0:0:0:0:
212,44,102858,1,8,0:0:0:0:
184,140,103073,1,0,0:0:0:0:
144,272,103287,6,0,L|248:272,1,100.000000298023,0|0,0:0|0:0,0:0:0:0:
436,212,103716,2,0,L|332:212,1,100.000000298023,8|0,0:0|0:0,0:0:0:0:
80,132,104144,2,0,L|184:132,1,100.000000298023,0|0,0:0|0:0,0:0:0:0:
372,72,104573,2,0,L|268:72,2,100.000000298023,8|0|0,0:0|0:0|0:0,0:0:0:0:
396,116,105108,5,0,0:0:0:0:
420,160,105216,1,0,0:0:0:0:
420,208,105323,1,0,0:0:0:0:
388,244,105430,1,8,0:0:0:0:
352,280,105537,1,0,0:0:0:0:
320,316,105644,2,0,L|280:276,2,50.0000001490115,0|0|0,0:0|0:0|0:0,0:0:0:0:
192,68,106073,2,0,L|232:108,2,50.0000001490115,0|0|8,0:0|0:0|0:0,0:0:0:0:
76,184,106501,6,0,B|124:220|124:220|140:216|140:216|160:236,1,100.000000298023,0|0,0:0|0:0,0:0:0:0:
176,332,106930,1,0,0:0:0:0:
296,332,107144,1,8,0:0:0:0:
364,232,107358,1,0,0:0:0:0:
308,124,107573,2,0,P|256:152|204:136,1,100.000000298023,0|0,0:0|0:0,0:0:0:0:
248,72,108001,2,0,P|288:40|344:48,1,100.000000298023,8|0,0:0|0:0,0:0:0:0:
300,148,108430,1,0,0:0:0:0:
300,256,108644,5,0,0:0:0:0:
300,108,108858,1,8,0:0:0:0:
300,300,109073,1,0,0:0:0:0:
300,60,109287,1,0,0:0:0:0:
300,340,109501,1,0,0:0:0:0:
80,308,109716,6,0,B|128:280|136:256|136:256|160:256,1,100.000000298023,8|0,0:0|0:0,0:0:0:0:
252,216,110144,1,0,0:0:0:0:
268,208,110251,1,0,0:0:0:0:
284,196,110358,1,0,0:0:0:0:
300,184,110466,1,0,0:0:0:0:
308,164,110573,1,0,0:0:0:0:
308,144,110680,1,0,0:0:0:0:
316,128,110787,1,0,0:0:0:0:
328,112,110894,1,0,0:0:0:0:
340,96,111001,1,0,0:0:0:0:
360,92,111108,1,0,0:0:0:0:
380,88,111216,1,0,0:0:0:0:
440,196,111430,6,0,L|440:248,1,50.0000001490115,8|0,0:0|0:0,0:0:0:0:
404,232,111644,2,0,L|396:288,1,50.0000001490115,0|0,0:0|0:0,0:0:0:0:
360,264,111858,2,0,L|324:304,1,50.0000001490115,0|0,0:0|0:0,0:0:0:0:
308,268,112073,2,0,L|256:284,1,50.0000001490115,0|0,0:0|0:0,0:0:0:0:
248,244,112287,2,0,L|196:240,4,50.0000001490115,8|0|0|0|0,0:0|0:0|0:0|0:0|0:0,0:0:0:0:
288,176,112930,2,0,L|324:140,1,50.0000001490115,0|0,0:0|0:0,0:0:0:0:
232,176,113144,2,0,L|200:132,2,50.0000001490115,8|0|0,0:0|0:0|0:0,0:0:0:0:
104,64,113573,6,0,B|116:116|104:172|76:208|116:264,1,200.000000596046,0|8,0:0|0:0,0:0:0:0:
192,268,114216,1,0,0:0:0:0:
400,168,114430,1,0,0:0:0:0:
200,64,114644,1,0,0:0:0:0:
72,192,114858,5,8,0:0:0:0:
116,284,115073,2,0,P|172:308|216:296,1,100.000000298023,0|0,0:0|0:0,0:0:0:0:
208,83,115501,2,0,P|159:77|116:100,1,100.000000298023,0|8,0:0|0:0,0:0:0:0:
256,192,115930,1,0,0:0:0:0:
256,192,116144,2,0,P|300:168|356:172,1,100.000000298023,0|0,0:0|0:0,0:0:0:0:
420,100,116573,1,8,0:0:0:0:
484,176,116787,1,0,0:0:0:0:
412,244,117001,6,0,L|412:300,2,50.0000001490115,2|0|2,0:0|0:0|0:0,0:0:0:0:
312,244,117430,2,0,L|272:284,2,50.0000001490115,8|0|2,0:0|0:0|0:0,0:0:0:0:
236,180,117858,2,0,L|188:156,2,50.0000001490115,2|0|2,0:0|0:0|0:0,0:0:0:0:
208,320,118287,6,0,B|164:288|164:288|160:268|160:268|144:288|144:288|144:268|144:268|80:216,1,200.000000596046,8|0,0:0|0:0,0:0:0:0:
68,172,118823,1,0,0:0:0:0:
72,124,118930,1,2,0:0:0:0:
164,84,119144,2,0,L|208:44,1,50.0000001490115,0|0,0:0|0:0,0:0:0:0:
256,128,119358,2,0,L|256:72,1,50.0000001490115,0|0,0:0|0:0,0:0:0:0:
348,84,119573,2,0,L|304:44,2,50.0000001490115,0|0|0,0:0|0:0|0:0,0:0:0:0:
424,148,120001,6,0,B|436:132|436:132|444:140|444:140|436:144|436:144|452:196|460:260|432:308,1,200.000000596046,8|0,0:0|0:0,0:0:0:0:
340,272,120644,1,0,0:0:0:0:
300,244,120751,1,0,0:0:0:0:
256,272,120858,1,8,0:0:0:0:
160,292,121073,2,0,P|108:312|68:296,1,100.000000298023,0|0,0:0|0:0,0:0:0:0:
68,87,121501,2,0,P|115:71|160:92,1,100.000000298023,0|8,0:0|0:0,0:0:0:0:
228,164,121930,6,0,L|272:132,1,50.0000001490115,0|0,0:0|0:0,0:0:0:0:
316,144,122144,1,0,0:0:0:0:
364,132,122251,1,0,0:0:0:0:
404,160,122358,1,0,0:0:0:0:
208,324,122573,6,0,P|260:320|288:280,1,100.000000298023,8|0,0:0|0:0,0:0:0:0:
200,236,123001,1,0,0:0:0:0:
112,192,123216,1,0,0:0:0:0:
164,108,123430,2,0,P|212:96|268:104,1,100.000000298023,8|0,0:0|0:0,0:0:0:0:
360,104,123858,5,0,0:0:0:0:
372,112,123966,1,0,0:0:0:0:
384,120,124073,1,0,0:0:0:0:
396,128,124180,1,0,0:0:0:0:
408,136,124287,1,0,0:0:0:0:
404,152,124394,1,0,0:0:0:0:
396,164,124501,1,0,0:0:0:0:
388,176,124608,1,0,0:0:0:0:
380,188,124716,1,0,0:0:0:0:
372,200,124823,1,0,0:0:0:0:
364,212,124930,1,0,0:0:0:0:
292,284,125144,6,0,P|256:324|208:324,1,100.000000298023,8|8,0:0|0:0,0:0:0:0:
220,224,125573,2,0,P|268:200|296:152,1,100.000000298023,8|0,0:0|0:0,0:0:0:0:
256,68,126001,1,8,0:0:0:0:
444,104,126216,1,8,0:0:0:0:
320,204,126430,2,0,L|288:248,2,50.0000001490115,8|0|0,0:0|0:0|0:0,0:0:0:0:
120,148,126858,6,0,L|88:192,1,50.0000001490115,8|0,0:0|0:0,0:0:0:0:
140,204,127073,2,0,L|160:252,1,50.0000001490115,0|0,0:0|0:0,0:0:0:0:
112,240,127287,2,0,L|60:260,1,50.0000001490115,0|0,0:0|0:0,0:0:0:0:
104,292,127501,1,0,0:0:0:0:
256,340,127716,5,0,0:0:0:0:
256,312,127823,1,0,0:0:0:0:
256,280,127930,1,0,0:0:0:0:
256,252,128037,1,0,0:0:0:0:
256,220,128144,1,0,0:0:0:0:
256,192,128251,1,0,0:0:0:0:
256,160,128358,1,0,0:0:0:0:
256,128,128466,1,0,0:0:0:0:
256,100,128573,1,0,0:0:0:0:
256,68,128680,1,0,0:0:0:0:
256,40,128787,1,0,0:0:0:0:
160,40,129001,6,0,P|96:80|72:160,1,150.000006169081,0|0,0:0|0:0,0:0:0:0:
352,344,129430,2,0,P|416:304|440:224,1,150.000006169081,8|0,0:0|0:0,0:0:0:0:
224,80,129858,2,0,P|160:120|136:200,1,150.000006169081,0|0,0:0|0:0,0:0:0:0:
295,290,130287,2,0,P|358:252|384:184,1,150.000006169081,8|0,0:0|0:0,0:0:0:0:
71,236,130715,2,0,P|97:305|160:344,1,150.000006169081,0|0,0:0|0:0,0:0:0:0:
440,147,131144,2,0,P|414:78|352:40,1,150.000006169081,8|0,0:0|0:0,0:0:0:0:
135,196,131572,2,0,P|161:265|224:304,1,150.000006169081,0|0,0:0|0:0,0:0:0:0:
383,199,132001,2,0,P|358:130|296:92,1,150.000006169081,8|0,0:0|0:0,0:0:0:0:
256,192,132430,6,0,L|152:72,1,150.000006169081,0|0,0:0|0:0,0:0:0:0:
256,192,132858,2,0,L|256:40,1,150.000006169081,8|0,0:0|0:0,0:0:0:0:
256,192,133287,2,0,L|360:72,1,150.000006169081,0|0,0:0|0:0,0:0:0:0:
256,192,133715,2,0,L|408:192,1,150.000006169081,8|0,0:0|0:0,0:0:0:0:
362,298,134144,2,0,L|256:192,1,150.000006169081,0|0,0:0|0:0,0:0:0:0:
256,342,134572,2,0,L|255:191,1,150.000006169081,8|0,0:0|0:0,0:0:0:0:
157,305,135001,2,0,L|256:191,1,150.000006169081,0|0,0:0|0:0,0:0:0:0:
105,192,135430,2,0,L|255:191,1,150.000006169081,8|0,0:0|0:0,0:0:0:0:
380,84,135858,5,0,0:0:0:0:
437,270,136072,1,0,0:0:0:0:
247,226,136287,1,8,0:0:0:0:
316,76,136501,1,0,0:0:0:0:
336,269,136715,1,0,0:0:0:0:
158,190,136930,1,0,0:0:0:0:
256,308,137144,1,8,0:0:0:0:
256,75,137358,1,0,0:0:0:0:
372,192,137572,5,0,0:0:0:0:
139,191,137787,1,0,0:0:0:0:
253,332,138001,1,8,0:0:0:0:
121,233,138215,1,0,0:0:0:0:
388,237,138430,1,0,0:0:0:0:
175,77,138644,1,0,0:0:0:0:
340,79,138858,1,8,0:0:0:0:
460,192,139072,1,0,0:0:0:0:
368,328,139287,5,0,0:0:0:0:
344,328,139394,1,0,0:0:0:0:
320,328,139501,1,0,0:0:0:0:
144,328,139715,1,8,0:0:0:0:
168,328,139822,1,0,0:0:0:0:
192,328,139929,1,0,0:0:0:0:
100,192,140144,5,0,0:0:0:0:
116,168,140251,1,0,0:0:0:0:
132,144,140358,2,0,L|288:144,1,150.000006169081,0|8,0:0|0:0,0:0:0:0:
300,120,140680,1,0,0:0:0:0:
316,96,140787,1,0,0:0:0:0:
448,192,141001,6,0,P|408:260|344:284,1,150.000006169081,8|0,0:0|0:0,0:0:0:0:
92,312,141430,2,0,P|127:247|195:220,1,150.000006169081,8|0,0:0|0:0,0:0:0:0:
256,68,141858,2,0,L|256:24,4,37.5000015422702,8|0|0|0|0,0:0|0:0|0:0|0:0|0:0,0:0:0:0:
256,68,142180,1,0,0:0:0:0:
256,68,142287,2,0,L|304:68,6,37.5000015422702,8|0|0|0|8|0|8,0:0|0:0|0:0|0:0|0:0|0:0|0:0,0:0:0:0:
400,56,156001,5,8,0:0:0:0:
420,100,156108,1,8,0:0:0:0:
436,148,156215,1,8,0:0:0:0:
424,196,156322,1,8,0:0:0:0:
408,244,156430,1,8,0:0:0:0:
104,244,156858,5,8,0:0:0:0:
88,196,156966,1,8,0:0:0:0:
76,148,157073,1,8,0:0:0:0:
92,100,157180,1,8,0:0:0:0:
112,56,157287,2,0,P|184:48|232:60,1,100.000000298023,8|0,0:0|0:0,0:0:0:0:
380,116,157715,6,0,L|432:112,2,50.0000001490115,8|0|0,0:0|0:0|0:0,0:0:0:0:
208,168,158144,2,0,P|188:224|196:284,1,100.000000298023,8|0,0:0|0:0,0:0:0:0:
272,104,158572,2,0,P|304:56|316:16,1,100.000000298023,8|0,0:0|0:0,0:0:0:0:
316,15,158894,1,0,0:0:0:0:
316,15,159001,2,0,P|336:68|368:100,1,100.000000298023,8|0,0:0|0:0,0:0:0:0:
424,268,159430,5,8,0:0:0:0:
360,304,159537,1,8,0:0:0:0:
300,260,159644,1,8,0:0:0:0:
332,192,159751,1,8,0:0:0:0:
408,192,159858,1,8,0:0:0:0:
126,209,160287,5,8,0:0:0:0:
60,164,160394,1,8,0:0:0:0:
72,84,160501,1,8,0:0:0:0:
152,68,160608,1,8,0:0:0:0:
196,136,160715,1,8,0:0:0:0:
372,60,161144,6,0,L|480:60,1,100.000000298023,8|0,0:0|0:0,0:0:0:0:
284,124,161572,2,0,L|176:124,1,100.000000298023,8|0,0:0|0:0,0:0:0:0:
184,124,161894,1,0,0:0:0:0:
184,124,162001,2,0,P|148:176|140:220,1,100.000000298023,8|0,0:0|0:0,0:0:0:0:
140,211,162322,1,0,0:0:0:0:
140,211,162430,2,0,P|148:264|128:308,1,100.000000298023,8|0,0:0|0:0,0:0:0:0:
328,308,162858,5,8,0:0:0:0:
340,300,162965,1,8,0:0:0:0:
352,292,163072,1,8,0:0:0:0:
364,284,163180,1,8,0:0:0:0:
376,276,163287,1,8,0:0:0:0:
380,76,163715,1,8,0:0:0:0:
368,84,163822,1,8,0:0:0:0:
356,92,163930,1,8,0:0:0:0:
344,100,164037,1,8,0:0:0:0:
332,108,164144,1,8,0:0:0:0:
140,56,164572,6,0,L|88:56,1,50.0000001490115,8|0,0:0|0:0,0:0:0:0:
132,148,164787,2,0,L|184:148,1,50.0000001490115
148,240,165001,2,0,L|96:240,2,50.0000001490115,8|0|0,0:0|0:0|0:0,0:0:0:0:
248,240,165322,2,0,L|304:240,1,50.0000001490115,0|8,0:0|0:0,0:0:0:0:
308,140,165537,2,0,L|240:140,2,50.0000001490115,0|0|0,0:0|0:0|0:0,0:0:0:0:
316,40,165858,2,0,P|388:72|404:124,1,100.000000298023,8|0,0:0|0:0,0:0:0:0:
424,288,166287,5,8,0:0:0:0:
380,312,166394,1,8,0:0:0:0:
332,324,166501,1,8,0:0:0:0:
284,324,166608,1,8,0:0:0:0:
236,312,166715,1,8,0:0:0:0:
96,168,167144,1,8,0:0:0:0:
128,132,167251,1,8,0:0:0:0:
160,96,167358,1,8,0:0:0:0:
208,96,167465,1,8,0:0:0:0:
256,96,167572,1,8,0:0:0:0:
256,192,168001,12,0,169715,0:0:0:0:
136,152,170144,6,0,L|204:152,1,50.0000001490115
256,224,170358,2,0,L|256:280,1,50.0000001490115
372,152,170572,2,0,L|304:152,1,50.0000001490115,0|0,0:0|0:0,0:0:0:0:
256,80,170787,2,0,L|256:24,1,50.0000001490115
356,44,171001,6,0,P|404:76|452:80,1,100.000000298023
448,280,171430,2,0,P|412:320|360:328,1,100.000000298023
168,332,171858,2,0,P|132:292|88:280,1,100.000000298023
92,80,172287,2,0,P|132:48|180:40,1,100.000000298023
380,52,172715,1,0,0:0:0:0:
460,236,172930,1,0,0:0:0:0:
320,96,173144,1,0,0:0:0:0:
240,280,173358,1,0,0:0:0:0:
64,188,173572,6,0,L|152:128,1,100.000000298023
336,196,174001,1,0,0:0:0:0:
196,248,174215,2,0,L|196:304,3,50.0000001490115,0|0|0|0,0:0|0:0|0:0|0:0,0:0:0:0:
124,300,174644,2,0,P|144:352|196:368,2,100.000000298023,0|0|0,0:0|0:0|0:0,0:0:0:0:
124,180,175287,5,0,0:0:0:0:
388,180,175501,1,0,0:0:0:0:
260,84,175715,1,0,0:0:0:0:
440,144,175930,1,0,0:0:0:0:
72,144,176144,1,0,0:0:0:0:
260,236,176358,1,0,0:0:0:0:
72,328,176572,1,0,0:0:0:0:
440,328,176787,1,0,0:0:0:0:
400,132,177001,6,0,L|400:76,1,50.0000001490115
304,56,177215,2,0,L|248:56,1,50.0000001490115
172,116,177430,2,0,L|240:132,1,50.0000001490115
144,192,177644,2,0,L|112:232,2,50.0000001490115,0|0|0,0:0|0:0|0:0,0:0:0:0:
232,244,177965,2,0,L|284:244,1,50.0000001490115
364,184,178180,2,0,L|336:136,1,50.0000001490115
440,144,178394,2,0,L|472:204,1,50.0000001490115
428,284,178608,2,0,L|384:320,1,50.0000001490115
372,332,178822,5,0,0:0:0:0:
348,340,178930,1,0,0:0:0:0:
324,340,179037,1,0,0:0:0:0:
300,332,179144,1,0,0:0:0:0:
280,316,179251,1,0,0:0:0:0:
264,300,179358,1,0,0:0:0:0:
252,280,179465,1,0,0:0:0:0:
244,256,179572,1,0,0:0:0:0:
240,232,179680,1,0,0:0:0:0:
240,208,179787,1,0,0:0:0:0:
244,184,179894,1,0,0:0:0:0:
252,160,180001,1,0,0:0:0:0:
268,140,180108,1,0,0:0:0:0:
288,124,180215,1,0,0:0:0:0:
380,88,180430,5,0,0:0:0:0:
440,280,180644,1,0,0:0:0:0:
248,336,180858,1,0,0:0:0:0:
152,160,181072,1,0,0:0:0:0:
316,44,181287,2,0,L|376:128,1,100.000000298023
224,256,181715,1,0,0:0:0:0:
196,56,181930,1,0,0:0:0:0:
428,144,182144,5,0,0:0:0:0:
264,80,182358,1,0,0:0:0:0:
208,304,182572,1,0,0:0:0:0:
416,256,182787,1,0,0:0:0:0:
140,156,183001,1,0,0:0:0:0:
336,336,183215,1,0,0:0:0:0:
444,84,183430,1,0,0:0:0:0:
256,192,183644,1,0,0:0:0:0:
160,80,183858,6,0,L|104:144,7,75.0000030845403,0|0|0|0|8|0|0|0,0:0|0:0|0:0|0:0|0:0|0:0|0:0|0:0,0:0:0:0:
110,136,184715,2,0,L|88:208,7,75.0000030845403,0|0|0|0|8|0|0|0,0:0|0:0|0:0|0:0|0:0|0:0|0:0|0:0,0:0:0:0:
88,207,185572,2,0,L|112:280,7,75.0000030845403,0|0|0|0|8|0|2|2,0:0|0:0|0:0|0:0|0:0|0:0|0:0|0:0,0:0:0:0:
111,279,186430,2,0,L|192:312,7,75.0000030845403,2|0|0|0|8|0|0|0,0:0|0:0|0:0|0:0|0:0|0:0|0:0|0:0,0:0:0:0:
181,307,187287,2,0,L|288:304,7,75.0000030845403,0|0|0|0|8|0|0|0,0:0|0:0|0:0|0:0|0:0|0:0|0:0|0:0,0:0:0:0:
256,305,188144,2,0,L|352:280,7,75.0000030845403,0|0|0|0|8|0|0|2,0:0|0:0|0:0|0:0|0:0|0:0|0:0|0:0,0:0:0:0:
328,286,189001,2,0,L|384:232,7,75.0000030845403,0|0|0|0|8|0|0|0,0:0|0:0|0:0|0:0|0:0|0:0|0:0|0:0,0:0:0:0:
382,233,189858,2,0,L|408:144,7,75.0000030845403,0|0|0|0|8|0|0|0,0:0|0:0|0:0|0:0|0:0|0:0|0:0|0:0,0:0:0:0:
402,161,190715,6,0,L|368:80,3,75.0000030845403,0|0|0|0,0:0|0:0|0:0|0:0,0:0:0:0:
373,92,191144,2,0,L|312:48,3,75.0000030845403,8|0|0|0,0:0|0:0|0:0|0:0,0:0:0:0:
312,48,191572,2,0,L|208:48,3,75.0000030845403,0|0|0|0,0:0|0:0|0:0|0:0,0:0:0:0:
237,48,192001,2,0,L|160:72,3,75.0000030845403,8|0|0|0,0:0|0:0|0:0|0:0,0:0:0:0:
166,70,192430,2,8,L|104:128,3,75.0000030845403,0|0|0|0,0:0|0:0|0:0|0:0,0:0:0:0:
111,121,192858,2,0,L|64:200,3,75.0000030845403,8|0|0|0,0:0|0:0|0:0|0:0,0:0:0:0:
72,185,193287,2,0,L|88:264,3,75.0000030845403,0|0|0|0,0:0|0:0|0:0|0:0,0:0:0:0:
87,259,193715,2,0,L|160:296,3,75.0000030845403,8|0|0|0,0:0|0:0|0:0|0:0,0:0:0:0:
153,292,194144,6,0,L|228:292,1,75.0000030845403,0|0,0:0|0:0,0:0:0:0:
228,291,194358,2,0,L|304:292,1,75.0000030845403,0|0,0:0|0:0,0:0:0:0:
303,291,194572,2,0,L|380:292,1,75.0000030845403,8|0,0:0|0:0,0:0:0:0:
378,292,194787,2,0,L|436:244,1,75.0000030845403,0|0,0:0|0:0,0:0:0:0:
436,243,195001,2,0,L|440:168,1,75.0000030845403,0|0,0:0|0:0,0:0:0:0:
439,168,195215,2,0,L|432:84,1,75.0000030845403,0|0,0:0|0:0,0:0:0:0:
432,94,195430,2,0,L|368:52,1,75.0000030845403,8|0,0:0|0:0,0:0:0:0:
370,53,195644,2,0,L|296:36,1,75.0000030845403,0|0,0:0|0:0,0:0:0:0:
297,36,195858,2,0,L|192:32,1,75.0000030845403,8|0,0:0|0:0,0:0:0:0:
222,33,196072,2,0,L|144:44,1,75.0000030845403,0|0,0:0|0:0,0:0:0:0:
147,43,196287,2,0,L|76:88,1,75.0000030845403,8|0,0:0|0:0,0:0:0:0:
84,83,196501,2,0,L|56:156,1,75.0000030845403,0|0,0:0|0:0,0:0:0:0:
57,153,196715,2,0,L|44:228,1,75.0000030845403,8|0,0:0|0:0,0:0:0:0:
44,226,196930,2,0,L|68:304,1,75.0000030845403,0|0,0:0|0:0,0:0:0:0:
66,298,197144,2,0,L|136:328,1,75.0000030845403,8|0,0:0|0:0,0:0:0:0:
135,327,197358,2,0,L|220:328,1,75.0000030845403,8|8,0:0|0:0,0:0:0:0:
352,296,197572,6,0,L|352:144,1,150.000006169081,8|0,0:0|0:0,0:0:0:0:
160,200,198001,2,0,L|8:200,1,150.000006169081,0|8,0:0|0:0,0:0:0:0:
264,40,198430,2,0,L|368:160,1,150.000006169081,8|0,0:0|0:0,0:0:0:0:
104,344,198858,2,0,L|232:240,1,150.000006169081,0|8,0:0|0:0,0:0:0:0:
384,40,199287,2,0,P|456:72|472:136,1,150.000006169081,8|0,0:0|0:0,0:0:0:0:
128,128,199715,2,0,P|56:104|40:32,1,150.000006169081,0|8,0:0|0:0,0:0:0:0:
392,320,200144,2,0,P|464:288|480:224,1,150.000006169081,8|0,0:0|0:0,0:0:0:0:
112,256,200572,2,0,P|40:280|24:352,1,150.000006169081,0|8,0:0|0:0,0:0:0:0:
368,192,201001,5,8,0:0:0:0:
472,116,201215,1,0,0:0:0:0:
360,40,201430,1,0,0:0:0:0:
256,116,201644,1,8,0:0:0:0:
152,40,201858,1,8,0:0:0:0:
40,116,202072,1,0,0:0:0:0:
144,192,202287,1,0,0:0:0:0:
256,116,202501,1,8,0:0:0:0:
256,116,202715,5,8,0:0:0:0:
144,192,202930,1,0,0:0:0:0:
40,116,203144,1,0,0:0:0:0:
152,40,203358,1,8,0:0:0:0:
256,116,203572,1,8,0:0:0:0:
368,192,203787,1,0,0:0:0:0:
472,116,204001,1,0,0:0:0:0:
360,40,204215,1,8,0:0:0:0:
208,48,204430,6,0,P|140:84|120:128,1,119.999996695518,8|0,0:0|0:0,0:0:0:0:
241,120,204858,2,0,P|224:199|176:228,1,119.999996695518,0|8,0:0|0:0,0:0:0:0:
80,192,205287,1,8,0:0:0:0:
185,297,205501,1,0,0:0:0:0:
334,297,205715,1,0,0:0:0:0:
440,190,205930,1,8,0:0:0:0:
318,84,206144,6,0,L|256:84,2,59.9999983477592,8|0|0,0:0|0:0|0:0,0:0:0:0:
233,168,206572,1,0,0:0:0:0:
318,253,206787,1,8,0:0:0:0:
200,272,207001,1,8,0:0:0:0:
115,187,207215,1,0,0:0:0:0:
176,84,207430,5,0,0:0:0:0:
176,84,207537,1,0,0:0:0:0:
176,84,207644,1,8,0:0:0:0:
295,84,207858,2,0,P|352:64|412:84,1,119.999996695518,8|0,0:0|0:0,0:0:0:0:
349,301,208287,2,0,P|367:244|352:188,1,119.999996695518,0|8,0:0|0:0,0:0:0:0:
232,192,208715,1,8,0:0:0:0:
172,192,208822,1,0,0:0:0:0:
112,192,208930,1,0,0:0:0:0:
27,107,209144,2,0,B|88:80|88:80|104:96|104:96|120:80|120:80|144:100,1,119.999996695518,0|8,0:0|0:0,0:0:0:0:
256,192,209572,12,4,211287,0:0:0:0:
356,56,225001,5,0,0:0:0:0:
344,56,225108,1,0,0:0:0:0:
332,56,225215,1,0,0:0:0:0:
320,56,225322,1,0,0:0:0:0:
308,56,225430,2,0,B|236:56|236:56|272:116|232:144|184:144,1,200.000000596046,8|0,0:0|0:0,0:0:0:0:
176,64,226072,1,0,0:0:0:0:
112,16,226287,2,0,P|88:120|184:136,1,200.000000596046,8|0,0:0|0:0,0:0:0:0:
496,192,226930,1,0,0:0:0:0:
157,236,227144,2,0,P|78:282|112:368,1,200.000000596046,8|0,0:0|0:0,0:0:0:0:
160,312,227787,6,2,B|212:312|212:312|220:292|220:292|260:284,1,100.000000298023,0|8,0:0|0:0,0:0:0:0:
312,240,228215,1,0,0:0:0:0:
376,192,228430,1,0,0:0:0:0:
316,140,228644,1,0,0:0:0:0:
380,92,228858,1,0,0:0:0:0:
316,44,229072,1,0,0:0:0:0:
248,84,229287,2,2,B|204:108|204:108|240:124|204:136|204:136|240:152|204:164|204:164|256:196,2,200.000000596046,0|10|2,0:0|0:0|0:0,0:0:0:0:
320,128,230358,2,2,P|376:128|380:168,1,100.000000298023,2|8,0:0|0:0,0:0:0:0:
382,162,230680,1,0,0:0:0:0:
382,162,230787,1,0,0:0:0:0:
382,162,230894,1,0,0:0:0:0:
382,162,231001,1,0,0:0:0:0:
382,162,231108,1,0,0:0:0:0:
382,162,231215,1,0,0:0:0:0:
436,12,231430,6,0,B|476:64|480:104|424:196,1,200.000000596046,8|0,0:0|0:0,0:0:0:0:
348,168,232072,2,0,B|376:212|376:212|340:256,1,100.000000298023,0|8,0:0|0:0,0:0:0:0:
280,200,232501,2,0,B|300:140|300:140|272:84,1,100.000000298023,0|0,0:0|0:0,0:0:0:0:
216,148,232930,1,0,0:0:0:0:
140,128,233144,1,8,0:0:0:0:
60,112,233358,1,0,0:0:0:0:
140,128,233572,1,0,0:0:0:0:
88,188,233787,1,0,0:0:0:0:
152,236,234001,2,0,L|244:188,1,100.000000298023,8|0,0:0|0:0,0:0:0:0:
240,272,234430,2,0,L|328:224,1,100.000000298023,0|0,0:0|0:0,0:0:0:0:
328,308,234858,2,0,L|416:260,1,100.000000298023,8|0,0:0|0:0,0:0:0:0:
420,176,235287,5,0,0:0:0:0:
396,144,235394,1,0,0:0:0:0:
372,112,235501,1,0,0:0:0:0:
292,108,235715,1,0,0:0:0:0:
268,140,235822,1,0,0:0:0:0:
244,172,235930,1,0,0:0:0:0:
164,172,236144,1,0,0:0:0:0:
144,136,236251,1,0,0:0:0:0:
128,104,236358,1,0,0:0:0:0:
188,52,236572,6,2,P|232:28|284:28,1,100.000000298023,8|8,0:0|0:0,0:0:0:0:
316,48,236894,1,0,0:0:0:0:
348,28,237001,1,8,0:0:0:0:
404,304,237430,6,0,P|340:304|312:348,1,100.000000298023,8|8,0:0|0:0,0:0:0:0:
256,44,237858,1,8,0:0:0:0:
192,332,238072,2,0,P|154:301|106:308,1,100.000000298023,0|8,0:0|0:0,0:0:0:0:
256,192,238715,12,0,240001,0:0:0:0:
104,112,240430,5,0,0:0:0:0:
148,88,240537,1,0,0:0:0:0:
196,72,240644,1,0,0:0:0:0:
244,68,240751,1,0,0:0:0:0:
292,76,240858,2,0,B|292:108|292:108|304:148|304:148|304:176,1,100.000000298023,8|0,0:0|0:0,0:0:0:0:
459,260,241287,2,0,B|424:260|424:260|400:256|400:256|360:256,1,100.000000298023,0|0,0:0|0:0,0:0:0:0:
280,316,241715,2,0,L|224:316,1,50.0000001490115,8|0,0:0|0:0,0:0:0:0:
112,208,242037,2,0,L|168:208,1,50.0000001490115,0|0,0:0|0:0,0:0:0:0:
240,60,242358,6,0,B|240:116|268:116|268:168,1,100.000000298023,0|8,0:0|0:0,0:0:0:0:
316,144,242680,1,0,0:0:0:0:
352,176,242787,1,0,0:0:0:0:
400,168,242894,1,0,0:0:0:0:
444,188,243001,2,0,P|460:240|460:292,1,100.000000298023,0|0,0:0|0:0,0:0:0:0:
312,320,243430,5,8,0:0:0:0:
292,320,243537,1,0,0:0:0:0:
272,320,243644,1,0,0:0:0:0:
252,320,243751,1,0,0:0:0:0:
237,305,243858,1,0,0:0:0:0:
222,290,243965,1,0,0:0:0:0:
207,275,244072,1,0,0:0:0:0:
108,252,244287,6,0,P|76:208|72:160,1,100.000000298023,8|0,0:0|0:0,0:0:0:0:
404,132,244715,2,0,P|436:176|440:224,1,100.000000298023,0|0,0:0|0:0,0:0:0:0:
360,276,245144,1,8,0:0:0:0:
360,276,245251,2,0,L|256:276,1,100.000000298023,0|0,0:0|0:0,0:0:0:0:
260,276,245572,1,0,0:0:0:0:
172,228,245787,2,0,L|120:228,1,50.0000001490115,0|0,0:0|0:0,0:0:0:0:
208,112,246108,5,0,0:0:0:0:
248,84,246215,1,0,0:0:0:0:
296,72,246322,1,0,0:0:0:0:
348,76,246430,1,0,0:0:0:0:
396,92,246537,1,0,0:0:0:0:
440,116,246644,1,8,0:0:0:0:
480,144,246751,2,0,B|480:176|480:176|464:216|464:216|464:248,1,100.000000298023,0|2,0:0|0:0,0:0:0:0:
448,288,247072,2,0,L|448:344,2,50.0000001490115,2|0|0,0:0|0:0|0:0,0:0:0:0:
348,288,247501,5,0,0:0:0:0:
333,302,247608,1,0,0:0:0:0:
318,316,247715,1,8,0:0:0:0:
256,240,247930,1,0,0:0:0:0:
236,240,248037,1,0,0:0:0:0:
216,240,248144,1,0,0:0:0:0:
176,144,248358,1,0,0:0:0:0:
176,144,248465,1,0,0:0:0:0:
256,48,248680,2,0,L|256:104,1,50.0000001490115,0|0,0:0|0:0,0:0:0:0:
304,100,248894,6,0,L|304:160,1,50.0000001490115,0|0,0:0|0:0,0:0:0:0:
352,156,249108,2,0,L|352:208,1,50.0000001490115,0|0,0:0|0:0,0:0:0:0:
352,308,249430,2,0,B|296:320|236:308|152:308,1,200.000000596046,8|0,0:0|0:0,0:0:0:0:
84,232,250072,1,0,0:0:0:0:
84,232,250180,1,0,0:0:0:0:
152,160,250394,1,0,0:0:0:0:
152,160,250501,1,0,0:0:0:0:
144,60,250715,2,0,P|192:72|240:56,1,100.000000298023,0|0,0:0|0:0,0:0:0:0:
238,56,251037,1,0,0:0:0:0:
238,56,251144,2,0,P|300:48|348:64,1,100.000000298023,8|0,0:0|0:0,0:0:0:0:
392,140,251572,5,0,0:0:0:0:
460,288,251787,1,0,0:0:0:0:
296,276,252001,1,8,0:0:0:0:
204,160,252215,5,0,0:0:0:0:
196,184,252322,1,0,0:0:0:0:
176,200,252430,1,8,0:0:0:0:
152,200,252537,1,0,0:0:0:0:
128,188,252644,1,8,0:0:0:0:
116,164,252751,1,0,0:0:0:0:
124,140,252858,1,8,0:0:0:0:
140,120,252965,1,0,0:0:0:0:
160,108,253072,2,0,P|184:96|200:56,6,50.0000001490115,0|8|0|0|8|0|8,0:0|0:0|0:0|0:0|0:0|0:0|0:0,0:0:0:0:
372,144,253930,2,0,L|320:144,1,50.0000001490115,10|2,0:0|0:0,0:0:0:0:
432,144,254144,5,0,0:0:0:0:
432,203,254251,1,0,0:0:0:0:
432,262,254358,2,0,P|380:290|320:284,1,119.999996695518,0|8,0:0|0:0,0:0:0:0:
120,248,254787,2,0,B|156:248|168:252|240:256,1,119.999996695518,0|0,0:0|0:0,0:0:0:0:
248,40,255215,2,0,L|276:160,1,119.999996695518,0|8,0:0|0:0,0:0:0:0:
340,268,255644,5,0,0:0:0:0:
340,268,255751,1,0,0:0:0:0:
340,268,255858,1,0,0:0:0:0:
340,268,255965,1,0,0:0:0:0:
340,268,256072,1,0,0:0:0:0:
340,268,256180,1,0,0:0:0:0:
340,268,256287,2,0,P|356:220|360:148,1,119.999996695518,8|0,0:0|0:0,0:0:0:0:
304,52,256715,6,0,L|240:52,1,59.9999983477592,0|0,0:0|0:0,0:0:0:0:
264,108,256930,2,0,L|208:140,1,59.9999983477592,0|0,0:0|0:0,0:0:0:0:
172,92,257144,2,0,L|144:144,1,59.9999983477592,8|0,0:0|0:0,0:0:0:0:
100,184,257358,1,0,0:0:0:0:
184,272,257572,5,0,0:0:0:0:
184,272,257680,2,0,L|304:272,1,119.999996695518,0|0,0:0|0:0,0:0:0:0:
364,264,258001,1,8,0:0:0:0:
416,232,258108,1,0,0:0:0:0:
452,184,258215,1,0,0:0:0:0:
452,124,258322,1,0,0:0:0:0:
424,72,258430,1,0,0:0:0:0:
264,48,258644,6,0,B|216:48|216:48|184:56|184:56|144:56,1,119.999996695518,0|8,0:0|0:0,0:0:0:0:
76,156,259072,1,0,0:0:0:0:
316,296,259287,1,0,0:0:0:0:
104,200,259501,1,0,0:0:0:0:
356,260,259715,1,8,0:0:0:0:
136,244,259930,1,0,0:0:0:0:
396,216,260144,1,0,0:0:0:0:
168,284,260358,1,8,0:0:0:0:
428,168,260572,1,0,0:0:0:0:
352,56,260787,6,0,L|288:56,1,59.9999983477592,8|0,0:0|0:0,0:0:0:0:
160,56,261001,2,0,L|220:56,1,59.9999983477592,0|0,0:0|0:0,0:0:0:0:
256,124,261215,2,0,L|256:184,2,59.9999983477592,0|0|8,0:0|0:0|0:0,0:0:0:0:
368,172,261644,2,0,P|376:240|360:288,1,119.999996695518,0|0,0:0|0:0,0:0:0:0:
312,324,261965,1,0,0:0:0:0:
256,348,262072,2,0,P|192:352|136:328,1,119.999996695518,0|8,0:0|0:0,0:0:0:0:
160,212,262501,5,0,0:0:0:0:
160,212,262608,1,0,0:0:0:0:
160,212,262822,1,0,0:0:0:0:
160,212,262930,2,0,B|160:148|192:148|192:92,1,119.999996695518,0|8,0:0|0:0,0:0:0:0:
300,144,263358,5,0,0:0:0:0:
300,144,263465,2,0,P|300:84|332:36,1,119.999996695518,0|0,0:0|0:0,0:0:0:0:
392,36,263787,2,0,L|452:36,4,59.9999983477592,8|8|0|8|8,0:0|0:0|0:0|0:0|0:0,0:0:0:0:
432,160,264430,6,0,L|432:224,1,59.9999983477592,0|0,0:0|0:0,0:0:0:0:
372,208,264644,2,0,L|344:264,1,59.9999983477592,0|0,0:0|0:0,0:0:0:0:
300,224,264858,2,0,L|244:252,1,59.9999983477592,8|0,0:0|0:0,0:0:0:0:
232,192,265072,1,0,0:0:0:0:
80,160,265287,6,0,L|80:224,1,59.9999983477592,0|0,0:0|0:0,0:0:0:0:
140,208,265501,2,0,L|168:264,1,59.9999983477592,0|0,0:0|0:0,0:0:0:0:
212,224,265715,2,0,L|268:252,1,59.9999983477592,8|0,0:0|0:0,0:0:0:0:
280,192,265929,1,0,0:0:0:0:
256,352,266144,6,0,L|256:232,2,119.999996695518,8|8|8,0:0|0:0|0:0,0:0:0:0:
420,72,266787,1,8,0:0:0:0:
256,156,267001,1,8,0:0:0:0:
92,72,267215,1,8,0:0:0:0:
256,156,267430,1,8,0:0:0:0:
420,72,267644,1,8,0:0:0:0:
256,336,267858,5,8,0:0:0:0:
