osu file format v7

[General]
AudioFilename: Caved.mp3
AudioLeadIn: 1000
PreviewTime: 51472
Countdown: 0
SampleSet: Soft
StackLeniency: 0.4
Mode: 0
LetterboxInBreaks: 1

[Editor]
DistanceSpacing: 1
BeatDivisor: 4
GridSize: 8

[Metadata]
Title:search&caved
Artist:sekken-ya
Creator:Mafiamaster
Version:Hard
Source:Touhou
Tags:shinxyn lybydose kytoxid djpop doomsday93 fartownik natteke desu pieguy1372 collab

[Difficulty]
HPDrainRate:5
CircleSize:4
OverallDifficulty:7
SliderMultiplier:1.2
SliderTickRate:1

[Events]
//Background and Video events
0,0,"Awesomeness.jpg"
Video,0,"Search and Caved.avi"
//Break Periods
2,11502,20522
2,72618,86230
2,113257,122338
//Storyboard Layer 0 (Background)
//Storyboard Layer 1 (Fail)
//Storyboard Layer 2 (Pass)
//Storyboard Layer 3 (Foreground)
//Storyboard Sound Samples
//Background Colour Transformations
3,100,0,0,0

[TimingPoints]
957.914423290535,323.280645161291,4,1,1,50,1,0
11302,316.280645161291,4,1,1,50,1,0
21422,327.28064516129,4,2,1,50,1,0
31904,318.88064516129,4,1,1,50,1,0
42098,315.58064516129,4,1,1,50,1,0
52196,317.980645161291,4,1,1,50,1,0
62371,313.98064516129,4,1,1,50,1,0
77459,311.980645161292,4,1,1,50,1,0
86818,-200,4,1,1,50,0,0
92460,326.28064516129,4,2,1,50,1,0
99010,326.28064516129,4,2,1,50,1,0
102936,315.972405076623,4,1,1,50,1,0
113057,318.480645161291,4,1,1,50,1,0
123238,311.480645161292,4,1,1,50,1,0
133205,315.080645161292,4,1,1,50,1,0
143287,312.980645161292,4,1,1,50,1,0

[HitObjects]
64,240,957,2,0,B|25:178|80:102,2,120,0|8|0
144,144,1927,1,8
144,208,2089,2,0,B|272:344,1,180,0|8
328,352,2735,1,0
384,336,2897,1,0
464,248,3220,6,0,B|496:304,2,60,8|0|0
408,144,3867,1,8
328,232,4190,2,0,B|256:208|264:120,1,120,0|8
288,88,4675,1,0
336,48,4837,2,0,B|280:8|208:32,1,120,0|8
112,72,5483,1,0
112,72,5807,1,8
64,184,6130,5,0
168,128,6453,1,8
280,168,6776,2,0,B|352:240|464:216,1,180,0|0
480,104,7585,2,0,B|448:40,2,60,0|8|0
504,160,8070,2,0,B|472:216|400:208,1,120,0|8
344,208,8555,1,0
288,200,8716,6,0,B|224:168|160:232,1,120,0|8
88,136,9363,2,0,B|56:200|120:264,1,120,8|8
168,144,10009,2,0,B|232:176|296:112,1,120,8|8
376,56,10656,1,0
488,88,10979,1,8
456,208,11302,1,4
48,336,21422,5,4
160,288,21749,1,8
160,232,21912,1,0
160,176,22076,2,0,B|224:144|288:184,1,120,0|8
328,192,22567,2,0,B|320:264|384:296,2,120,0|0|0
328,136,23385,5,0
448,104,23712,1,0
416,56,23876,1,0
368,24,24040,2,0,B|296:8|256:56,1,120,8|0
160,112,24694,2,0,B|224:128,2,60,8|0|0
104,104,25185,2,0,B|48:168|128:224,2,120,0|0|0
120,48,26003,5,0
120,48,26331,1,0
240,24,26658,2,0,B|264:144,1,120,8|0
352,56,27313,2,0,B|376:176,1,120,8|0
384,232,27803,2,0,B|400:296|336:336,1,120,0|0
256,248,28458,6,0,B|256:320,2,60,0|0|0
256,192,28949,1,0
256,136,29113,1,0
256,80,29276,2,0,B|184:72|144:144,1,120,8|0
112,168,29767,1,0
80,216,29931,2,0,B|104:272|176:280,1,120,8|0
232,280,30422,2,0,B|256:224|328:216,1,120,0|0
448,216,31076,2,0,B|448:352,2,120,0|0|0
448,152,31904,6,0,B|440:88|368:72,1,120,4|8
256,40,32541,2,0,L|296:112,2,60,0|0|8
160,112,33179,2,0,B|160:176|160:248,1,120,0|8
232,336,33817,1,0
280,296,33976,1,0
328,256,34136,1,8
416,176,34455,5,0
472,280,34773,1,8
376,360,35092,1,0
328,328,35252,1,0
280,296,35411,1,8
376,224,35730,1,0
312,120,36049,1,8
256,120,36208,6,0,B|192:120|160:192,1,120
93,277,36846,1,0
93,277,37006,2,0,B|157:245|165:173,1,120,0|8
184,80,37643,2,0,L|104:80,2,60
304,80,38281,5,0
424,96,38600,1,8
384,208,38919,2,0,B|400:272,2,60,0|0|8
360,88,39557,2,0,B|248:168,1,120,0|8
160,224,40194,5,0
160,224,40354,1,0
160,224,40513,1,8
160,224,40673,1,0
160,224,40832,6,0,B|192:288|264:288,1,120,0|8
312,296,41310,1,0
368,288,41470,1,0
368,288,41629,1,0
368,288,41789,1,8
368,288,41948,1,0
368,288,42098,6,0,B|424:176,1,120,4|8
360,200,42571,2,0,B|384:64,1,120,0|0
328,112,43044,1,0
288,224,43360,2,0,B|200:336|160:152|72:288,2,240
344,120,44938,5,8
320,64,45096,2,0,B|200:120,1,120
160,136,45569,1,8
56,200,45884,2,0,B|152:312|168:128|272:264,2,240
32,80,47462,5,8
88,56,47620,2,0,B|200:128,1,120
248,96,48094,2,0,L|320:64,1,60,8|0
360,48,48409,2,0,B|496:80|448:240,1,240
424,352,49356,5,8
304,328,49671,1,0
408,272,49987,1,8
288,248,50303,2,0,B|240:216|160:240,1,120
112,256,50776,1,0
96,152,51092,5,0
120,48,51407,1,0
168,32,51565,5,0
168,32,51723,1,0
168,32,51881,1,0
168,32,52038,1,0
168,32,52196,2,0,B|232:0|296:24,1,120,4|8
400,32,52831,2,0,B|384:128|264:160,1,180,0|4
168,184,53626,1,0
168,184,53785,1,8
112,160,53944,1,0
80,112,54103,1,0
48,224,54421,5,8
64,280,54580,1,0
112,312,54739,2,0,B|152:264|240:264,1,120,0|8
336,272,55375,1,0
392,280,55534,1,0
448,272,55693,1,8
480,232,55852,1,0
488,176,56011,2,0,B|488:96|408:80,1,120,0|8
312,40,56647,2,0,B|232:40|216:120,1,120,0|8
328,160,57283,5,0
232,232,57601,1,8
112,232,57919,2,0,B|80:136|176:80,1,180,0|4
256,168,58714,2,0,B|312:224,2,60,0|8|0
216,120,59191,2,0,B|272:72|352:96,1,120,0|8
384,96,59668,5,0
416,144,59827,1,0
344,248,60145,1,8
448,304,60463,1,0
344,248,60781,1,8
232,280,61099,1,4
24,168,61735,5,0
24,168,61894,1,0
24,168,62053,1,8
80,160,62212,1,0
128,136,62371,2,0,B|240:72,1,120,4|8
352,112,62998,2,0,B|184:208,1,180,0|4
88,256,63783,2,0,B|56:192,2,60,0|8|0
112,312,64254,2,0,B|168:344|232:320,1,120,0|8
288,312,64725,5,0
344,288,64882,1,0
448,344,65196,2,0,B|504:296|480:208,1,120,8|0
480,176,65667,1,0
440,136,65824,2,0,B|368:176,2,60,8|0|0
344,64,66452,1,8
224,88,66766,1,0
320,152,67080,1,8
200,176,67394,5,4
104,112,67708,1,8
32,208,68022,1,0
168,328,68493,2,0,B|272:248,1,120,4|0
312,224,68964,2,0,B|368:280,2,60,8|0|0
224,144,69592,5,8
264,104,69749,1,0
320,96,69906,2,0,B|448:120,1,120,0|8
336,184,70534,2,0,B|456:240,1,120,8|8
336,280,71162,2,0,B|440:368,1,120,8|8
304,368,71790,1,0
200,336,72104,1,0
152,240,72418,1,4
48,152,87130,6,0,B|240:168,1,180,4|0
200,224,88378,2,0,B|376:312,1,180,8|0
360,368,89626,2,0,B|448:184,1,180,4|0
504,168,90874,2,0,B|504:352,1,180,8|0
448,360,92122,1,0
384,360,92460,5,4
256,128,93112,1,0
104,312,93765,1,2
56,72,94417,5,0
80,192,94743,1,0
104,312,95070,1,2
288,152,95722,1,0
448,328,96375,1,2
480,88,97027,5,0
400,184,97354,1,0
288,152,97680,1,2
88,280,98333,1,0
56,72,99010,1,2
296,32,99662,5,0
376,120,99988,1,0
368,240,100315,1,2
144,240,100967,1,0
136,120,101293,1,0
216,32,101619,1,2
256,272,102272,6,0,B|240:312|240:312|280:312|280:312|248:352,1,120,0|0
392,344,102936,6,0,B|456:336|472:264,1,120,4|8
488,144,103567,1,0
440,104,103725,1,0
392,64,103883,1,8
280,32,104199,2,0,B|280:96|352:144,1,120,0|8
432,200,104831,1,0
384,240,104989,1,0
336,280,105147,1,8
232,336,105463,5,0
152,248,105779,1,8
72,160,106095,1,0
120,128,106253,1,0
168,96,106411,1,8
240,192,106727,1,0
344,128,107043,1,8
400,232,107359,2,0,B|464:184,2,60,0|0|8
288,272,107991,6,0,B|216:256|216:168,1,120,0|8
208,64,108623,1,0
264,64,108781,1,0
320,64,108939,1,8
432,64,109255,1,0
496,152,109571,1,8
384,208,109887,2,0,B|400:272,2,60,0|0|8
360,88,110519,6,0,B|248:168,1,120,0|8
160,224,111151,1,0
160,224,111309,1,0
160,224,111467,1,8
160,224,111625,2,0,B|208:312|320:280,1,180,0|8
368,264,112257,5,0
416,232,112415,1,0
416,232,112573,1,0
416,232,112731,1,0
416,232,112889,1,0
416,232,113057,1,4
344,352,123238,6,0,B|280:384|216:360,1,120,4|8
112,352,123860,2,0,B|128:256|248:224,1,180,0|4
344,200,124639,1,0
344,200,124795,2,0,B|440:288,1,120,8|0
464,160,125418,5,8
448,104,125574,1,0
400,72,125729,2,0,B|360:120|272:120,1,120,4|8
168,120,126352,1,0
120,88,126508,1,0
64,112,126664,1,8
24,160,126820,1,0
24,216,126975,2,0,B|24:296|104:312,1,120,0|8
200,344,127598,2,0,B|280:344|296:264,1,120,0|8
184,224,128221,5,0
280,152,128533,1,8
400,152,128844,2,0,B|432:248|336:304,1,180,0|4
256,216,129623,2,0,B|200:160,2,60,0|8|0
296,264,130090,2,0,B|240:312|160:288,1,120,0|8
120,288,130557,5,0
96,232,130713,1,0
168,136,131025,1,8
64,80,131336,1,0
168,136,131647,1,8
280,104,131959,1,0
480,200,132582,5,0
480,200,132738,1,0
480,200,132893,1,0
432,232,133049,1,0
384,264,133205,6,0,B|272:328,1,120,4|8
160,272,133835,2,0,B|328:176,1,180,0|4
424,128,134622,2,0,B|456:192,2,60,0|8|0
400,72,135095,2,0,B|344:40|280:64,1,120,0|8
224,72,135568,5,0
168,96,135725,1,0
64,40,136040,2,0,B|8:88|32:176,1,120,8|0
32,208,136513,1,0
72,248,136670,2,0,B|144:208,2,60,8|0|0
168,320,137301,1,8
288,296,137616,1,0
192,232,137931,1,8
312,208,138246,5,4
408,272,138561,1,8
480,176,138876,1,0
344,56,139349,2,0,B|240:136,1,120,4|0
200,160,139821,2,0,B|144:104,2,60,8|0|0
288,240,140451,5,8
248,280,140609,1,0
192,288,140766,2,0,B|64:264,1,120,0|8
176,200,141397,2,0,B|56:144,1,120,8|8
176,104,142027,2,0,B|72:16,1,120,8|8
208,16,142657,5,8
264,128,142972,1,8
376,88,143287,1,4
