osu file format v9

[General]
AudioFilename: Sumidagawa Karenka.mp3
AudioLeadIn: 1004
PreviewTime: 120902
Countdown: 0
SampleSet: Normal
StackLeniency: 0.6
Mode: 0
LetterboxInBreaks: 1

[Editor]
DistanceSpacing: 1
BeatDivisor: 4
GridSize: 8

[Metadata]
Title:Sumidagawa Karenka
Artist:seiya-murai feat.ALT
Creator:m i z u k i
Version:BASIC
Source:jubeat ripples
Tags:yuzuki Sharp gowww mizuki

[Difficulty]
HPDrainRate:2
CircleSize:3
OverallDifficulty:2
ApproachRate:2
SliderMultiplier:0.999999999999999
SliderTickRate:1

[Events]
//Background and Video events
0,0,"bggg.jpg"
//Break Periods
2,16269,23509
2,69603,77176
2,144269,151842
//Storyboard Layer 0 (Background)
//Storyboard Layer 1 (Fail)
//Storyboard Layer 2 (Pass)
//Storyboard Layer 3 (Foreground)
//Storyboard Sound Samples
//Background Colour Transformations
3,100,163,162,255

[TimingPoints]
1403,333.333333333333,4,1,1,80,1,0
46402,-100,4,1,1,80,0,1
56736,-100,4,1,1,80,0,0
57069,-100,4,1,1,80,0,1
69402,-100,4,1,1,80,0,0
121069,-100,4,1,1,80,0,1
131402,-100,4,1,1,80,0,0
131736,-100,4,1,1,80,0,1
144069,-100,4,1,1,80,0,0
163736,-100,4,1,1,80,0,1
174069,-100,4,1,1,80,0,0
174402,-100,4,1,1,80,0,1
184736,-100,4,1,1,80,0,0
185069,-100,4,1,1,80,0,1
185152,-100,4,1,1,80,0,0
209402,-100,4,2,1,80,0,0

[Colours]
Combo1 : 255,77,77
Combo2 : 255,148,40
Combo3 : 255,134,198
Combo4 : 121,227,64

[HitObjects]
256,40,2736,1,4
256,192,3236,1,4
256,344,3736,1,0
256,344,4069,6,0,B|376:336|408:208,1,200,6|0
376,32,5402,2,0,B|264:48|240:176,1,200
232,264,6402,1,2
136,240,6736,6,0,B|88:136|144:32,1,200,2|0
328,104,8069,2,0,B|384:208|320:312,1,200
240,336,9069,1,2
152,296,9402,6,0,B|112:208|0:168,1,200,2|0
200,144,10736,2,0,B|256:232|376:256,1,200
456,232,11736,1,2
424,136,12069,6,0,B|368:48|248:24,2,200,2|0|0
456,232,13736,1,2
384,296,14069,2,0,B|280:296,1,99.9999999999999,2|0
256,192,14736,12,4,16069
72,192,25069,5,0
72,192,25402,2,0,B|128:176|208:248|296:208,1,200,6|0
456,144,26736,2,0,B|480:192|456:264,2,99.9999999999999
256,104,28069,6,0,B|200:72|104:144|48:104,1,200,2|0
216,240,29402,2,0,B|264:240|264:240|320:240,2,99.9999999999999
264,152,30402,5,2
264,152,30736,2,0,B|360:120|488:160,1,200,2|0
368,328,32069,2,0,B|368:216,2,99.9999999999999
168,336,33402,6,0,B|208:232|160:120,1,200,2|0
336,32,34736,2,0,B|296:128|360:256,1,200
408,304,35736,1,0
256,192,36069,12,4,37402
56,192,38069,5,0
152,192,38402,1,0
256,192,38736,1,2
256,192,39069,1,2
200,280,39402,2,0,B|280:336|432:256|496:296,1,300,2|0
480,192,40736,5,2
416,120,41069,1,2
320,104,41403,2,0,B|208:80|112:160,1,200,2|0
72,336,42736,2,0,B|176:360|296:272,1,200
336,224,43736,1,0
256,160,44069,6,0,B|256:40,1,99.9999999999999,2|0
160,88,44736,2,0,B|160:208,1,99.9999999999999,2|0
256,192,45403,12,4,46736
256,88,47403,6,0,B|368:104|440:216,1,200,2|0
256,296,48736,2,0,B|144:280|72:168,1,200,2|0
256,80,50069,1,2
256,80,50403,1,2
256,80,50736,2,0,B|224:144|304:240|248:320,1,200,2|2
344,336,51736,5,2
344,336,52069,2,0,B|416:264|416:136,1,200,2|0
256,40,53403,2,0,B|184:112|168:256,1,200,2|0
160,320,54403,1,0
264,320,54736,6,0,B|264:216,1,99.9999999999999,2|0
352,168,55403,2,0,B|352:288,1,99.9999999999999,2|0
256,192,56069,12,4,57403
232,192,58069,5,2
152,256,58403,1,2
232,312,58736,2,0,B|360:312,1,99.9999999999999,2|0
384,224,59403,2,0,B|272:224,1,99.9999999999999
184,224,60069,6,0,B|136:128|192:24,1,200,2|0
368,120,61403,2,0,B|424:216|360:328,1,200,2|0
272,336,62403,1,0
176,312,62736,6,0,B|88:264,1,99.9999999999999,2|0
88,168,63403,2,0,B|208:232,1,99.9999999999999
248,144,64069,2,0,B|344:64,1,99.9999999999999,2|0
416,120,64736,2,0,B|336:184,1,99.9999999999999
352,280,65403,6,0,B|256:328|152:280,1,200,2|2
160,80,66736,2,0,B|256:32|360:88,1,200,2|2
416,160,67736,1,2
256,192,68069,12,0,69403
96,256,78736,6,0,B|192:312|312:312,1,200,6|0
480,272,80069,2,0,B|400:216|272:216,2,200,0|0|2
480,272,82069,1,2
368,104,82736,2,0,B|496:104,2,99.9999999999999
272,72,83736,5,2
272,72,84069,2,0,B|160:112|128:240,1,200,2|0
280,352,85402,2,0,B|376:312|416:192,1,200,0|0
368,120,86402,1,2
288,176,86736,6,0,B|176:176,1,99.9999999999999,2|0
144,264,87402,2,0,B|272:264,1,99.9999999999999,2|0
288,352,88069,2,0,B|176:352,2,99.9999999999999,2|0|0
392,352,89069,1,2
256,192,89402,12,4,90736
368,136,91402,5,2
416,224,91736,1,2
368,312,92069,2,0,B|160:312,1,200,2|0
88,128,93402,2,0,B|304:128,1,200
392,128,94402,1,0
256,192,94736,12,4,96069
176,64,96736,5,0
112,144,97069,1,0
128,240,97402,2,0,B|160:336|304:352,1,200,6|0
368,304,98402,1,0
376,208,98736,2,0,B|424:216|456:264,2,99.9999999999999
280,200,99736,5,2
280,200,100069,2,0,B|184:160|160:40,1,200,2|0
40,208,101402,2,0,B|128:264|176:368,1,200
264,336,102402,1,2
224,248,102736,6,0,B|240:144|320:64,1,200,2|0
480,184,104069,2,0,B|456:288|376:360,1,200
280,352,105069,5,2
280,352,105402,2,0,B|178:349|72:267,1,200,2|0
183,103,106736,2,0,B|294:100|398:189,1,200
360,264,107736,1,2
280,328,108069,6,0,B|176:328,1,99.9999999999999,2|0
128,240,108736,2,0,B|256:240,1,99.9999999999999,2|0
280,152,109402,2,0,B|144:152,2,99.9999999999999,2|0|0
384,152,110402,1,2
256,192,110736,12,4,112069
280,256,112736,5,0
360,312,113069,1,0
424,232,113402,2,0,B|440:120|328:40,1,200,2|0
152,88,114736,2,0,B|160:144|208:208,1,99.9999999999999
240,264,115402,1,2
224,360,115736,1,2
256,192,116069,12,4,117402
256,224,118069,5,0
256,128,118402,1,0
256,24,118736,2,0,B|360:40,1,99.9999999999999,6|0
352,136,119402,2,0,B|432:200,1,99.9999999999999,2|0
352,264,120069,2,0,B|392:368,2,99.9999999999999,2|0|2
264,224,121069,5,0
176,184,121402,2,0,B|64:184,1,99.9999999999999,6|0
112,88,122069,2,0,B|232:88,1,99.9999999999999
312,56,122736,2,0,B|376:144|320:272,1,200,2|0
264,320,123736,1,0
168,296,124069,6,0,B|192:192|128:104,1,200,2|0
328,80,125402,2,0,B|312:192|376:280,1,200,2|0
456,328,126402,1,2
456,224,126736,6,0,B|456:112,1,99.9999999999999,2|0
368,80,127402,2,0,B|368:192,1,99.9999999999999,2|0
280,224,128069,2,0,B|280:112,3,99.9999999999999,2|0|2|0
256,24,129402,6,0,B|152:64|144:184,1,200,6|0
256,344,130736,2,0,B|360:304|368:184,1,200,2|0
376,88,131736,5,0
376,88,132069,2,0,B|320:64|248:96,2,99.9999999999999,2|0|0
208,200,133402,2,0,B|256:224|320:200,2,99.9999999999999,2|0|0
8,192,134736,6,0,B|40:304|176:352,1,200,2|0
320,248,136069,2,0,B|280:152|176:104,1,200,2|2
264,48,137069,1,2
360,48,137402,6,0,B|472:80,1,99.9999999999999,6|0
480,168,138069,2,0,B|368:136,1,99.9999999999999
288,112,138736,2,0,B|256:168|312:240,1,99.9999999999999,2|0
192,224,139402,2,0,B|216:280|184:336,1,99.9999999999999
104,272,140069,6,0,B|48:168|112:48,1,200,2|0
288,144,141402,2,0,B|344:248|280:376,1,200,2|2
200,336,142402,1,2
256,192,142736,12,4,144069
256,192,153402,5,4
128,40,154069,1,0
136,240,154736,2,0,B|32:192,1,99.9999999999999,2|0
32,296,155402,2,0,B|136:344,1,99.9999999999999,2|0
224,336,156069,6,0,B|336:320|384:224,1,200,6|0
288,48,157402,2,0,B|176:64|128:160,1,200,2|0
216,208,158402,1,2
232,304,158736,6,0,B|192:328|136:320,1,99.9999999999999,2|0
48,272,159402,2,0,B|16:232|24:176,1,99.9999999999999
120,192,160069,2,0,B|160:224|216:216,2,99.9999999999999,2|0|0
48,120,161069,1,2
112,48,161402,6,0,B|216:24,1,99.9999999999999,6|0
272,104,162069,2,0,B|168:128,1,99.9999999999999,6|0
240,208,162736,2,0,B|344:184,1,99.9999999999999,6|2
360,88,163402,1,2
456,112,163736,5,0
424,208,164069,2,0,B|400:256|320:296,1,99.9999999999999,6|0
256,296,164736,2,0,B|144:280|72:168,1,200,2|0
256,88,166069,2,0,B|368:104|440:216,1,200,2|0
256,304,167403,1,2
256,304,167736,1,2
256,304,168069,2,0,B|288:240|208:144|264:64,1,200,2|2
168,48,169069,5,2
168,48,169403,2,0,B|96:120|96:248,1,200,2|0
256,344,170736,2,0,B|328:272|344:128,1,200,2|0
352,64,171736,1,0
248,64,172069,6,0,B|248:168,1,99.9999999999999,2|0
160,216,172736,2,0,B|160:96,1,99.9999999999999,2|0
256,192,173403,12,4,174736
280,200,175403,5,2
352,136,175736,1,2
280,72,176069,2,0,B|152:72,1,99.9999999999999,2|0
128,160,176736,2,0,B|240:160,1,99.9999999999999
328,160,177403,6,0,B|376:256|320:360,1,200,2|0
144,264,178736,2,0,B|88:168|152:56,1,200,2|0
240,48,179736,1,0
336,72,180069,6,0,B|424:120,1,99.9999999999999,2|0
424,216,180736,2,0,B|320:152,1,99.9999999999999
264,232,181403,2,0,B|168:312,1,99.9999999999999,2|0
96,264,182069,2,0,B|176:200,1,99.9999999999999
160,104,182736,6,0,B|256:56|360:104,1,200,2|2
352,304,184069,2,0,B|256:352|152:296,1,200,2|2
96,224,185069,1,2
96,128,185403,6,0,B|96:8,1,99.9999999999999,6|0
184,72,186069,2,0,B|184:200,1,99.9999999999999
272,216,186736,2,0,B|272:96|272:96,2,99.9999999999999,2|0|0
360,176,187736,1,0
456,136,188069,6,0,B|464:248|376:336,1,200,2|0
192,288,189403,2,0,B|192:176|136:88,1,200,2|0
64,40,190403,1,2
64,144,190736,6,0,B|64:256,1,99.9999999999999,2|0
152,288,191403,2,0,B|152:176,1,99.9999999999999,2|0
240,144,192069,2,0,B|240:256,3,99.9999999999999,2|0|2|0
264,344,193403,6,0,B|368:304|376:184,1,200,6|0
264,24,194736,2,0,B|160:64|152:184,1,200,2|0
144,280,195736,5,0
144,280,196069,2,0,B|200:304|272:272,2,99.9999999999999,2|0|0
312,168,197403,2,0,B|264:144|200:168,2,99.9999999999999,2|0|0
512,176,198736,6,0,B|480:64|344:16,1,200,2|0
200,120,200069,2,0,B|232:216|344:264,1,200,2|2
256,320,201069,1,2
160,320,201403,6,0,B|48:288,1,99.9999999999999,6|0
40,200,202069,2,0,B|152:232,1,99.9999999999999
232,256,202736,2,0,B|264:200|208:128,1,99.9999999999999,2|0
328,144,203403,2,0,B|304:88|336:32,1,99.9999999999999
416,96,204069,6,0,B|472:200|408:320,1,200,2|0
232,224,205403,2,0,B|176:120|240:-8,1,200,2|2
320,32,206403,1,2
320,136,206736,6,0,B|320:240,1,99.9999999999999,2|0
280,328,207403,2,0,B|224:328|176:272,1,99.9999999999999
96,320,208069,2,0,B|56:224|56:224|80:128,1,200,2|2
112,40,209069,1,2
208,40,209403,6,0,B|312:64|376:176,1,200,2|0
304,344,210736,2,0,B|200:320|136:208,1,200,2|2
104,136,211736,1,2
