osu file format v9

[General]
AudioFilename: seiya-murai feat.ALT - Sumidagawa Karenka.mp3
AudioLeadIn: 982
PreviewTime: 46499
Countdown: 0
SampleSet: Soft
StackLeniency: 0.3
Mode: 0
LetterboxInBreaks: 1

[Editor]
Bookmarks: 26832,27165,27332,27665,27832,27999,28165,28499,28665,29165,29332,29499,29832,30082,78499
DistanceSpacing: 0.8
BeatDivisor: 4
GridSize: 8

[Metadata]
Title:Sumidagawa Karenka
Artist:seiya-murai feat.ALT
Creator:kiddly
Version:Standard
Source:Jubeat Ripple
Tags:ignorethis

[Difficulty]
HPDrainRate:2
CircleSize:4
OverallDifficulty:4
ApproachRate:5
SliderMultiplier:1
SliderTickRate:1

[Events]
//Background and Video events
0,0,"1076952.jpg"
//Break Periods
2,69752,75019
//Storyboard Layer 0 (Background)
//Storyboard Layer 1 (Fail)
//Storyboard Layer 2 (Pass)
//Storyboard Layer 3 (Foreground)
//Storyboard Sound Samples
//Background Colour Transformations
3,100,163,162,255

[TimingPoints]
1564,337.078651685393,4,2,1,100,1,0
2886,333.333333333333,4,1,1,80,1,0
20052,-100,4,2,1,100,0,0
21885,-100,4,1,1,80,0,0
46885,-76.9230769230769,4,1,1,80,0,1
65385,-100,4,2,0,100,0,1
69552,-76.9230769230769,4,1,1,80,0,0
78885,-76.9230769230769,4,1,1,80,0,1
102885,-76.9230769230769,4,1,1,80,0,0
104219,-76.9230769230769,4,2,0,100,0,0
106719,-76.9230769230769,4,1,1,80,0,0
107219,-76.9230769230769,4,2,0,100,0,0
107385,-76.9230769230769,4,1,0,80,0,0
107885,-76.9230769230769,4,2,0,100,0,0
108219,-76.9230769230769,4,1,0,80,0,0
108302,-76.9230769230769,4,2,1,80,0,0
109385,-76.9230769230769,4,2,1,60,0,0
110052,-76.9230769230769,4,2,1,40,0,0
110385,-76.9230769230769,4,2,1,20,0,0

[Colours]
Combo1 : 255,128,255
Combo2 : 157,240,4
Combo3 : 32,170,244
Combo4 : 235,132,75

[HitObjects]
40,32,1564,5,2
32,152,2069,1,2
136,96,2575,1,2
68,92,2886,5,4
176,32,3385,1,4
216,144,3885,1,0
216,144,4052,1,0
216,144,4219,6,0,B|240:264|368:240,1,200
352,80,5552,2,0,B|440:112|416:208,1,150
392,232,6219,2,0,B|336:256|360:320,1,100
288,344,6885,1,0
128,344,7552,1,0
232,224,8219,5,0
272,160,8552,1,0
200,120,8885,1,0
160,184,9219,6,0,B|104:168,2,50
136,344,10219,2,0,B|48:312|72:216,1,150
96,192,10886,2,0,B|168:128|112:56,2,150
64,120,12219,5,0
208,48,12886,1,0
184,208,13552,1,0
240,264,13886,2,0,B|248:320,2,50
296,208,14552,6,0,B|304:152,2,50,0|0|2
368,248,15219,2,0,B|416:208|456:256,1,100,0|2
464,336,15886,1,2
384,320,16219,2,0,B|176:344,2,200
280,256,18052,2,0,B|288:192,1,50
296,128,18552,1,0
296,128,18886,2,0,B|200:120|160:168|192:264,1,200
200,328,19885,1,0
186,244,20219,5,2
64,144,20885,1,2
208,72,21552,1,2
248,224,22219,6,0,B|280:208|280:208|264:136,1,100
288,64,22885,2,0,B|400:88,1,100,2|2
360,160,23552,2,0,B|472:184,1,100,2|0
504,248,24219,2,0,B|518:276|494:292,4,50,0|2|0|2|0
368,336,25552,6,0,B|328:200|208:288,1,200,4|0
72,336,26885,2,0,B|-16:304|24:208,1,150
56,192,27552,2,0,B|88:80,1,100
152,56,28219,1,0
312,56,28885,1,0
168,136,29552,6,0,B|136:160|136:160|160:224,1,100
184,288,30219,1,0
264,288,30552,6,0,B|320:304,2,50
120,216,31552,2,0,B|184:144|248:216,1,150
288,200,32219,2,0,B|336:240|376:200,1,100
456,184,32885,1,0
456,184,33552,5,0
360,312,34219,1,0
272,176,34885,1,0
320,112,35219,2,0,B|312:56,2,50
272,176,35885,6,2,B|264:232,2,50,0|0|2
192,176,36552,2,0,B|144:216|104:168,1,100,2|0
80,96,37219,1,2
160,104,37552,2,0,B|368:80,2,200,2|0|0
248,184,39385,2,0,B|240:248,1,50
232,312,39886,1,0
304,280,40219,2,0,B|400:288|440:240|408:144,1,200
400,80,41219,1,0
256,192,41552,12,0,42886
288,152,43552,6,0,B|256:168|256:168|272:240,1,100
352,232,44219,2,0,B|376:120,1,100,2|0
320,72,44886,2,0,B|208:48,1,100,2|0
144,64,45552,2,0,B|120:79|134:107,4,50,8|8|0|0|8
72,256,46886,6,0,B|24:304|48:376,1,129.999997675419,4|0
128,312,47552,6,0,B|193:329|243:272,1,129.999997675419,0|0
152,232,48219,6,0,B|134:166|60:151,1,129.999997675419,0|0
80,48,48886,6,0,B|216:32,1,129.999997675419
312,56,49552,1,4
480,176,50219,1,0
288,248,50886,1,0
184,136,51386,2,0,B|152:152|152:104,2,32.4999994188547
96,192,51886,1,0
152,280,52219,6,0,B|144:344|144:344|200:288,1,129.999997675419
288,264,52886,6,0,B|352:272|352:272|296:216,1,129.999997675419
264,128,53552,6,0,B|272:64|272:64|216:120,1,129.999997675419
128,144,54219,6,0,B|64:136|64:136|120:192,1,129.999997675419
208,216,54886,5,4
296,160,55219,1,0
344,248,55552,1,4
256,304,55886,1,0
304,208,56219,6,0,B|360:184|372:183|456:192,1,129.999997675419,4|0
464,88,56886,2,0,B|416:24|406:31|336:48,1,129.999997675419,4|0
272,112,57552,6,0,B|320:160|296:232,1,129.999997675419,4|0
216,168,58219,6,0,B|151:185|101:128,1,129.999997675419
192,88,58886,6,0,B|210:22|284:7,1,129.999997675419
312,104,59552,6,0,B|304:248,1,129.999997675419
240,312,60219,6,0,B|192:384,2,64.9999988377094,0|0|8
159,265,60886,2,0,B|74:282,2,64.9999988377094,0|0|8
136,176,61552,2,0,B|64:128,2,64.9999988377094,8|0|8
182,95,62219,2,0,B|165:10,2,64.9999988377094
192,200,62886,6,0,B|141:239|141:239|220:239,1,129.999997675419
299,284,63552,6,0,B|338:334|338:334|338:255,1,129.999997675419
378,171,64219,6,0,B|428:131|428:131|349:131,1,129.999997675419
271,86,64886,6,0,B|231:35|231:35|231:114,1,129.999997675419
272,192,65552,5,4
88,288,66219,1,4
96,80,66886,1,4
272,192,67552,5,2
360,232,67886,1,2
352,128,68219,1,2
256,192,68302,12,4,69552
360,192,76219,5,4
152,192,76886,1,4
256,368,77552,1,4
308,280,77886,1,4
204,280,78219,1,4
368,184,78885,6,0,B|392:264|392:264|416:216,1,129.999997675419
456,128,79552,6,0,B|513:67|513:67|459:70,1,129.999997675419
360,72,80219,6,0,B|278:52|278:52|308:97,1,129.999997675419
264,184,80885,6,0,B|240:256|160:232,1,129.999997675419
88,160,81552,6,0,B|104:32,1,129.999997675419,2|0
192,88,82219,2,0,B|208:216,1,129.999997675419,2|0
296,160,82885,2,0,B|312:32,2,129.999997675419,2|0|2
392,192,83885,1,0
448,104,84219,6,0,B|400:160|464:216,1,129.999997675419
408,304,84885,6,0,B|456:248|392:192,1,129.999997675419
296,224,85552,6,0,B|240:272|184:208,1,129.999997675419
280,176,86219,6,0,B|336:128|392:192,1,129.999997675419
448,280,86885,5,4
256,352,87552,1,4
64,280,88219,1,4
152,232,88552,1,0
64,176,88885,1,0
64,280,89219,1,0
152,232,89552,6,0,B|232:216|248:296,1,129.999997675419
272,192,90219,1,0
247,293,90552,1,0
272,192,90885,2,0,B|287:269|367:253,1,129.999997675419
448,320,91552,1,0
367,253,91885,1,0
448,320,92219,6,0,B|504:272|504:272|456:224,1,129.999997675419,4|0
400,152,92885,2,0,B|352:88|352:88|416:56,1,129.999997675419,4|0
448,48,93385,1,0
448,48,93552,2,0,B|408:192,1,129.999997675419
312,192,94219,2,0,B|248:232|272:336,1,129.999997675419
168,288,94885,5,0
70,264,95219,1,0
111,170,95552,5,0
209,194,95885,1,0
303,190,96219,5,0
401,214,96552,1,0
442,120,96885,5,0
344,96,97219,1,0
303,190,97552,6,0,B|232:232|256:304,1,129.999997675419,2|0
254,298,98052,1,0
254,297,98219,2,0,B|276:230|205:188,1,129.999997675419,2|0
120,128,98885,2,0,B|88:48|176:16,3,129.999997675419,2|0|2|0
248,88,100219,6,0,B|328:112|328:112|288:136,1,129.999997675419,4|0
240,152,100719,5,0
240,152,100885,2,0,B|160:176|160:176|200:200,1,129.999997675419,4|0
248,224,101385,1,0
248,224,101552,6,0,B|224:320|224:320|256:304,1,129.999997675419
344,256,102219,1,0
432,208,102552,1,0
424,312,102885,6,0,B|488:280|496:224|416:224|416:224|360:248|296:272|296:272|240:256|272:200|272:200|368:160|368:160|376:104,1,519.999990701676,4|2
384,8,104552,1,2
288,48,104885,1,2
88,64,105552,6,0,B|64:104|128:128|104:200,1,129.999997675419
96,288,106219,1,2
280,200,106885,6,0,B|224:232|256:288|336:232,1,129.999997675419,4|2
416,192,107552,2,0,B|472:160|440:104|360:160,1,129.999997675419,4|2
344,48,108219,5,0
240,48,108552,1,2
152,96,108885,1,2
120,192,109219,1,2
224,200,109552,5,2
320,168,109885,1,2
416,208,110219,1,2
440,312,110552,1,2
