osu file format v9

[General]
AudioFilename: seiya-murai feat.ALT - Sumidagawa Karenka.mp3
AudioLeadIn: 982
PreviewTime: 46499
Countdown: 0
SampleSet: Soft
StackLeniency: 0.3
Mode: 0
LetterboxInBreaks: 1

[Editor]
Bookmarks: 26832,27165,27332,27665,27832,27999,28165,28499,28665,29165,29332,29499,29832,30082,78499
DistanceSpacing: 0.8
BeatDivisor: 4
GridSize: 8

[Metadata]
Title:Sumidagawa Karenka
Artist:seiya-murai feat.ALT
Creator:kiddly
Version:Basic
Source:Jubeat Ripple
Tags:ignorethis

[Difficulty]
HPDrainRate:2
CircleSize:3
OverallDifficulty:1
ApproachRate:3
SliderMultiplier:1
SliderTickRate:1

[Events]
//Background and Video events
0,0,"1076952.jpg"
//Break Periods
2,71086,77112
2,105752,106779
//Storyboard Layer 0 (Background)
//Storyboard Layer 1 (Fail)
//Storyboard Layer 2 (Pass)
//Storyboard Layer 3 (Foreground)
//Storyboard Sound Samples
//Background Colour Transformations
3,100,163,162,255

[TimingPoints]
1564,337.078651685393,4,2,1,100,1,0
2886,333.333333333333,4,1,1,83,1,0
46885,-76.9230769230769,4,1,1,80,0,1
70885,-76.9230769230769,4,1,1,80,0,0
78885,-76.9230769230769,4,1,1,80,0,1
102885,-76.9230769230769,4,1,1,80,0,0
108219,-76.9230769230769,4,1,0,80,0,1
108302,-76.9230769230769,4,2,1,80,0,0

[Colours]
Combo1 : 255,128,255
Combo2 : 157,240,4
Combo3 : 32,170,244
Combo4 : 235,132,75

[HitObjects]
232,112,1564,2,0,B|200:184|232:264,2,150,4|2|2
320,112,2886,2,0,B|352:184|320:264,2,150,4|4|0
400,72,4219,5,0
456,192,4885,1,0
400,328,5552,2,0,B|288:216|112:288,1,300
56,352,6885,5,0
112,200,7552,1,0
56,56,8219,2,0,B|160:104|264:48,1,200
336,40,9219,5,0
352,56,9385,1,0
368,72,9552,2,0,B|312:184|408:264,1,200
256,336,10886,2,0,B|192:280|96:312,2,150
336,312,12219,5,0
448,232,12886,1,0
360,112,13552,1,0
248,200,14219,1,0
136,184,14552,5,0
120,168,14719,1,0
104,152,14886,2,0,B|136:72|224:80,2,150,0|0|8
128,232,16219,2,0,B|96:312|8:304,2,150,0|0|8
208,192,17552,6,0,B|296:168|336:216|424:192,1,200
456,128,18552,1,8
400,56,18886,2,0,B|240:96,2,150,0|0|8
456,128,20219,6,0,B|320:128|288:248|256:336|112:312,1,400
64,248,21885,2,0,B|176:208|184:80,1,200,8|8
256,48,22885,5,2
256,224,23552,1,2
256,48,24219,1,2
256,136,24552,1,2
256,224,24885,1,2
376,104,25552,6,0,B|472:160|432:280,1,200
320,176,26885,2,0,B|240:136|264:40,1,150
128,32,27885,5,0
56,88,28219,2,0,B|120:192|8:272,1,200
224,176,29552,2,0,B|344:152|408:240,1,200
464,168,30552,5,0
400,96,30885,2,0,B|328:248,2,150
312,96,32219,2,0,B|178:198,2,150
224,64,33552,2,0,B|59:97,2,150
296,120,34885,5,0
360,56,35219,1,0
432,112,35552,1,0
368,176,35885,1,0
432,240,36219,6,0,B|312:392|224:144|72:336,1,400
112,192,38219,1,0
184,72,38885,2,0,B|256:120|336:64,2,150,0|0|8
128,144,40219,5,0
208,184,40552,1,8
296,184,40886,1,0
376,144,41219,1,8
432,216,41552,6,0,B|248:368|56:200,1,400
112,136,43219,1,8
256,80,43886,1,8
256,168,44219,5,2
408,136,44886,1,2
368,296,45552,1,2
392,216,45886,1,2
304,232,46219,1,2
224,96,46886,6,0,B|64:56|32:216,1,259.999995350838,4|0
208,184,48219,2,0,B|368:224|400:64,1,259.999995350838,4|0
384,256,49552,2,0,B|272:248|256:344|136:328,3,259.999995350838,4|0|4|0
0,208,52219,6,0,B|24:56|200:88,1,259.999995350838,4|0
256,152,53219,1,0
320,86,53552,2,0,B|488:56|512:208,1,259.999995350838,4|0
424,232,54552,1,0
384,312,54886,2,0,B|264:264|248:336|120:304,3,259.999995350838,4|4|4|4
24,128,57552,6,0,B|168:96,1,129.999997675419
224,32,58219,2,0,B|352:0,1,129.999997675419
368,96,58886,2,0,B|224:128,1,129.999997675419
168,192,59552,2,0,B|40:224,1,129.999997675419
88,304,60219,6,0,B|216:280|232:360|368:312,3,259.999995350838,4|0|4|0
432,272,62552,5,0
456,176,62886,2,0,B|432:112|344:64,1,129.999997675419,4|0
272,88,63552,2,0,B|315:141|323:205,1,129.999997675419
232,208,64219,2,0,B|195:155|131:128,1,129.999997675419,4|0
64,184,64886,2,0,B|107:237|115:301,1,129.999997675419
200,328,65552,5,4
280,288,65886,1,0
360,328,66219,1,4
440,288,66552,1,0
408,208,66886,6,4,B|240:104|192:224|32:80,1,389.999993026257
256,192,68219,12,0,70886
256,320,78552,5,0
272,304,78719,1,0
288,288,78885,2,0,B|448:328|480:168,1,259.999995350838,4|0
304,200,80219,2,0,B|144:160|112:320,1,259.999995350838,4|0
128,128,81552,2,0,B|240:136|256:40|376:56,3,259.999995350838,4|0|4|0
512,176,84219,6,0,B|488:328|312:296,1,259.999995350838,4|0
256,232,85219,1,0
192,298,85552,2,0,B|24:328|0:176,1,259.999995350838,4|0
88,152,86552,1,0
128,72,86885,2,4,B|248:120|264:48|392:80,3,259.999995350838
488,256,89552,6,0,B|344:288,1,129.999997675419
288,352,90219,2,0,B|160:384,1,129.999997675419
144,280,90885,2,0,B|288:248,1,129.999997675419
344,184,91552,2,0,B|472:152,1,129.999997675419
408,80,92219,6,0,B|280:104|264:24|128:72,3,259.999995350838,4|0|4|0
72,136,94552,5,0
56,240,94885,2,0,B|88:296|176:344,1,129.999997675419,4|0
240,312,95552,2,0,B|197:259|189:195,1,129.999997675419
288,200,96219,2,0,B|325:253|389:280,1,129.999997675419,4|0
432,208,96885,2,0,B|389:155|381:91,1,129.999997675419
288,56,97552,5,4
200,96,97885,1,0
120,56,98219,1,4
40,96,98552,1,0
88,176,98885,6,0,B|256:280|304:160|464:304,1,389.999993026257,4|4
452,293,100219,1,4
368,320,100552,2,0,B|304:344,2,64.9999988377094,0|0|4
296,256,101219,2,0,B|224:240,1,64.9999988377094
208,232,101552,2,0,B|168:80|328:-8|464:80,1,389.999993026257,4|4
472,96,102719,1,0
484,113,102885,1,4
256,192,103219,12,4,105552
256,192,108219,5,0
225,267,108552,1,0
171,204,108885,1,0
203,130,109219,1,2
288,118,109552,1,0
339,187,109885,1,2
307,262,110219,1,0
256,192,110552,1,4
