osu file format v12

[General]
AudioFilename: marudematryoshka.mp3
AudioLeadIn: 0
PreviewTime: 76275
Countdown: 0
SampleSet: Soft
StackLeniency: 0.7
Mode: 0
LetterboxInBreaks: 0
WidescreenStoryboard: 1

[Editor]
Bookmarks: 405,6598,12792,25179,37566,49953,62340,76275,88663,99501,102598
DistanceSpacing: 1
BeatDivisor: 4
GridSize: 4
TimelineZoom: 1

[Metadata]
Title:Marude Matryoshka
TitleUnicode:まるでマトリョーシカ
Artist:seiya-murai feat. ALT
ArtistUnicode:seiya-murai feat. ALT
Creator:Damnae
Version:Normal
Source:REFLEC BEAT
Tags:limelight ver 1.5 konami nemis
BeatmapID:335168
BeatmapSetID:133439

[Difficulty]
HPDrainRate:3
CircleSize:3
OverallDifficulty:3
ApproachRate:5
SliderMultiplier:1.2
SliderTickRate:2

[Events]
//Background and Video events
0,0,"bg.png",0,0
//Break Periods
//Storyboard Layer 0 (Background)
//Storyboard Layer 1 (Fail)
//Storyboard Layer 2 (Pass)
//Storyboard Layer 3 (Foreground)
//Storyboard Sound Samples
//Background Colour Transformations
3,100,0,0,0

[TimingPoints]
405,387.096774193548,4,2,1,60,1,0
22082,-100,4,2,1,70,0,0
25179,-100,4,2,1,60,0,0
37566,-133.333333333333,4,2,1,60,0,0
49953,-100,4,2,1,60,0,0
61566,-200,4,2,1,60,0,0
61953,-100,4,2,1,60,0,0
62340,-133.333333333333,4,2,1,60,0,0
75888,-100,4,2,1,60,0,0
76275,-90.9090909090909,4,2,1,60,0,1
102598,-100,4,2,1,60,0,0

[Colours]
Combo1 : 255,94,55
Combo2 : 173,255,95
Combo3 : 17,254,176
Combo4 : 255,88,100

[HitObjects]
1,158,6598,6,0,L|121:143,1,120,0|0,1:0|1:0,0:0:0:0:
168,107,7179,2,0,P|140:191|160:278,1,180,8|0,2:0|1:0,0:0:0:0:
201,322,7953,1,8,0:0:0:0:
201,322,8146,2,0,P|265:350|339:348,1,120,0|0,1:0|1:0,0:0:0:0:
373,341,8727,6,0,P|451:300|497:223,1,180,8|0,2:0|1:0,0:0:0:0:
499,163,9501,1,8,0:0:0:0:
499,163,9694,2,0,P|472:98|417:48,1,120,0|0,1:0|1:0,0:0:0:0:
387,93,10275,1,8,0:0:0:0:
387,93,10469,2,0,L|267:108,2,120,0|0|8,1:0|1:0|0:0,0:0:0:0:
438,62,11437,6,0,P|478:107|499:163,1,120,8|0,0:0|1:0,0:0:0:0:
499,224,12017,2,0,P|472:277|428:318,1,120,8|8,2:0|2:0,0:0:0:0:
373,341,12598,5,8,0:0:0:0:
373,341,12792,2,0,L|183:364,1,180,0|8,1:0|0:0,0:0:0:0:
137,343,13566,2,0,P|109:259|129:172,1,180,0|8,1:0|0:0,0:0:0:0:
173,131,14340,6,0,L|293:116,2,120,0|0|0,1:0|1:0|1:0,0:0:0:0:
247,36,15501,1,0,1:0:0:0:
364,58,15888,6,0,P|404:103|425:159,1,120,0|0,1:0|1:0,0:0:0:0:
424,220,16469,1,8,0:0:0:0:
424,220,16663,2,0,P|397:273|354:313,1,120,0|0,1:0|1:0,0:0:0:0:
233,318,17437,5,0,1:0:0:0:
214,199,17824,2,0,L|334:184,1,120,0|0,1:0|1:0,0:0:0:0:
344,125,18404,2,0,B|419:133,2,60,8|8|8,0:0|0:0|0:0,0:0:0:0:
351,65,18985,6,0,P|264:45|180:73,1,180,0|8,1:0|0:0,0:0:0:0:
139,117,19759,2,0,L|160:295,1,180,0|8,1:0|0:0,0:0:0:0:
116,336,20534,6,0,P|60:314|15:275,2,120,0|0|0,1:0|1:0|1:0,0:0:0:0:
235,330,21695,1,0,1:0:0:0:
354,314,22082,6,0,L|369:194,1,120,8|8,0:0|2:0,0:0:0:0:
288,105,22856,1,0,1:0:0:0:
288,105,23050,1,8,0:0:0:0:
288,105,23243,2,0,L|273:225,1,120,8|8,0:0|0:0,0:0:0:0:
157,257,24017,2,0,L|164:197,1,60,8|8,0:0|0:0,0:0:0:0:
194,145,24404,1,8,0:0:0:0:
305,98,24792,1,0,1:0:0:0:
415,52,25179,6,0,B|400:172|400:172|407:232,1,180,2|8,1:0|0:0,0:0:0:0:
424,288,25953,1,2,1:0:0:0:
312,244,26340,2,0,L|252:236,1,60,2|8,1:0|0:0,0:0:0:0:
192,230,26727,2,0,P|120:264|50:244,2,120,2|2|2,1:0|1:0|1:0,0:0:0:0:
206,110,27888,5,0,1:0:0:0:
206,110,28082,1,8,0:0:0:0:
206,110,28275,2,0,B|221:230|221:230|214:290,1,180,2|8,1:0|0:0,0:0:0:0:
196,345,29049,1,2,1:0:0:0:
309,302,29437,1,0,1:0:0:0:
421,258,29824,2,0,P|364:193|276:185,1,180,2|8,1:0|0:0,0:0:0:0:
220,208,30598,1,2,1:0:0:0:
106,242,30985,6,0,L|113:301,1,60,0|8,1:0|0:0,0:0:0:0:
145,354,31372,2,0,P|211:296|219:208,1,180,2|8,1:0|0:0,0:0:0:0:
196,152,32146,1,2,1:0:0:0:
219,33,32534,2,0,L|278:40,1,60,2|8,1:0|0:0,0:0:0:0:
339,47,32921,2,0,P|411:13|481:33,2,120,2|2|2,1:0|1:0|1:0,0:0:0:0:
325,162,34082,5,0,1:0:0:0:
325,162,34275,1,8,0:0:0:0:
325,162,34469,2,0,B|205:177|205:177|145:170,1,180,2|8,1:0|0:0,0:0:0:0:
90,152,35242,1,2,1:0:0:0:
133,265,35630,1,0,1:0:0:0:
133,265,35824,1,8,0:0:0:0:
133,265,36017,2,0,L|13:250,2,120,10|10|10,0:0|0:0|0:0,0:0:0:0:
228,192,37179,1,4,1:0:0:0:
106,162,37566,5,12,0:0:0:0:
106,162,37759,2,8,L|93:68,2,90.0000034332277,12|12|12,0:0|0:0|0:0,0:0:0:0:
240,175,39114,1,12,0:0:0:0:
240,175,39307,2,0,L|253:81,2,90.0000034332277,12|12|12,0:0|0:0|0:0,0:0:0:0:
222,309,40663,6,0,P|287:325|345:311,1,90.0000034332277,10|2,0:0|0:0,0:0:0:0:
394,294,41437,2,0,P|433:239|441:180,1,90.0000034332277,10|2,0:0|0:0,0:0:0:0:
444,128,42211,2,0,P|407:71|355:41,1,90.0000034332277,10|0,0:0|0:0,0:0:0:0:
347,45,42792,1,10,0:0:0:0:
347,45,42985,2,8,L|253:58,1,90.0000034332277,2|10,1:0|0:0,0:0:0:0:
192,119,43759,5,12,0:0:0:0:
192,119,43952,2,8,L|98:106,2,90.0000034332277,12|12|12,0:0|0:0|0:0,0:0:0:0:
205,253,45307,1,12,0:0:0:0:
205,253,45500,2,0,L|111:266,2,90.0000034332277,12|12|12,0:0|0:0|0:0,0:0:0:0:
315,330,46856,6,0,P|331:265|317:207,1,90.0000034332277,10|2,0:0|0:0,0:0:0:0:
300,158,47630,2,0,P|245:119|186:111,1,90.0000034332277,10|2,0:0|0:0,0:0:0:0:
134,108,48404,2,0,P|77:145|47:197,1,90.0000034332277,10|0,0:0|0:0,0:0:0:0:
57,206,48985,1,10,0:0:0:0:
57,206,49178,2,8,L|70:300,1,90.0000034332277,2|8,1:0|0:0,0:0:0:0:
181,340,49953,6,0,P|247:282|255:194,1,180,2|8,1:0|0:0,0:0:0:0:
232,138,50727,1,2,1:0:0:0:
156,44,51114,2,0,L|148:104,1,60,2|8,1:0|0:0,0:0:0:0:
135,162,51501,2,0,P|84:192|24:191,2,120,2|2|2,1:0|1:0|1:0,0:0:0:0:
205,257,52662,5,0,1:0:0:0:
205,257,52856,1,8,0:0:0:0:
205,257,53050,2,0,B|263:250|263:250|324:257|324:257|383:250,1,180,2|8,1:0|0:0,0:0:0:0:
443,244,53823,1,2,1:0:0:0:
395,134,54211,1,0,1:0:0:0:
354,21,54598,2,0,P|289:78|281:166,1,180,2|8,1:0|0:0,0:0:0:0:
304,221,55372,1,2,1:0:0:0:
392,302,55759,6,0,L|385:361,1,60,0|8,1:0|0:0,0:0:0:0:
324,358,56146,2,0,B|204:343|204:343|144:350,1,180,2|8,1:0|0:0,0:0:0:0:
86,360,56920,1,2,1:0:0:0:
41,248,57308,2,0,L|100:255,1,60,0|8,1:0|0:0,0:0:0:0:
161,260,57695,2,0,P|211:230|271:232,2,120,2|2|2,1:0|1:0|1:0,0:0:0:0:
120,149,58856,5,0,1:0:0:0:
120,149,59049,1,8,0:0:0:0:
119,149,59243,2,0,P|189:112|300:118,1,180,2|8,1:0|0:0,0:0:0:0:
343,137,60016,1,2,1:0:0:0:
271,232,60404,1,0,1:0:0:0:
271,232,60598,1,8,0:0:0:0:
271,232,60791,2,0,L|256:352,2,120,10|10|10,0:0|0:0|0:0,0:0:0:0:
312,119,61953,1,4,1:0:0:0:
392,211,62340,5,12,0:0:0:0:
392,211,62533,2,8,L|486:198,2,90.0000034332277,12|12|12,0:0|0:0|0:0,0:0:0:0:
267,260,63888,1,12,0:0:0:0:
267,260,64081,2,0,L|173:273,2,90.0000034332277,12|12|12,0:0|0:0|0:0,0:0:0:0:
402,265,65437,6,0,P|386:200|400:142,1,90.0000034332277,10|2,0:0|0:0,0:0:0:0:
307,141,66211,2,0,P|265:157|231:185,1,90.0000034332277,10|2,0:0|0:0,0:0:0:0:
151,146,66985,2,0,P|120:113|80:92,1,90.0000034332277,10|0,0:0|0:0,0:0:0:0:
59,131,67566,1,10,0:0:0:0:
59,131,67759,2,8,L|46:225,1,90.0000034332277,2|10,1:0|0:0,0:0:0:0:
132,247,68533,5,12,0:0:0:0:
132,247,68726,2,8,L|145:341,2,90.0000034332277,12|12|12,0:0|0:0|0:0,0:0:0:0:
203,132,70081,1,12,0:0:0:0:
203,132,70275,2,0,L|297:119,2,90.0000034332277,12|12|12,0:0|0:0|0:0,0:0:0:0:
313,209,71630,6,0,P|329:274|315:332,1,90.0000034332277,10|2,0:0|0:0,0:0:0:0:
236,294,72404,2,0,P|194:311|160:339,1,90.0000034332277,10|2,0:0|0:0,0:0:0:0:
76,306,73178,6,0,P|161:157|313:209,1,360.000013732911,10|2,0:0|1:0,0:0:0:0:
402,196,75114,1,0,1:0:0:0:
491,184,75501,1,8,0:0:0:0:
491,184,75695,1,8,0:0:0:0:
491,184,75888,1,8,0:0:0:0:
409,287,76275,6,0,P|359:331|297:354,1,132.00000402832,2|2,1:0|1:0,0:0:0:0:
230,353,76856,1,10,0:0:0:0:
230,353,77050,2,8,P|171:323|127:275,1,132.00000402832,2|2,1:0|1:0,0:0:0:0:
101,211,77630,5,10,0:0:0:0:
101,211,77824,2,8,P|106:145|134:86,1,132.00000402832,2|2,1:0|1:0,0:0:0:0:
266,75,78598,2,8,P|294:134|299:199,1,132.00000402832,2|2,1:0|1:0,0:0:0:0:
239,317,79372,6,0,P|334:295|427:325,1,198.000006042481,2|10,1:0|0:0,0:0:0:0:
463,380,80146,2,0,P|432:286|454:191,1,198.000006042481,2|8,1:0|0:0,0:0:0:0:
393,164,80921,5,2,1:0:0:0:
262,181,81308,2,0,L|130:197,1,132.00000402832,2|2,1:0|1:0,0:0:0:0:
66,206,81888,2,0,L|0:213,2,66.0000020141602,12|12|12,0:0|0:0|0:0,0:0:0:0:
66,272,82469,6,0,P|116:316|178:339,1,132.00000402832,2|2,1:0|1:0,0:0:0:0:
245,338,83050,1,10,0:0:0:0:
245,338,83244,2,8,P|304:308|348:260,1,132.00000402832,2|2,1:0|1:0,0:0:0:0:
374,196,83824,5,10,0:0:0:0:
374,196,84018,2,8,P|369:130|341:71,1,132.00000402832,2|2,1:0|1:0,0:0:0:0:
255,161,84792,1,2,1:0:0:0:
170,71,85179,1,2,1:0:0:0:
170,71,85566,6,0,P|142:130|138:196,1,132.00000402832,12|12,0:0|0:0,0:0:0:0:
187,318,86340,1,2,1:0:0:0:
187,318,86534,1,12,0:0:0:0:
187,318,86727,1,12,0:0:0:0:
300,251,87114,2,0,P|328:191|332:126,1,132.00000402832,12|2,0:0|1:0,0:0:0:0:
312,63,87695,1,12,0:0:0:0:
312,63,87888,1,12,0:0:0:0:
200,134,88275,1,12,0:0:0:0:
271,246,88663,6,0,L|403:230,1,132.00000402832,2|2,1:0|1:0,0:0:0:0:
467,230,89243,1,10,0:0:0:0:
467,230,89437,2,2,L|451:98,1,132.00000402832,2|0,1:0|1:0,0:0:0:0:
451,34,90017,1,10,0:0:0:0:
451,34,90211,2,0,L|319:50,1,132.00000402832,2|2,1:0|1:0,0:0:0:0:
214,129,90985,2,0,L|82:113,1,132.00000402832,2|2,1:0|1:0,0:0:0:0:
194,42,91759,6,0,P|216:137|186:230,1,198.000006042481,2|10,1:0|0:0,0:0:0:0:
130,267,92533,2,0,P|224:236|319:258,1,198.000006042481,2|8,1:0|0:0,0:0:0:0:
382,241,93308,5,2,1:0:0:0:
303,136,93695,2,0,P|253:92|192:69,1,132.00000402832,2|2,1:0|1:0,0:0:0:0:
127,82,94275,2,0,L|118:6,2,66.0000020141602,12|12|12,0:0|0:0|0:0,0:0:0:0:
135,148,94856,6,0,L|151:280,1,132.00000402832,2|2,1:0|1:0,0:0:0:0:
151,344,95436,1,10,0:0:0:0:
151,344,95630,2,0,L|283:328,1,132.00000402832,2|2,1:0|1:0,0:0:0:0:
347,328,96210,1,10,0:0:0:0:
347,328,96404,2,0,L|331:196,1,132.00000402832,2|2,1:0|1:0,0:0:0:0:
264,82,97179,2,0,L|248:214,1,132.00000402832,2|2,1:0|1:0,0:0:0:0:
170,321,97953,6,0,P|142:262|138:196,1,132.00000402832,12|12,0:0|0:0,0:0:0:0:
187,74,98727,1,2,1:0:0:0:
187,74,98921,1,12,0:0:0:0:
187,74,99114,1,12,0:0:0:0:
300,141,99501,2,0,P|328:201|332:266,1,132.00000402832,8|0,0:0|1:0,0:0:0:0:
312,329,100082,1,8,0:0:0:0:
312,329,100275,1,8,0:0:0:0:
200,258,100662,5,0,1:0:0:0:
271,146,101050,2,0,L|403:162,1,132.00000402832,0|2,1:0|1:2,0:0:0:0:
442,287,101824,2,0,L|310:303,1,132.00000402832,0|2,1:0|1:2,0:0:0:0:
200,258,102598,1,10,0:3:0:0:
