osu file format v6

[General]
AudioFilename: OPTreasurefull.mp3
AudioLeadIn: 0
PreviewTime: -1
Countdown: 1
SampleSet: Normal
StackLeniency: 0.7
Mode: 0
LetterboxInBreaks: 1

[Editor]
DistanceSpacing: 0.800000011920929
BeatDivisor: 4
GridSize: 16

[Metadata]
Title:Treasure
Artist:seito kaio ichizon
Creator:RE1359EBA
Version:Standard
Source:
Tags:

[Difficulty]
HPDrainRate:5
CircleSize:4
OverallDifficulty:5
SliderMultiplier:1.4
SliderTickRate:2

[Events]
//Background and Video events
0,0,"Home room.jpg"
//Break Periods
2,40344,44592
2,79417,88110
2,156360,169219
//Storyboard Layer 0 (Background)
//Storyboard Layer 1 (Fail)
//Storyboard Layer 2 (Pass)
//Storyboard Layer 3 (Foreground)
//Storyboard Sound Samples
//Background Colour Transformations
3,100,163,162,255

[TimingPoints]
17182,370.37037037037,4,1,0,100,1,0
25793,370.37037037037,4,1,0,100,1,0
36626,370.37037037037,4,1,0,100,1,0
45792,370.37037037037,4,1,0,100,1,0
73106,370.37037037037,4,1,0,100,1,0
89310,370.37037037037,4,1,0,100,1,0
97921,370.37037037037,4,1,0,100,1,0
108754,370.37037037037,4,1,0,100,1,0
117920,370.37037037037,4,1,0,100,1,0
145234,370.37037037037,4,1,0,100,1,0
152642,370.37037037037,4,1,0,100,1,0
179771,370.37037037037,4,1,0,100,1,0
183752,370.37037037037,4,1,0,100,1,0
190511,370.37037037037,4,1,0,100,1,0
195048,370.37037037037,4,1,0,100,1,0

[HitObjects]
192,352,17182,5,2
320,352,17552,1,0
320,352,17737,1,0
512,272,18478,2,4,B|512:192|480:128|416:128|352:128|384:112,2,210
320,352,20144,5,2
192,352,20514,1,0
192,352,20699,1,0
0,272,21441,2,4,B|0:192|32:128|96:128|160:128|128:112,2,210
224,272,23107,6,0,B|512:272,2,280
64,272,25330,5,12
192,176,25978,1,0
192,176,26163,2,0,B|271:134|340:184,1,140
256,272,26904,1,0
256,384,27274,5,0
256,384,27459,2,4,B|336:384|384:336|400:256,1,210
320,144,28385,1,0
192,144,28755,1,0
256,192,28941,5,2
256,352,29496,1,0
0,272,30237,2,4,B|0:192|32:128|96:128|160:128|128:112,2,210
192,352,31904,5,2
320,352,32274,1,0
320,352,32459,1,0
512,272,33200,2,4,B|512:192|480:128|416:128|352:128|384:112,2,210
384,320,34867,6,0,B|320:192|219:404|139:292,2,280
416,192,36996,5,12
384,320,37737,2,0,B|320:368|240:368|160:352|112:320,1,280
80,176,39033,2,8,B|80:48|416:48|416:192,1,420
256,192,45792,5,8
176,256,46162,1,8
208,352,46532,1,2
304,352,46903,1,4
304,352,47088,1,4
336,256,47458,1,8
336,144,48014,6,0,B|304:64|192:64|160:160,2,210
256,192,50421,12,14,53199
256,192,53941,5,4
384,192,54310,1,4
384,192,54497,1,4
464,96,54866,2,10,B|416:16|336:16,1,140
288,64,55421,2,10,B|64:272,2,280
384,112,57273,5,0
480,160,57643,2,12,B|480:256|432:288|384:336|288:336,3,280
352,176,60236,5,4
352,176,60421,1,0
256,176,60792,1,0
160,176,61162,1,4
192,32,62273,5,8
192,32,62458,1,0
320,32,62829,2,2,B|400:32|448:96|448:176,2,210
192,32,64310,2,2,B|112:32|64:96|64:176,2,210
256,176,65791,5,4
384,176,66160,1,4
384,176,66347,1,4
464,80,66716,2,10,B|416:0|336:0,1,140
288,48,67271,2,10,B|64:256,2,280
384,96,69123,5,0
480,144,69493,2,12,B|480:240|432:272|384:320|288:320,3,280
192,320,72273,6,8,B|16:320,1,140
112,192,73106,1,4
256,192,73661,1,4
400,192,74216,1,4
384,32,74587,2,0,B|320:-16|240:-16|160:0|112:32,2,280
192,80,77550,5,2
320,256,78106,5,6
320,80,78662,5,12
192,256,79217,5,8
320,352,89310,5,2
192,352,89680,1,0
192,352,89865,1,0
0,272,90421,1,0
0,272,90606,2,4,B|0:192|32:128|96:128|160:128|128:112,2,210
192,352,92272,5,2
320,352,92642,1,0
320,352,92827,1,0
512,272,93198,1,0
512,272,93384,1,0
512,272,93569,2,4,B|512:192|480:128|416:128|352:128|384:112,2,210
288,272,95235,6,0,B|0:272,2,280
448,272,97458,5,12
320,176,98106,1,0
320,176,98291,2,0,B|241:134|172:184,1,140
256,272,99032,1,0
256,384,99402,5,0
256,384,99587,2,4,B|176:384|128:336|112:256,1,210
192,144,100513,1,0
320,144,100883,1,0
256,192,101069,5,2
256,352,101624,1,0
512,272,102365,2,4,B|512:192|480:128|416:128|352:128|384:112,2,210
320,352,104032,5,2
192,352,104402,1,0
192,352,104587,1,0
0,272,105328,2,4,B|0:192|32:128|96:128|160:128|128:112,2,210
128,320,106995,6,0,B|192:192|293:404|373:292,2,280
96,192,109124,5,12
128,320,109865,2,0,B|192:368|272:368|352:352|400:320,1,280
432,176,111161,2,8,B|432:48|96:48|96:192,1,420
144,80,112828,5,8
256,32,113198,1,4
368,80,113568,1,12
368,80,113754,1,12
352,208,114124,2,0,B|128:208,1,210
192,288,115050,5,8
320,288,115420,1,8
416,208,115791,2,4,B|416:16|80:16|80:224,1,490
256,192,117920,5,8
336,256,118290,1,8
304,352,118660,1,2
208,352,119031,1,4
208,352,119216,1,4
176,256,119586,1,8
176,144,120142,6,0,B|208:64|320:64|352:160,2,210
256,192,122549,12,14,125327
256,192,126069,5,4
128,192,126438,1,4
128,192,126625,1,4
48,96,126994,2,10,B|96:16|176:16,1,140
224,64,127549,2,10,B|448:272,2,280
128,112,129401,5,0
32,160,129771,2,12,B|32:256|80:288|128:336|224:336,3,280
160,176,132364,5,4
160,176,132549,1,0
256,176,132920,1,0
352,176,133290,1,4
320,32,134401,5,8
320,32,134586,1,0
192,32,134957,2,2,B|112:32|64:96|64:176,2,210
320,32,136438,2,2,B|400:32|448:96|448:176,2,210
256,176,137919,5,4
128,176,138288,1,4
128,176,138475,1,4
48,80,138844,2,10,B|96:0|176:0,1,140
224,48,139399,2,10,B|448:256,2,280
128,96,141251,5,0
32,144,141621,2,12,B|32:240|80:272|128:320|224:320,3,280
320,320,144401,6,8,B|496:320,1,140
400,192,145234,1,4
256,192,145789,1,4
112,192,146344,1,4
128,32,146715,2,0,B|192:-16|272:-16|352:0|400:32,2,280
192,80,149678,5,2
320,256,150234,5,6
320,80,150790,5,12
192,256,151345,5,8
256,192,152642,12,0,156160
256,192,170419,5,0
368,240,170790,1,4
400,336,171160,1,0
400,336,171345,1,2
256,336,171716,2,6,B|160:336|112:304|64:224|80:208,1,210
192,192,172641,1,0
320,192,173012,1,0
384,64,173382,2,6,B|320:-32|192:128|128:32,1,280
128,192,174679,1,0
384,192,175234,1,0
256,192,175604,5,12
128,192,175975,1,0
0,192,176345,2,8,B|0:118|47:54|127:54,1,210
384,54,177271,2,10,B|464:54|512:118|512:192,2,210
256,48,178753,2,14,B|256:272,1,210
256,192,179679,12,14,182549
256,304,183104,5,0
256,96,183752,6,0,B|352:96|400:144|400:240,2,210
128,320,185233,2,0,B|192:368|272:368|352:352|400:320,2,280
208,256,187086,5,4
320,256,187456,1,10
320,256,187641,1,10
368,160,188011,1,6
371,162,188196,2,14,B|371:66|275:66,1,140
216,62,188752,2,14,B|136:62|136:158,1,140
136,228,189307,6,10,B|136:321|216:321,1,140
295,321,189863,2,10,B|375:321|375:228,1,140
256,192,190511,1,10
128,96,190881,2,12,B|192:48|272:48|352:64|400:96,2,280
256,192,192825,12,14,194585
256,192,195418,5,4
128,192,195787,1,4
128,192,195974,1,4
48,96,196343,2,10,B|96:16|176:16,1,140
224,64,196898,2,10,B|448:272,2,280
128,112,198750,5,0
32,160,199120,2,12,B|32:256|80:288|128:336|224:336,2,280
208,96,201344,5,4
304,240,201900,5,0
304,96,202455,5,14
208,240,203011,5,14
256,192,203659,12,12,207270
