osu file format v5

[General]
AudioFilename: kuroshitsuji - piosenka i fragment ze sceny, kiedy sebastian ubieral cielowi gorset ~ta.pl%0E9%11.mp3
AudioLeadIn: 0
PreviewTime: -1
Countdown: 1
SampleSet: Normal
StackLeniency: 0.7
Mode: 0
LetterboxInBreaks: 1
EditorDistanceSpacing: 0.800000011920929

[Metadata]
Title:kuroshitsuji- scene assume up corset~
Artist:seach~
Creator:sakumahelena
Version:Easy
Source:
Tags:Kuroshitsuji corset XD sakumahelena jrock remix

[Difficulty]
HPDrainRate:5
CircleSize:5
OverallDifficulty:5
SliderMultiplier:1.4
SliderTickRate:1

[Events]
//Background and Video events
//Break Periods
//Storyboard Layer 0 (Background)
//Storyboard Layer 1 (Failing)
//Storyboard Layer 2 (Passing)
//Storyboard Layer 3 (Foreground)
//Storyboard Sound Samples
//Background Colour Transformations
3,100,128,128,255

[TimingPoints]
0,1000,4,1,0,100,1,0
0,1000,4,1,0,100,1,0

[Colours]
Combo1 : 255,150,0
Combo2 : 0,64,0
Combo3 : 5,5,240
Combo4 : 240,5,5

[HitObjects]
32,32,500,6,0,B|288:384|320:352|288:352,2,420
64,64,7000,5,0
192,64,7666,1,0
128,64,8500,1,0
224,160,9000,2,0,B|384:256,1,163.333333333333
96,64,11000,5,0
128,64,11166,1,0
160,64,11333,1,0
256,64,12666,1,0
288,64,12833,1,0
320,64,13000,1,0
96,96,14000,2,0,B|224:96,1,116.666666666667
256,64,15666,2,0,B|352:64,1,93.3333333333333
192,160,17333,2,0,B|288:160,1,93.3333333333333
256,224,18833,1,0
96,96,19500,2,0,B|256:96,1,140
437,64,21500,2,0,B|384:320|256:96,1,303.333333333333
96,32,24666,6,0,B|256:32|256:32|256:160|256:160,1,443.333333333333
96,64,29000,5,0
128,64,29166,1,0
160,64,29333,1,0
192,64,29500,1,0
224,64,29666,1,0
256,64,29833,1,0
256,64,30000,1,0
288,64,30166,1,0
320,64,30333,1,0
352,256,31166,2,0,B|128:256,1,210
128,64,33000,5,0
224,64,33500,1,0
288,64,34666,1,0
384,64,35166,1,0
480,64,37000,1,0
64,128,37833,2,0,B|448:128,1,373.333333333333
256,192,42166,12,0,46833
96,96,47666,5,0
192,96,48333,1,0
288,96,49000,1,0
384,96,49666,1,0
256,192,50333,12,0,52166
128,64,53166,5,0
160,64,53333,1,0
192,64,53500,1,0
128,160,54166,1,0
160,160,54333,1,0
192,160,54500,1,0
288,64,55000,1,0
320,64,55166,1,0
352,64,55333,1,0
288,160,55833,1,0
320,160,56000,1,0
352,160,56166,1,0
96,256,56833,2,0,B|416:256,1,303.333333333333
256,192,59666,12,0,62166
96,96,63500,6,0,B|224:96,1,116.666666666667
160,96,65166,2,0,B|288:96,1,116.666666666667
96,64,66833,5,0
128,64,67000,1,0
160,64,67166,1,0
224,64,68166,1,0
256,64,68333,1,0
288,64,68500,1,0
64,160,68333,2,0,B|384:160|288:384|288:352,2,350
256,192,73833,12,0,78999
96,64,79500,5,0
192,64,79833,1,0
288,64,80166,1,0
96,192,80500,2,0,B|320:192,1,210
256,192,82666,12,0,84166
64,64,84500,5,0
128,64,84833,1,0
192,64,85166,1,0
256,64,85500,1,0
320,64,85833,1,0
437,64,86333,2,0,B|96:64|288:384|480:320|416:320,2,466.666666666667
96,64,93333,5,0
128,64,93500,1,0
160,64,93666,1,0
192,64,93833,1,0
224,64,94000,1,0
256,64,94166,1,0
256,192,94666,12,0,96166
96,96,97000,5,0
128,96,97166,1,0
160,96,97333,1,0
256,192,98000,1,0
288,192,98166,1,0
224,320,98333,1,0
352,320,99000,1,0
384,320,99166,1,0
416,320,99333,1,0
64,64,100000,2,0,B|384:64|384:64|384:320|384:352|384:352|288:352,2,700
96,96,110333,5,0
128,96,110500,1,0
160,96,110666,1,0
192,96,110833,1,0
224,96,111000,1,0
224,224,111666,1,0
256,224,111833,1,0
288,224,112000,1,0
320,224,112166,1,0
128,64,112666,2,0,B|352:64,1,210
256,192,114833,12,0,116500
64,128,117833,5,0
160,128,118333,1,0
224,128,118833,1,0
320,128,119333,1,0
416,128,119833,1,0
256,192,120666,12,0,122000
32,96,122833,6,0,B|448:96,1,396.666666666667
