osu file format v14

[General]
AudioFilename: audio.mp3
AudioLeadIn: 0
PreviewTime: 40367
Countdown: 0
SampleSet: Soft
StackLeniency: 0.7
Mode: 0
LetterboxInBreaks: 0
WidescreenStoryboard: 1

[Editor]
Bookmarks: 13598,23444,33290,43136,52982,55444,60367,70213,80059,89905,92367,102213,112059,121905,131751,136674,146521,148982,158828
DistanceSpacing: 1
BeatDivisor: 3
GridSize: 32
TimelineZoom: 0.6999997

[Metadata]
Title:Yubikiri
TitleUnicode:指切り
Artist:scop
ArtistUnicode:すこっぷ
Creator:Noffy
Version:Easy
Source:初音ミク -Project DIVA- F 2nd
Tags:Ayyri Vocaloid F2nd Hatsune Miku HELL YA TRAINS Pinky Promise Swear thousand needles Light and Shadow Love Songs 〜Girls Side〜 Days ~Best of Scop~ BALLOOM BEST Yuri ムラサキ Murasaki violet Purple Arcade Future Tone Sound Colorful Deluxe DX
BeatmapID:1346977
BeatmapSetID:634876

[Difficulty]
HPDrainRate:2
CircleSize:2
OverallDifficulty:2
ApproachRate:3
SliderMultiplier:1
SliderTickRate:1

[Events]
//Background and Video events
0,0,"yubki.jpg",0,0
Video,670,"prom.avi"
//Break Periods
2,13598,21696
//Storyboard Layer 0 (Background)
//Storyboard Layer 1 (Fail)
//Storyboard Layer 2 (Pass)
//Storyboard Layer 3 (Foreground)
//Storyboard Sound Samples

[TimingPoints]
3752,307.692307692308,4,2,1,100,1,0
43136,-100,4,2,1,100,0,1
55444,-100,4,2,1,100,0,0
80059,-100,4,2,1,100,0,1
92367,-100,4,2,1,100,0,0
131752,-100,4,2,1,100,0,0
136675,-100,4,2,1,100,0,1
148982,-100,4,2,1,100,0,0

[Colours]
Combo1 : 193,9,55
Combo2 : 79,131,71
Combo3 : 113,152,159
Combo4 : 184,140,82
Combo5 : 139,98,157

[HitObjects]
79,91,3751,38,0,P|54:210|88:282,1,200,4|0,0:1|0:0,0:0:0:0:
286,299,4982,2,0,B|392:255|394:341|524:278,1,200,0|0,0:0|0:0,0:0:0:0:
440,99,6213,6,0,P|346:73|228:108,2,200
133,356,8674,6,0,B|99:283|99:283|135:222|120:136,1,200,4|0,0:1|0:0,0:0:0:0:
333,54,9905,2,0,P|360:172|321:285,1,200,0|0,0:0|0:0,0:0:0:0:
173,354,11136,21,4,0:3:0:0:
89,172,11751,1,4,0:3:0:0:
218,24,12367,1,4,0:1:0:0:
6,322,23136,53,2,0:1:0:0:
75,249,23444,2,0,P|196:254|284:305,1,200,4|2,0:1|0:1,0:0:0:0:
459,332,24674,1,2,0:1:0:0:
484,32,25598,5,2,0:1:0:0:
424,112,25905,2,0,B|370:124|329:93|329:93|286:130|212:111,1,200,8|2,0:0|0:1,0:0:0:0:
47,45,27136,1,0,0:0:0:0:
207,298,28059,5,8,0:0:0:0:
108,315,28367,2,0,P|31:237|5:143,1,200,4|2,0:1|0:1,0:0:0:0:
161,25,29598,1,2,0:1:0:0:
348,258,30521,5,2,0:1:0:0:
263,311,30828,2,0,B|225:331|143:331|178:286|109:286|63:310,2,200,8|8|2,0:0|0:0|0:1,0:0:0:0:
418,184,32674,1,8,0:0:0:0:
267,54,33290,22,0,P|192:34|69:65,1,200,4|8,0:1|0:1,0:0:0:0:
19,253,34521,1,8,0:1:0:0:
306,339,35444,5,8,0:1:0:0:
247,258,35751,2,0,P|221:181|255:44,1,200,8|8,0:0|0:0,0:0:0:0:
440,44,36982,1,8,0:0:0:0:
98,252,38213,6,0,P|137:313|169:334,1,100,4|4,0:1|0:3,0:0:0:0:
258,328,38828,2,0,P|301:294|327:246,1,100,0|4,0:0|0:3,0:0:0:0:
306,156,39444,2,0,B|252:144|211:175|211:175|168:138|94:157,1,200
112,352,40674,5,4,0:1:0:0:
312,352,41290,1,0,0:0:0:0:
212,175,41905,1,4,0:3:0:0:
363,52,42521,1,0,0:0:0:0:
476,216,43136,6,0,P|437:277|405:298,1,100,4|4,0:1|0:3,0:0:0:0:
315,292,43751,2,0,P|277:259|254:215,1,100,4|4,0:3|0:3,0:0:0:0:
231,117,44367,1,4,0:3:0:0:
46,40,44982,21,0,0:0:0:0:
10,236,45598,2,0,P|62:316|176:362,1,200,4|4,0:3|0:3,0:0:0:0:
354,360,46828,1,4,0:3:0:0:
125,31,48059,6,0,P|243:46|323:100,1,200,4|0,0:1|0:0,0:0:0:0:
350,284,49290,2,0,P|251:275|164:227,1,200,4|0,0:1|0:0,0:0:0:0:
310,87,50521,6,0,P|408:95|495:143,1,200,4|0,0:1|0:0,0:0:0:0:
350,284,51751,1,4,0:3:0:0:
150,271,52367,2,0,P|96:254|58:229,1,100,4|4,0:3|0:3,0:3:0:0:
22,137,52982,5,4,0:1:0:0:
188,26,53598,1,0,0:0:0:0:
242,218,54213,1,4,0:1:0:0:
441,224,54828,2,0,P|478:195|503:150,1,100
447,66,55444,38,0,B|350:83|350:83|312:45|247:53,1,200,4|8,0:1|0:0,0:0:0:0:
159,226,56674,2,0,B|256:209|256:209|294:247|359:239,1,200,8|8,0:0|0:0,0:0:0:0:
447,66,57905,6,0,B|350:83|350:83|308:45|254:35|196:54|172:103,1,300,8|4,0:0|0:3,0:0:0:0:
149,195,59136,1,8,0:1:0:0:
449,263,60059,21,8,0:1:0:0:
374,329,60367,2,0,B|327:340|279:311|279:311|231:311|231:311|217:285|173:268,1,200,4|4,0:1|0:3,0:0:0:0:
14,185,61597,1,0,0:0:0:0:
304,107,62521,5,8,0:1:0:0:
234,35,62828,2,0,P|142:41|33:97,1,200,8|8,0:1|0:0,0:0:0:0:
0,281,64059,1,8,0:1:0:0:
290,355,64982,5,0,0:0:0:0:
390,353,65290,2,0,B|440:341|469:289|469:289|469:241|469:241|495:227|512:183,1,200,4|4,0:1|0:3,0:0:0:0:
367,58,66521,1,0,0:0:0:0:
67,46,67444,5,8,0:1:0:0:
35,140,67751,2,0,B|15:178|15:260|60:225|60:294|36:340,2,200,8|4|8,0:1|0:3|0:1,0:0:0:0:
203,32,69597,1,4,0:3:0:0:
351,166,70213,22,0,P|271:224|173:230,1,200,4|8,0:1|0:1,0:0:0:0:
203,32,71444,1,8,0:1:0:0:
399,66,72059,5,8,0:0:0:0:
457,147,72367,1,0,0:1:0:0:
412,236,72674,2,0,P|357:287|199:318,1,200,8|8,0:0|0:0,0:0:0:0:
39,298,73905,1,8,0:0:0:0:
338,33,75136,6,0,P|399:72|420:104,1,100,4|4,0:1|0:3,0:0:0:0:
446,188,75751,2,0,P|403:222|377:270,1,100,0|4,0:0|0:3,0:0:0:0:
334,349,76367,2,0,B|280:349|243:314|243:314|208:349|144:349,1,200,0|0,0:0|0:0,0:0:0:0:
142,149,77597,5,4,0:1:0:0:
342,149,78213,1,0,0:0:0:0:
244,315,78828,1,4,0:3:0:0:
142,149,79444,1,0,0:0:0:0:
314,47,80059,6,0,P|375:86|396:118,1,100,4|4,0:1|0:3,0:0:0:0:
390,208,80674,2,0,P|357:246|313:269,1,100,4|4,0:3|0:3,0:0:0:0:
214,282,81290,1,4,0:3:0:0:
260,87,81905,21,0,0:0:0:0:
64,64,82521,2,0,P|65:169|125:257,1,200,4|4,0:3|0:3,0:0:0:0:
270,373,83751,1,4,0:3:0:0:
480,33,84982,6,0,P|461:174|417:236,1,200,4|0,0:1|0:0,0:0:0:0:
285,83,86213,2,0,P|190:53|91:67,1,200,4|0,0:1|0:0,0:0:0:0:
82,267,87444,6,0,P|176:296|275:282,1,200,4|0,0:1|0:0,0:0:0:0:
449,183,88674,1,4,0:3:0:0:
319,30,89290,2,0,P|267:20|207:34,1,100,4|4,0:3|0:3,0:0:0:0:
131,73,89905,5,4,0:1:0:0:
271,215,90521,1,0,0:0:0:0:
421,345,91136,1,4,0:1:0:0:
222,366,91752,2,0,P|170:364|112:331,1,100,4|4,0:3|0:3,0:0:0:0:
70,261,92367,22,0,B|53:206|53:206|144:184|142:89,2,200,4|2|2,0:1|0:0|0:0,0:0:0:0:
257,339,94213,2,0,P|297:310|322:267,1,100,2|8,0:0|0:1,0:0:0:0:
341,168,94828,6,0,P|438:95|322:60,1,300,8|2,0:1|0:0,0:0:0:0:
250,130,96059,1,8,0:1:0:0:
61,191,96674,2,0,P|83:250|125:288,1,100,2|2,0:0|0:0,0:0:0:0:
193,328,97290,1,4,0:1:0:0:
377,250,97905,22,0,B|394:195|394:195|303:173|305:78,2,200,8|2|8,0:1|0:0|0:1,0:0:0:0:
190,321,99751,2,0,B|141:289|141:289|197:214|134:142,1,200,2|8,0:0|0:1,0:0:0:0:
330,78,100982,2,0,P|388:100|431:143,2,100,4|4|4,0:1|0:3|0:3,0:0:0:0:
141,144,102213,6,0,B|210:248|210:248|301:248,1,200,4|8,0:1|0:0,0:0:0:0:
485,248,103444,1,8,0:0:0:0:
380,77,104059,1,8,0:0:0:0:
188,19,104674,6,0,B|140:19|140:19|83:52,1,100,8|4,0:0|0:3,0:0:0:0:
71,142,105290,2,0,B|71:188|71:188|44:234,1,100,8|4,0:0|0:3,0:0:0:0:
14,330,105905,2,0,B|113:348|113:348|229:324,1,200,8|4,0:0|0:3,0:0:0:0:
399,263,107136,5,4,0:1:0:0:
357,67,107751,1,8,0:0:0:0:
156,67,108367,1,8,0:0:0:0:
113,263,108982,1,8,0:0:0:0:
304,320,109598,6,0,B|368:338|368:338|408:282|408:282|449:287|485:256,1,200,8|8,0:0|0:0,0:0:0:0:
359,100,110828,2,0,B|306:104|273:145|273:145|178:116|178:116|154:214|154:214|105:216|73:265,1,400,4|4,0:1|0:1,0:0:0:0:
159,316,112367,22,0,P|255:339|351:315,1,200,2|2,0:0|0:0,0:0:0:0:
427,250,113290,1,0,0:0:0:0:
256,141,113905,1,2,0:0:0:0:
85,250,114521,53,2,0:0:0:0:
256,352,115136,1,2,0:0:0:0:
401,215,115751,2,0,B|449:137|346:101|408:14,2,200,2|2|0,0:0|0:0|0:0,0:0:0:0:
334,290,117290,6,0,P|239:278|139:309,1,200,2|2,0:0|0:0,0:0:0:0:
61,368,118213,1,0,0:0:0:0:
34,169,118828,1,2,0:0:0:0:
194,49,119444,53,2,0:0:0:0:
382,116,120059,1,2,0:0:0:0:
263,276,120674,2,0,P|378:311|475:292,2,200,2|2|4,0:0|0:0|0:1,0:0:0:0:
202,195,122213,6,0,P|226:98|289:22,1,200,2|2,0:0|0:0,0:0:0:0:
388,5,123136,1,0,0:0:0:0:
493,174,123751,1,2,0:0:0:0:
384,342,124367,53,2,0:0:0:0:
256,187,124982,1,2,0:0:0:0:
128,342,125598,2,0,P|52:278|15:187,1,200,2|2,0:0|0:0,0:0:0:0:
159,48,126828,6,0,P|255:26|351:51,1,200,2|2,0:0|0:0,0:0:0:0:
497,187,128059,2,0,P|451:288|371:348,1,200,2|2,0:0|0:0,0:0:0:0:
181,360,129290,53,2,0:0:0:0:
163,160,129905,1,2,0:0:0:0:
334,55,130521,1,4,0:0:0:0:
350,253,131136,1,0,0:0:0:0:
177,351,131751,38,0,B|194:254|194:254|156:216|164:151,1,200,4|8,0:1|0:0,0:0:0:0:
337,63,132982,2,0,B|320:160|320:160|358:198|350:263,1,200,8|8,0:0|0:0,0:0:0:0:
177,351,134213,6,0,P|135:299|127:163,1,200,4|4,0:1|0:1,0:0:0:0:
298,72,135444,2,0,P|340:124|348:260,1,200,4|4,0:1|0:1,0:0:0:0:
176,351,136674,6,0,P|132:329|100:291,1,100,4|4,0:1|0:3,0:0:0:0:
58,199,137290,2,0,P|101:175|134:138,1,100,4|4,0:3|0:3,0:0:0:0:
168,43,137905,1,4,0:3:0:0:
346,133,138520,21,0,0:0:0:0:
396,326,139136,2,0,P|291:325|203:265,1,200,4|4,0:3|0:3,0:0:0:0:
116,100,140366,1,4,0:3:0:0:
504,195,141597,6,0,P|516:96|485:2,1,200,4|0,0:1|0:0,0:0:0:0:
286,23,142828,2,0,P|282:122|320:213,1,200,4|0,0:1|0:0,0:0:0:0:
456,360,144059,6,0,P|493:268|488:169,1,200,4|0,0:1|0:0,0:0:0:0:
351,22,145289,1,4,0:3:0:0:
312,218,145905,2,0,P|294:272|250:327,1,100,4|4,0:3|0:3,0:0:0:0:
183,358,146520,5,4,0:1:0:0:
26,232,147136,1,0,0:0:0:0:
53,34,147751,1,4,0:1:0:0:
239,106,148367,2,0,P|310:120|361:111,1,100,4|4,0:3|0:3,0:3:0:0:
433,91,148982,38,0,P|458:210|424:282,1,200,4|0,0:1|0:0,0:0:0:0:
226,299,150213,2,0,B|120:255|118:341|-12:278,1,200,0|0,0:0|0:0,0:0:0:0:
69,98,151444,6,0,P|163:72|281:107,2,200,0|4|0,0:0|0:3|0:0,0:0:0:0:
376,355,153905,6,0,B|410:282|410:282|374:221|389:135,1,200,4|0,0:1|0:0,0:0:0:0:
176,53,155136,2,0,P|149:171|188:284,1,200,0|0,0:0|0:0,0:0:0:0:
336,353,156367,21,4,0:3:0:0:
420,171,156982,1,4,0:3:0:0:
249,65,157598,2,0,P|217:58|144:63,2,100,4|4|4,0:3|0:3|0:3,0:3:0:0:
336,114,158521,37,2,0:0:0:0:
