osu file format v12

[General]
AudioFilename: GUMI.mp3
AudioLeadIn: 0
PreviewTime: 60644
Countdown: 0
SampleSet: Normal
StackLeniency: 0.7
Mode: 0
LetterboxInBreaks: 0

[Editor]
DistanceSpacing: 1.4
BeatDivisor: 4
GridSize: 4

[Metadata]
Title:Keppekishou
TitleUnicode:ケッペキショウ
Artist:scop
ArtistUnicode:すこっぷ
Creator:tutuhaha
Version:Insane
Source:
Tags:Megpoid GUMI Vocaloid
BeatmapID:202008
BeatmapSetID:70115

[Difficulty]
HPDrainRate:7
CircleSize:4
OverallDifficulty:7
ApproachRate:8
SliderMultiplier:1.8
SliderTickRate:1

[Events]
//Background and Video events
Video,0,"GUMI.flv"
0,0,"BG.JPG",0,0
//Break Periods
2,35653,39441
2,81128,89967
2,141759,145862
2,167022,176178
//Storyboard Layer 0 (Background)
//Storyboard Layer 1 (Fail)
//Storyboard Layer 2 (Pass)
//Storyboard Layer 3 (Foreground)
//Storyboard Sound Samples
//Background Colour Transformations
3,100,163,162,255

[TimingPoints]
2455,315.789473684211,4,1,1,60,1,0
2455,-133.333333333333,4,1,1,40,0,0
13981,-133.333333333333,4,2,1,10,0,0
14928,-133.333333333333,4,1,1,40,0,0
15244,315.789473684211,4,1,1,70,1,0
60402,-100,4,1,1,10,0,0
60717,-90.9090909090909,4,1,1,80,0,1
80928,-100,4,1,1,70,0,0
121349,-90.9090909090909,4,1,1,80,0,1
141559,-100,4,1,1,70,0,0
159244,-100,4,2,1,80,0,0
161771,-100,4,1,1,70,0,0
166192,-100,4,2,1,60,0,0
176928,-100,4,1,1,60,0,0
187034,-100,4,1,1,50,0,0
189244,-100,4,1,1,10,0,0
189559,-90.9090909090909,4,1,1,80,0,1
209770,-100,4,1,1,70,0,0

[Colours]
Combo1 : 255,53,53
Combo2 : 142,142,142
Combo3 : 44,164,252
Combo4 : 255,255,91

[HitObjects]
32,36,2455,2,0,L|84:96,1,67.5000025749208
68,168,2770,2,0,P|120:192|196:152,1,135.000005149842
244,104,3244,1,0,0:0:0:0:
244,104,3402,2,0,L|396:52,1,135.000005149842
498,227,4033,6,0,L|364:280,1,135.000005149842
252,216,4665,2,0,L|176:240,1,67.5000025749208
180,368,4981,2,0,L|256:344,1,67.5000025749208
284,128,5297,38,0,L|148:172,1,135.000005149842,0|0,0:0|0:0,0:0:0:0:
84,212,5770,1,0,0:0:0:0:
84,212,5928,2,0,P|32:184|24:104,1,135.000005149842
160,24,6560,5,0,0:0:0:0:
352,56,6876,1,0,0:0:0:0:
224,204,7191,1,0,0:0:0:0:
412,248,7507,2,0,L|488:264,1,67.5000025749208
440,336,7823,38,0,L|372:344,1,67.5000025749208
296,324,8139,2,0,P|284:288|252:260,1,67.5000025749208
192,228,8455,2,0,P|140:256|72:228,1,135.000005149842
52,152,8928,1,0,0:0:0:0:
88,80,9086,6,0,L|164:96,1,67.5000025749208
252,24,9402,2,0,L|176:4,1,67.5000025749208
256,128,9718,2,0,L|332:108,1,67.5000025749208
376,172,10033,2,0,L|452:152,1,67.5000025749208
416,272,10349,38,0,P|356:296|300:256,1,135.000005149842
232,216,10823,1,0,0:0:0:0:
164,172,10981,2,0,P|124:140|44:152,1,135.000005149842
64,336,11612,5,0,0:0:0:0:
45,152,11928,1,0,0:0:0:0:
88,84,12086,1,0,0:0:0:0:
160,48,12244,1,0,0:0:0:0:
256,192,12402,12,0,14297,0:0:0:0:
256,192,14928,5,8,0:0:0:0:
256,192,15244,2,0,P|340:192|380:108,1,180,4|8,0:0|0:0,0:0:0:0:
320,60,15717,1,0,0:0:0:0:
240,44,15875,2,0,P|176:68|160:176,1,180,0|8,0:0|0:0,0:0:0:0:
56,344,16507,38,0,L|224:272,1,180,0|8,0:0|0:0,0:0:0:0:
300,288,16980,1,0,0:0:0:0:
380,292,17138,2,0,P|468:272|484:164,1,180,0|8,0:0|0:0,0:0:0:0:
276,164,17770,6,0,P|344:152|388:52,1,180,0|8,0:0|0:0,0:0:0:0:
312,36,18244,1,0,0:0:0:0:
232,24,18401,2,0,L|136:48,1,90
56,120,18717,2,0,L|164:136,1,90,8|0,0:0|0:0,0:0:0:0:
172,212,19033,37,0,0:0:0:0:
236,260,19191,1,0,0:0:0:0:
316,268,19349,1,8,0:0:0:0:
396,248,19507,1,0,0:0:0:0:
452,192,19665,2,0,P|424:156|368:136,1,90
296,40,19980,1,8,0:0:0:0:
304,80,20059,1,0,0:0:0:0:
296,120,20138,1,0,0:0:0:0:
264,144,20217,1,0,0:0:0:0:
224,148,20296,6,0,P|176:92|72:116,1,180,4|8,0:0|0:0,0:0:0:0:
48,184,20770,1,0,0:0:0:0:
4,252,20928,2,0,P|72:268|128:176,1,180,0|8,0:0|0:0,0:0:0:0:
272,40,21559,38,0,L|440:60,1,135
432,88,21875,2,0,P|432:136|460:180,1,90,8|0,0:0|0:0,0:0:0:0:
456,252,22191,2,0,P|416:320|316:312,1,180,0|8,0:0|0:0,0:0:0:0:
132,248,22822,6,0,P|192:256|252:152,1,180,0|8,0:0|0:0,0:0:0:0:
220,96,23296,1,0,0:0:0:0:
176,28,23454,2,0,L|284:0,1,90
408,88,23770,2,0,L|300:72,1,90,8|0,0:0|0:0,0:0:0:0:
288,148,24086,37,0,0:0:0:0:
216,184,24244,1,0,0:0:0:0:
136,176,24401,1,8,0:0:0:0:
80,116,24559,1,0,0:0:0:0:
80,116,24638,1,0,0:0:0:0:
80,116,24717,2,0,P|120:40|232:44,1,180,0|8,0:0|0:0,0:0:0:0:
256,92,25191,1,0,0:0:0:0:
356,160,25349,37,4,0:0:0:0:
356,160,25507,2,0,P|328:108|420:8,1,180
468,104,25980,1,0,0:0:0:0:
468,104,26138,2,0,P|488:184|408:256,1,180
348,260,26612,5,0,0:0:0:0:
268,244,26770,1,0,0:0:0:0:
224,176,26928,1,8,0:0:0:0:
216,96,27086,2,0,P|172:32|60:68,1,180
48,120,27559,2,0,P|64:164|108:184,1,90,8|0,0:0|0:0,0:0:0:0:
180,280,27875,37,0,0:0:0:0:
180,280,28033,2,0,P|176:200|264:144,1,180
340,224,28507,1,0,0:0:0:0:
340,224,28665,2,0,P|340:304|264:364,1,180
184,368,29138,5,0,0:0:0:0:
108,340,29296,1,0,0:0:0:0:
60,276,29454,1,8,0:0:0:0:
56,196,29612,2,0,P|20:132|104:40,1,180
184,128,30086,2,0,P|156:140|96:124,1,90,8|0,0:0|0:0,0:0:0:0:
216,52,30401,37,4,0:0:0:0:
216,52,30559,2,0,P|265:136|229:200,1,180
160,300,31033,1,0,0:0:0:0:
160,300,31191,2,0,P|216:232|308:256,1,180
380,256,31665,5,0,0:0:0:0:
428,188,31822,1,0,0:0:0:0:
428,108,31980,1,8,0:0:0:0:
372,52,32138,2,0,P|328:100|216:64,1,180
156,32,32612,2,0,L|84:88,1,90,8|0,0:0|0:0,0:0:0:0:
68,212,32928,37,0,0:0:0:0:
68,212,33086,2,0,P|112:184|228:236,1,180
312,308,33559,1,0,0:0:0:0:
312,308,33717,2,0,P|312:232|424:188,1,180
428,108,34191,5,0,0:0:0:0:
412,28,34349,2,0,L|304:32,1,90,0|8,0:0|0:0,0:0:0:0:
200,28,34665,2,0,P|260:92|216:180,1,180
160,316,35138,2,0,P|224:256|312:300,1,180,8|4,0:0|0:0,0:0:0:0:
248,32,40191,38,0,L|136:68,1,90,8|0,0:0|0:0,0:0:0:0:
76,200,40507,2,0,L|172:168,1,90,4|0,0:0|0:0,0:0:0:0:
232,132,40822,2,0,P|288:116|340:140,1,90,8|0,0:0|0:0,0:0:0:0:
376,180,41138,1,0,0:0:0:0:
380,260,41296,1,0,0:0:0:0:
336,328,41454,1,8,0:0:0:0:
260,360,41612,6,0,P|208:284|272:196,1,180
232,132,42086,2,0,L|152:48,1,90,8|0,0:0|0:0,0:0:0:0:
60,116,42401,2,0,L|122:181,1,90
192,224,42717,2,0,P|216:264|208:324,1,90,8|0,0:0|0:0,0:0:0:0:
292,328,43033,37,0,0:0:0:0:
352,276,43191,1,0,0:0:0:0:
376,200,43349,2,0,P|376:140|352:104,1,90,8|0,0:0|0:0,0:0:0:0:
296,64,43665,2,0,P|240:56|192:76,1,90
128,156,43980,5,8,0:0:0:0:
128,156,44138,2,0,P|132:68|28:32,1,180
32,104,44612,1,8,0:0:0:0:
40,184,44770,1,0,0:0:0:0:
104,236,44928,2,0,L|220:252,1,90
256,352,45244,2,0,L|360:364,1,90,8|0,0:0|0:0,0:0:0:0:
376,336,45480,1,0,0:0:0:0:
404,308,45559,38,0,P|404:260|440:220,1,90,4|0,0:0|0:0,0:0:0:0:
440,148,45875,2,0,P|428:100|392:64,1,90,8|0,0:0|0:0,0:0:0:0:
324,40,46191,1,0,0:0:0:0:
244,48,46349,1,0,0:0:0:0:
172,84,46507,5,8,0:0:0:0:
172,84,46665,2,0,P|132:116|76:112,2,90
128,200,47138,1,8,0:0:0:0:
128,200,47296,2,0,P|216:232|296:160,1,180
300,68,47770,2,0,P|248:76|212:136,1,90,8|0,0:0|0:0,0:0:0:0:
208,232,48086,37,0,0:0:0:0:
208,232,48244,2,0,P|332:248|372:192,1,180
436,88,48717,1,0,0:0:0:0:
436,88,48875,2,0,P|388:96|360:136,1,90,0|8,0:0|0:0,0:0:0:0:
372,296,49191,6,0,P|300:276|268:160,1,180
256,32,49665,1,8,0:0:0:0:
256,32,49822,2,0,P|224:92|112:72,1,180
72,148,50296,2,0,L|16:200,2,60,8|0|0,0:0|0:0|0:0,0:0:0:0:
144,188,50612,38,0,L|264:252,1,120,4|0,0:0|0:0,0:0:0:0:
324,212,50928,2,0,P|352:192|388:192,2,60,8|0|0,0:0|0:0|0:0,0:0:0:0:
380,272,51244,2,0,P|360:284|320:288,2,60
448,228,51559,2,0,L|496:124,1,90,0|0,0:0|0:0,0:0:0:0:
384,44,51875,6,0,P|356:28|316:32,2,60
336,108,52191,2,0,P|288:132|196:104,1,120,8|0,0:0|0:0,0:0:0:0:
180,56,52507,2,0,L|88:92,1,90
32,224,52822,2,0,L|88:200,2,60
76,288,53138,38,0,L|216:316,1,120,4|0,0:0|0:0,0:0:0:0:
248,252,53454,2,0,P|264:224|296:212,2,60,8|0|0,0:0|0:0|0:0,0:0:0:0:
316,288,53770,2,0,P|300:316|268:328,2,60
364,224,54086,2,0,L|460:172,1,90
352,72,54401,6,0,P|328:44|296:36,2,60
288,112,54717,2,0,P|224:128|160:92,1,120,8|0,0:0|0:0,0:0:0:0:
120,52,55033,2,0,L|8:112,1,90
96,240,55349,2,0,L|32:256,2,60
156,184,55665,38,0,P|184:116|244:92,1,120,4|0,0:0|0:0,0:0:0:0:
292,48,55980,2,0,L|376:56,2,60,8|0|0,0:0|0:0|0:0,0:0:0:0:
308,132,56296,2,0,P|328:164|376:180,1,90
436,292,56612,2,0,P|400:340|348:348,1,90,0|0,0:0|0:0,0:0:0:0:
248,348,56928,6,0,P|216:284|128:268,1,120
92,244,57244,2,0,L|48:180,2,60,8|0|0,0:0|0:0|0:0,0:0:0:0:
144,180,57559,2,0,B|104:108|104:108|148:8,1,180,0|8,0:0|0:0,0:0:0:0:
256,80,58033,37,0,0:0:0:0:
256,80,58112,1,0,0:0:0:0:
256,80,58191,2,0,P|272:144|224:216,1,135,4|0,0:0|0:0,0:0:0:0:
216,232,58507,2,0,P|296:248|352:352,2,180,8|0|8,0:0|0:0|0:0,0:0:0:0:
176,304,59296,6,0,P|112:292|68:168,1,180
92,120,59770,1,8,0:0:0:0:
160,76,59928,1,0,0:0:0:0:
240,76,60086,1,0,0:0:0:0:
316,104,60717,6,0,P|368:120|400:160,1,99.0000030212403,4|0,0:0|0:0,0:0:0:0:
376,284,61033,2,0,P|296:276|256:200,1,148.50000453186,8|0,0:0|0:0,0:0:0:0:
224,196,61349,2,0,L|96:212,1,99.0000030212403
60,148,61665,1,8,0:0:0:0:
76,60,61822,6,0,P|200:32|248:96,1,198.000006042481
344,156,62296,1,8,0:0:0:0:
344,156,62454,2,0,P|436:152|484:44,1,198.000006042481
448,40,62849,1,0,0:0:0:0:
408,24,62928,2,0,L|272:40,1,99.0000030212403,8|0,0:0|0:0,0:0:0:0:
240,148,63244,22,0,P|140:144|104:236,1,198.000006042481,4|8,0:0|0:0,0:0:0:0:
44,292,63717,2,0,P|144:300|188:212,1,198.000006042481
240,148,64191,1,8,0:0:0:0:
288,72,64349,6,0,B|372:40|372:40|492:60,1,198.000006042481
472,148,64822,2,0,L|368:128,1,99.0000030212403,8|0,0:0|0:0,0:0:0:0:
340,156,65059,1,0,0:0:0:0:
304,184,65138,2,0,P|248:248|132:220,1,198.000006042481,0|8,0:0|0:0,0:0:0:0:
92,160,65612,1,0,0:0:0:0:
20,108,65770,6,0,P|132:80|180:152,2,198.000006042481,4|8|0,0:0|0:0|0:0,0:0:0:0:
92,160,66559,1,0,0:0:0:0:
160,216,66717,1,8,0:0:0:0:
240,256,66875,22,0,P|320:256|360:144,1,198.000006042481
268,32,67349,1,8,0:0:0:0:
268,32,67507,2,0,P|224:76|296:180,1,198.000006042481
320,100,67980,2,0,L|428:84,1,99.0000030212403,8|0,0:0|0:0,0:0:0:0:
456,216,68296,6,0,L|296:240,1,148.50000453186,4|0,0:0|0:0,0:0:0:0:
276,268,68612,1,8,0:0:0:0:
224,340,68770,2,0,P|160:312|160:176,1,198.000006042481
40,112,69244,5,8,0:0:0:0:
40,112,69401,2,0,P|96:184|216:144,1,198.000006042481,4|0,0:0|0:0,0:0:0:0:
224,84,69875,2,0,L|328:68,1,99.0000030212403,8|0,0:0|0:0,0:0:0:0:
428,148,70191,2,0,P|404:220|312:232,1,148.50000453186
324,280,70507,2,0,P|252:240|176:272,1,148.50000453186,8|0,0:0|0:0,0:0:0:0:
148,264,70822,21,4,0:0:0:0:
76,208,70980,1,0,0:0:0:0:
56,120,71138,2,0,P|104:48|208:60,2,198.000006042481,8|0|8,0:0|0:0|0:0,0:0:0:0:
76,208,71928,6,0,P|192:204|224:136,1,198.000006042481
316,240,72401,1,8,0:0:0:0:
316,240,72559,2,0,P|248:184|312:88,1,198.000006042481
360,44,73033,2,0,L|404:140,1,99.0000030212403,8|0,0:0|0:0,0:0:0:0:
420,176,73270,1,0,0:0:0:0:
436,216,73349,6,0,P|424:312|316:344,1,198.000006042481,4|8,0:0|0:0,0:0:0:0:
256,236,73822,2,0,P|228:136|124:136,1,198.000006042481
36,120,74296,21,8,0:0:0:0:
36,120,74454,2,0,P|64:200|176:208,1,198.000006042481
256,236,74928,2,0,L|364:248,1,99.0000030212403,8|0,0:0|0:0,0:0:0:0:
420,188,75244,2,0,P|352:136|420:28,1,198.000006042481,0|8,0:0|0:0,0:0:0:0:
488,124,75717,5,0,0:0:0:0:
488,124,75796,1,0,0:0:0:0:
488,124,75875,2,0,P|516:168|512:224,1,99.0000030212403,4|0,0:0|0:0,0:0:0:0:
452,280,76191,2,0,P|384:284|328:156,1,198.000006042481,8|0,0:0|0:0,0:0:0:0:
128,68,76822,5,8,0:0:0:0:
128,68,76980,2,0,P|124:128|-4:152,1,198.000006042481
28,248,77454,2,0,L|132:300,1,99.0000030212403,8|0,0:0|0:0,0:0:0:0:
308,232,77770,2,0,L|219:187,1,99.0000030212403
200,272,78086,2,0,L|288:316,1,99.0000030212403,8|0,0:0|0:0,0:0:0:0:
476,208,78401,6,0,P|368:164|440:16,1,297.000009063721
492,72,79033,1,8,0:0:0:0:
256,128,79349,5,0,0:0:0:0:
256,128,79507,2,0,P|160:120|116:216,1,198.000006042481
60,308,79980,2,0,P|136:320|172:304,1,99.0000030212403,8|0,0:0|0:0,0:0:0:0:
192,288,80217,1,0,0:0:0:0:
220,252,80296,2,0,P|304:220|384:300,1,198.000006042481,0|0,0:0|0:0,0:0:0:0:
460,84,80928,5,4,0:0:0:0:
436,40,90717,22,0,L|356:96,1,90,8|0,0:0|0:0,0:0:0:0:
292,132,91033,1,4,0:0:0:0:
292,132,91191,2,0,P|248:64|148:76,1,180
64,160,91665,1,0,0:0:0:0:
64,160,91822,2,0,P|152:192|208:136,1,180
388,48,92454,5,8,0:0:0:0:
292,224,92770,2,0,P|224:172|264:76,1,180
308,144,93244,2,0,L|424:124,1,90,8|0,0:0|0:0,0:0:0:0:
444,196,93559,37,0,0:0:0:0:
444,196,93717,2,0,P|428:288|324:308,1,180
236,340,94191,1,0,0:0:0:0:
236,340,94349,2,0,P|196:268|260:200,1,180
412,76,94980,6,0,P|336:116|260:60,1,180,8|0,0:0|0:0,0:0:0:0:
184,56,95454,2,0,L|80:84,1,90
48,144,95770,1,8,0:0:0:0:
60,224,95928,1,0,0:0:0:0:
128,264,96086,37,4,0:0:0:0:
128,264,96244,2,0,P|160:196|256:200,1,180
316,252,96717,2,0,L|428:240,1,90
424,320,97033,2,0,L|316:332,1,90,8|0,0:0|0:0,0:0:0:0:
252,340,97349,5,0,0:0:0:0:
196,284,97507,1,0,0:0:0:0:
208,204,97665,1,8,0:0:0:0:
268,152,97822,2,0,P|376:128|392:68,1,180
332,16,98296,2,0,L|224:28,1,90,8|0,0:0|0:0,0:0:0:0:
204,40,98533,1,0,0:0:0:0:
168,56,98612,1,0,0:0:0:0:
56,252,99875,38,0,L|160:192,1,90,4|0,0:0|0:0,0:0:0:0:
188,348,100191,2,0,L|219:232,1,90,8|0,0:0|0:0,0:0:0:0:
324,348,100507,2,0,L|292:232,1,90
456,252,100822,2,0,L|352:192,1,90,8|0,0:0|0:0,0:0:0:0:
312,104,101138,5,4,0:0:0:0:
296,184,101296,2,0,B|272:228|216:244|216:248,2,90,0|8|0,0:0|0:0|0:0,0:0:0:0:
224,148,101770,1,0,0:0:0:0:
156,193,101928,2,0,B|107:207|57:178|54:181,2,90,0|8|0,0:0|0:0|0:0,0:0:0:0:
148,112,102401,37,0,0:0:0:0:
216,68,102559,1,0,0:0:0:0:
292,96,102717,1,8,0:0:0:0:
304,176,102875,2,0,P|368:220|464:192,1,180
476,156,103270,1,0,0:0:0:0:
480,116,103349,2,0,P|464:60|424:40,1,90,8|0,0:0|0:0,0:0:0:0:
292,96,103665,6,0,P|344:68|360:24,2,90,0|0|8,0:0|0:0|0:0,0:0:0:0:
212,100,104138,1,0,0:0:0:0:
164,168,104296,2,0,P|220:184|262:165,2,90,0|0|8,0:0|0:0|0:0,0:0:0:0:
104,114,104770,1,0,0:0:0:0:
56,48,104928,37,0,0:0:0:0:
40,168,105086,2,0,P|84:232|32:332,1,180
108,264,105559,2,0,P|144:224|208:216,1,90
334,213,105875,2,0,P|368:224|404:264,1,90,8|0,0:0|0:0,0:0:0:0:
408,304,106112,1,0,0:0:0:0:
384,336,106191,6,0,P|336:344|280:300,1,90,4|0,0:0|0:0,0:0:0:0:
236,276,106507,1,8,0:0:0:0:
232,196,106665,1,0,0:0:0:0:
256,120,106822,2,0,P|284:84|336:76,1,90
408,76,107138,1,8,0:0:0:0:
480,116,107296,1,0,0:0:0:0:
492,196,107454,38,0,P|464:240|408:248,1,90
332,324,107770,1,8,0:0:0:0:
332,324,107928,2,0,P|296:256|368:176,1,180
300,116,108401,2,0,P|248:140|224:176,1,90,8|0,0:0|0:0,0:0:0:0:
172,272,108717,5,0,0:0:0:0:
172,272,108875,2,0,P|92:224|96:124,1,180
140,36,109349,1,0,0:0:0:0:
140,36,109507,2,0,P|212:104|196:188,1,180
256,236,109980,38,0,L|352:296,1,90
368,168,110296,2,0,L|291:120,1,90,8|0,0:0|0:0,0:0:0:0:
368,28,110612,2,0,L|464:88,1,90
440,148,110928,2,0,L|512:192,2,60,8|0|0,0:0|0:0|0:0,0:0:0:0:
368,188,111244,6,0,L|248:252,1,120,4|0,0:0|0:0,0:0:0:0:
188,212,111559,2,0,P|160:192|124:192,2,60,8|0|0,0:0|0:0|0:0,0:0:0:0:
132,272,111875,2,0,P|152:284|192:288,2,60
64,228,112191,2,0,L|16:124,1,90
128,44,112507,38,0,P|156:28|196:32,2,60
176,108,112822,2,0,P|224:132|316:104,1,120,8|0,0:0|0:0,0:0:0:0:
332,56,113138,2,0,L|424:92,1,90
480,224,113454,2,0,L|424:200,2,60
436,288,113770,6,0,L|296:316,1,120,4|0,0:0|0:0,0:0:0:0:
264,252,114086,2,0,P|248:224|216:212,2,60,8|0|0,0:0|0:0|0:0,0:0:0:0:
196,288,114401,2,0,P|212:316|244:328,2,60
148,224,114717,2,0,L|52:172,1,90
160,72,115033,38,0,P|184:44|216:36,2,60
224,112,115349,2,0,P|288:128|352:92,1,120,8|0,0:0|0:0,0:0:0:0:
392,52,115665,2,0,L|504:112,1,90
416,240,115980,2,0,L|480:256,2,60
356,184,116296,6,0,P|328:116|268:92,1,120
220,48,116612,2,0,L|136:56,2,60,8|0|0,0:0|0:0|0:0,0:0:0:0:
216,124,116928,2,0,L|132:132,2,60
212,200,117244,2,0,L|128:208,2,60
236,276,117559,38,0,P|303:298|377:247,1,120
396,220,117875,2,0,L|455:214,2,60,8|0|0,0:0|0:0|0:0,0:0:0:0:
376,144,118191,2,0,L|316:52,1,90
185,68,118507,2,0,L|136:144,1,90
88,348,118822,6,0,P|180:336|188:240,1,180,4|8,0:0|0:0,0:0:0:0:
96,196,119296,1,0,0:0:0:0:
96,196,119454,2,0,P|168:224|252:156,1,180,0|8,0:0|0:0,0:0:0:0:
352,228,119928,38,0,P|276:172|296:88,1,180
356,144,120401,2,0,P|420:88|500:120,1,180,8|0,0:0|0:0,0:0:0:0:
156,328,121349,6,0,P|100:296|88:216,1,148.50000453186,4|0,0:0|0:0,0:0:0:0:
84,172,121665,2,0,P|164:184|228:88,2,198.000006042481,8|0|8,0:0|0:0|0:0,0:0:0:0:
136,100,122454,6,0,P|192:16|288:32,1,198.000006042481
360,60,122928,2,0,L|440:132,1,99.0000030212403,8|0,0:0|0:0,0:0:0:0:
388,204,123244,2,0,L|468:276,1,99.0000030212403
400,336,123559,2,0,L|308:256,1,99.0000030212403,8|0,0:0|0:0,0:0:0:0:
292,240,123796,1,0,0:0:0:0:
256,212,123875,6,0,P|168:228|116:136,1,198.000006042481,4|8,0:0|0:0,0:0:0:0:
92,48,124349,1,0,0:0:0:0:
92,48,124507,2,0,P|157:39|202:152,1,198.000006042481,0|8,0:0|0:0,0:0:0:0:
196,280,124980,22,0,P|288:296|348:200,1,198.000006042481
348,132,125454,1,8,0:0:0:0:
300,56,125612,1,0,0:0:0:0:
216,32,125770,2,0,P|140:32|104:104,1,148.50000453186
60,100,126086,2,0,P|96:156|48:224,1,148.50000453186,8|0,0:0|0:0,0:0:0:0:
20,244,126401,5,4,0:0:0:0:
84,304,126559,1,0,0:0:0:0:
168,332,126717,2,0,P|224:264|328:288,2,198.000006042481,8|0|8,0:0|0:0|0:0,0:0:0:0:
256,344,127507,6,0,P|360:364|420:296,1,198.000006042481
388,172,127980,1,8,0:0:0:0:
388,172,128138,2,0,P|332:152|352:28,1,198.000006042481
480,56,128612,2,0,L|376:100,1,99.0000030212403,8|0,0:0|0:0,0:0:0:0:
300,124,128928,22,0,P|236:84|136:156,1,198.000006042481,0|8,0:0|0:0,0:0:0:0:
140,232,129401,1,0,0:0:0:0:
200,296,129559,1,0,0:0:0:0:
288,316,129717,1,0,0:0:0:0:
372,284,129875,1,8,0:0:0:0:
392,196,130033,6,0,P|292:200|248:100,1,198.000006042481,4|0,0:0|0:0,0:0:0:0:
344,32,130507,2,0,P|360:84|324:132,1,99.0000030212403,8|0,0:0|0:0,0:0:0:0:
312,156,130744,1,0,0:0:0:0:
280,188,130822,2,0,P|212:212|216:324,1,198.000006042481,0|8,0:0|0:0,0:0:0:0:
292,276,131296,1,0,0:0:0:0:
164,236,131454,6,0,L|40:200,1,99.0000030212403,4|0,0:0|0:0,0:0:0:0:
108,128,131770,2,0,L|-16:92,1,99.0000030212403,8|0,0:0|0:0,0:0:0:0:
132,44,132086,2,0,P|216:80|308:4,1,198.000006042481,0|8,0:0|0:0,0:0:0:0:
276,160,132559,22,0,P|348:108|452:152,2,198.000006042481
252,248,133349,1,0,0:0:0:0:
172,284,133507,1,0,0:0:0:0:
88,260,133665,1,8,0:0:0:0:
56,176,133822,1,0,0:0:0:0:
108,104,133980,6,0,P|188:120|256:32,1,198.000006042481,4|8,0:0|0:0,0:0:0:0:
316,156,134454,2,0,P|288:68|368:16,1,198.000006042481
452,116,134928,1,8,0:0:0:0:
404,192,135086,6,0,P|376:256|248:260,1,198.000006042481
91,195,135559,2,0,L|188:216,1,99.0000030212403,8|0,0:0|0:0,0:0:0:0:
300,107,135875,2,0,L|204:128,1,99.0000030212403
92,196,136191,1,8,0:0:0:0:
196,280,136349,21,0,0:0:0:0:
196,280,136428,1,0,0:0:0:0:
196,280,136507,2,0,P|228:240|292:232,1,99.0000030212403,4|0,0:0|0:0,0:0:0:0:
368,324,136822,2,0,P|312:268|364:172,2,198.000006042481,8|0|8,0:0|0:0|0:0,0:0:0:0:
440,212,137612,6,0,P|432:120|336:84,1,198.000006042481,0|0,0:0|0:0,0:0:0:0:
256,184,138086,1,8,0:0:0:0:
256,184,138243,2,0,P|200:132|260:28,1,198.000006042481
340,128,138717,2,0,L|400:212,1,99.0000030212403,8|0,0:0|0:0,0:0:0:0:
448,284,139033,21,0,0:0:0:0:
184,312,139507,1,0,0:0:0:0:
184,312,139665,1,0,0:0:0:0:
88,112,139980,1,8,0:0:0:0:
160,168,140138,6,0,P|260:180|296:88,1,198.000006042481
376,56,140612,1,8,0:0:0:0:
424,132,140770,1,0,0:0:0:0:
420,220,140928,1,0,0:0:0:0:
256,292,141243,1,0,0:0:0:0:
256,292,141559,5,4,0:0:0:0:
60,128,146612,6,0,P|120:64|228:76,1,180,4|8,0:0|0:0,0:0:0:0:
324,96,147086,2,0,P|268:156|168:152,2,180,0|8|0,0:0|0:0|0:0,0:0:0:0:
404,104,147875,21,0,0:0:0:0:
424,184,148033,1,0,0:0:0:0:
384,256,148191,1,8,0:0:0:0:
308,288,148349,1,0,0:0:0:0:
236,324,148507,2,0,L|148:236,1,90
228,152,148822,2,0,L|140:64,1,90,8|0,0:0|0:0,0:0:0:0:
56,124,149138,6,0,L|-16:172,2,60,4|0|0,0:0|0:0|0:0,0:0:0:0:
120,172,149454,2,0,L|103:256,2,60,8|0|0,0:0|0:0|0:0,0:0:0:0:
196,156,149770,2,0,L|244:228,2,60
240,92,150086,2,0,L|324:108,2,60,8|0|0,0:0|0:0|0:0,0:0:0:0:
148,80,150401,6,0,L|63:63,2,60
159,159,150717,2,0,L|87:206,2,60,8|0|0,0:0|0:0|0:0,0:0:0:0:
228,192,151033,2,0,P|312:236|408:184,1,180,0|8,0:0|0:0,0:0:0:0:
412,132,151507,1,0,0:0:0:0:
432,52,151665,22,0,P|380:52|340:84,1,90,4|0,0:0|0:0,0:0:0:0:
332,152,151980,2,0,P|300:192|252:200,1,90,8|0,0:0|0:0,0:0:0:0:
184,204,152296,1,0,0:0:0:0:
108,172,152454,1,0,0:0:0:0:
64,104,152612,1,8,0:0:0:0:
32,32,152770,1,0,0:0:0:0:
140,88,152928,6,0,P|184:104|236:100,1,90
296,144,153243,2,0,P|344:128|380:84,1,90,8|0,0:0|0:0,0:0:0:0:
436,52,153559,1,0,0:0:0:0:
448,132,153717,1,0,0:0:0:0:
412,204,153875,1,8,0:0:0:0:
344,248,154033,1,0,0:0:0:0:
276,292,154191,6,0,L|160:320,1,90
72,280,154507,2,0,P|136:240|120:116,1,180,12|0,0:0|0:0,0:0:0:0:
80,92,154980,1,0,0:0:0:0:
232,36,155296,21,0,0:0:0:0:
232,36,155454,1,4,0:0:0:0:
388,76,155770,1,8,0:0:0:0:
388,76,155928,1,4,0:0:0:0:
488,204,156243,1,0,0:0:0:0:
488,204,156401,2,0,L|432:292,1,90,8|0,0:0|0:0,0:0:0:0:
392,348,156717,6,0,P|356:280|240:288,1,180,4|8,0:0|0:0,0:0:0:0:
180,284,157191,1,0,0:0:0:0:
104,256,157349,2,0,L|32:168,1,90
76,68,157665,6,0,P|136:120|248:80,1,180,8|0,0:0|0:0,0:0:0:0:
296,60,158138,1,0,0:0:0:0:
368,24,158296,2,0,L|488:64,1,90,8|0,0:0|0:0,0:0:0:0:
492,168,158612,2,0,P|416:152|336:232,1,180,0|8,0:0|0:0,0:0:0:0:
276,316,159086,21,0,0:0:0:0:
276,316,159165,1,0,0:0:0:0:
276,316,159243,2,0,L|208:244,1,90,2|0,0:0|0:0,0:0:0:0:
136,280,159559,2,0,L|44:216,1,90,2|0,0:0|0:0,0:0:0:0:
36,152,159875,2,0,P|124:116|96:28,1,180,2|2,0:0|0:0,0:0:0:0:
192,20,160349,1,0,0:0:0:0:
256,68,160507,6,0,L|348:120,1,90,2|0,0:0|0:0,0:0:0:0:
408,80,160822,2,0,L|496:160,1,90,2|0,0:0|0:0,0:0:0:0:
464,220,161138,1,2,0:0:0:0:
400,272,161296,1,0,0:0:0:0:
320,272,161454,1,2,0:0:0:0:
244,240,161612,5,0,0:0:0:0:
244,240,161691,1,0,0:0:0:0:
244,240,161770,2,0,P|200:168|96:176,1,180,4|8,0:0|0:0,0:0:0:0:
84,324,162401,1,0,0:0:0:0:
284,360,162717,1,8,0:0:0:0:
264,160,163033,21,0,0:0:0:0:
444,68,163349,1,8,0:0:0:0:
204,36,163665,2,0,P|132:48|116:168,1,180,0|8,0:0|0:0,0:0:0:0:
72,216,164138,1,0,0:0:0:0:
32,288,164296,38,0,L|220:296,1,180,4|8,0:0|0:0,0:0:0:0:
292,300,164770,1,0,0:0:0:0:
448,172,165086,1,0,0:0:0:0:
368,188,165243,1,8,0:0:0:0:
288,204,165401,2,0,L|112:140,1,180
44,112,165875,1,8,0:0:0:0:
244,76,166191,6,0,P|300:44|412:84,2,180,0|2|4,0:0|0:0|0:0,0:0:0:0:
56,40,176928,38,0,P|144:68|152:168,1,180,4|8,0:0|0:0,0:0:0:0:
140,224,177401,1,0,0:0:0:0:
92,288,177559,2,0,P|48:256|40:200,1,90
52,144,177875,1,8,0:0:0:0:
120,100,178033,6,0,P|216:96|256:28,1,180
336,36,178507,1,8,0:0:0:0:
404,76,178665,1,0,0:0:0:0:
448,144,178822,2,0,L|496:224,1,90
424,320,179138,2,0,L|377:242,1,90,8|0,0:0|0:0,0:0:0:0:
356,208,179375,1,0,0:0:0:0:
336,172,179454,38,0,P|300:124|192:156,1,180,4|8,0:0|0:0,0:0:0:0:
148,212,179928,1,0,0:0:0:0:
156,292,180086,2,0,P|212:292|248:260,1,90
256,196,180401,1,8,0:0:0:0:
224,120,180559,6,0,P|136:92|128:0,1,180
204,16,181033,1,8,0:0:0:0:
280,40,181191,1,0,0:0:0:0:
340,92,181349,2,0,P|396:96|436:120,1,90
464,228,181665,2,0,P|408:224|368:200,1,90,8|0,0:0|0:0,0:0:0:0:
340,200,181901,1,0,0:0:0:0:
300,196,181980,38,0,P|244:204|220:324,1,180,4|8,0:0|0:0,0:0:0:0:
276,360,182454,1,0,0:0:0:0:
356,344,182612,2,0,P|396:324|416:272,1,90
420,204,182928,1,8,0:0:0:0:
400,124,183086,6,0,P|320:128|272:32,1,180
188,56,183559,1,8,0:0:0:0:
116,92,183717,1,0,0:0:0:0:
68,156,183875,2,0,L|24:264,1,90
206,346,184191,2,0,L|172:264,1,90,8|0,0:0|0:0,0:0:0:0:
176,224,184428,1,0,0:0:0:0:
188,184,184507,38,0,P|236:120|328:128,1,180,4|8,0:0|0:0,0:0:0:0:
380,192,184980,1,0,0:0:0:0:
400,272,185138,1,0,0:0:0:0:
208,348,185454,1,8,0:0:0:0:
136,312,185612,6,0,P|64:272|80:168,1,180
72,104,186086,2,0,P|120:96|152:56,1,90,8|0,0:0|0:0,0:0:0:0:
212,16,186401,1,0,0:0:0:0:
436,112,186717,1,8,0:0:0:0:
396,184,186875,1,0,0:0:0:0:
324,224,187033,38,0,P|248:232|180:148,1,180,4|0,0:0|0:0,0:0:0:0:
192,80,187507,1,0,0:0:0:0:
248,24,187665,1,0,0:0:0:0:
436,180,187980,5,8,0:0:0:0:
412,256,188138,2,0,P|368:312|256:328,1,180
268,248,188612,2,0,P|312:240|344:200,1,90
372,180,188849,1,0,0:0:0:0:
388,144,188928,1,0,0:0:0:0:
196,280,189559,6,0,P|144:264|112:224,1,99.0000030212403,4|0,0:0|0:0,0:0:0:0:
136,100,189875,2,0,P|216:108|256:184,1,148.50000453186,8|0,0:0|0:0,0:0:0:0:
288,188,190191,2,0,L|416:172,1,99.0000030212403
452,236,190507,1,8,0:0:0:0:
436,324,190665,6,0,P|312:352|264:288,1,198.000006042481
168,228,191138,1,8,0:0:0:0:
168,228,191296,2,0,P|76:232|28:340,1,198.000006042481
64,344,191691,1,0,0:0:0:0:
104,360,191770,2,0,L|240:344,1,99.0000030212403,8|0,0:0|0:0,0:0:0:0:
272,236,192086,22,0,P|372:240|408:148,1,198.000006042481,4|8,0:0|0:0,0:0:0:0:
468,92,192559,2,0,P|368:84|324:172,1,198.000006042481
272,236,193033,1,8,0:0:0:0:
224,312,193191,6,0,B|140:344|140:344|20:324,1,198.000006042481
40,236,193665,2,0,L|144:256,1,99.0000030212403,8|0,0:0|0:0,0:0:0:0:
172,228,193901,1,0,0:0:0:0:
208,200,193980,2,0,P|264:136|380:164,1,198.000006042481,0|8,0:0|0:0,0:0:0:0:
376,304,194454,5,0,0:0:0:0:
376,304,194533,1,0,0:0:0:0:
376,304,194612,2,0,P|332:268|308:216,1,99.0000030212403
288,100,194928,2,0,P|224:48|104:80,1,198.000006042481,8|0,0:0|0:0,0:0:0:0:
80,152,195401,1,0,0:0:0:0:
108,236,195559,1,8,0:0:0:0:
184,280,195717,22,0,P|232:228|172:112,1,198.000006042481
120,68,196191,1,8,0:0:0:0:
40,32,196349,2,0,P|8:108|64:200,1,198.000006042481
152,208,196822,2,0,P|204:184|224:136,1,99.0000030212403,8|0,0:0|0:0,0:0:0:0:
308,44,197138,6,0,P|328:104|456:120,1,198.000006042481,4|8,0:0|0:0,0:0:0:0:
472,212,197612,2,0,P|440:304|336:308,1,198.000006042481
216,312,198086,5,8,0:0:0:0:
216,312,198243,2,0,P|224:224|336:188,1,198.000006042481,4|0,0:0|0:0,0:0:0:0:
384,128,198717,2,0,L|272:60,1,99.0000030212403,8|0,0:0|0:0,0:0:0:0:
139,76,199033,2,0,P|200:112|212:196,1,148.50000453186
204,228,199349,2,0,P|156:280|64:276,1,148.50000453186,8|0,0:0|0:0,0:0:0:0:
48,256,199665,21,4,0:0:0:0:
32,168,199822,1,0,0:0:0:0:
84,96,199980,2,0,P|188:108|248:20,2,198.000006042481,8|0|8,0:0|0:0|0:0,0:0:0:0:
32,168,200770,6,0,P|44:100|160:40,1,198.000006042481
216,156,201243,1,8,0:0:0:0:
216,156,201401,2,0,P|196:224|72:276,1,198.000006042481
124,148,201875,2,0,P|136:100|184:68,1,99.0000030212403,8|0,0:0|0:0,0:0:0:0:
216,60,202112,1,0,0:0:0:0:
260,72,202191,6,0,P|308:136|260:244,1,198.000006042481,4|8,0:0|0:0,0:0:0:0:
184,340,202665,2,0,P|116:312|76:200,1,198.000006042481
196,140,203138,21,8,0:0:0:0:
196,140,203296,2,0,P|304:160|376:68,1,198.000006042481
452,128,203770,2,0,L|400:244,1,99.0000030212403,8|0,0:0|0:0,0:0:0:0:
332,260,204086,2,0,P|256:256|200:388,1,198.000006042481,0|8,0:0|0:0,0:0:0:0:
324,348,204559,5,0,0:0:0:0:
324,348,204638,1,0,0:0:0:0:
324,348,204717,2,0,P|380:336|412:304,1,99.0000030212403,4|0,0:0|0:0,0:0:0:0:
436,224,205033,1,8,0:0:0:0:
424,136,205191,1,0,0:0:0:0:
376,60,205349,2,0,P|340:28|288:24,2,99.0000030212403,0|0|8,0:0|0:0|0:0,0:0:0:0:
304,112,205822,6,0,P|240:176|128:136,1,198.000006042481
36,72,206296,1,8,0:0:0:0:
36,72,206454,2,0,P|88:112|60:244,1,198.000006042481
148,284,206928,1,8,0:0:0:0:
224,328,207086,1,0,0:0:0:0:
304,372,207243,5,0,0:0:0:0:
496,112,207717,1,0,0:0:0:0:
472,196,207875,1,0,0:0:0:0:
116,196,208349,6,0,P|136:96|228:64,1,198.000006042481,4|0,0:0|0:0,0:0:0:0:
288,176,208822,2,0,P|268:224|204:236,1,99.0000030212403,8|0,0:0|0:0,0:0:0:0:
196,276,209059,1,0,0:0:0:0:
160,300,209138,2,8,P|76:300|8:192,1,198.000006042481
204,68,209770,6,0,P|312:48|360:104,1,180,4|8,0:0|0:0,0:0:0:0:
352,172,210243,1,0,0:0:0:0:
364,252,210401,2,0,P|292:228|288:128,1,180,0|8,0:0|0:0,0:0:0:0:
464,228,211033,38,0,P|460:288|360:352,1,180,0|8,0:0|0:0,0:0:0:0:
292,320,211507,1,0,0:0:0:0:
224,276,211665,2,0,L|64:160,1,180,0|8,0:0|0:0,0:0:0:0:
240,48,212296,6,0,P|308:92|404:40,1,180,0|8,0:0|0:0,0:0:0:0:
460,104,212770,1,0,0:0:0:0:
452,184,212928,2,0,L|344:224,1,90
255,260,213243,2,0,L|340:292,1,90,8|0,0:0|0:0,0:0:0:0:
420,296,213559,37,0,0:0:0:0:
384,224,213717,1,0,0:0:0:0:
328,168,213875,1,8,0:0:0:0:
256,132,214033,1,0,0:0:0:0:
176,120,214191,2,0,P|120:96|96:64,1,90
212,24,214507,1,8,0:0:0:0:
252,28,214586,1,0,0:0:0:0:
288,52,214665,1,0,0:0:0:0:
312,84,214743,1,0,0:0:0:0:
320,124,214822,6,0,P|384:164|484:120,1,180,4|8,0:0|0:0,0:0:0:0:
480,48,215296,1,0,0:0:0:0:
404,80,215454,2,0,P|384:148|448:244,1,180,0|8,0:0|0:0,0:0:0:0:
268,348,216086,38,0,L|124:312,1,135
104,288,216401,2,0,P|104:236|64:192,1,90,8|0,0:0|0:0,0:0:0:0:
52,132,216717,2,0,P|128:84|216:132,1,180,0|8,0:0|0:0,0:0:0:0:
324,280,217349,6,0,P|396:296|480:212,1,180,0|8,0:0|0:0,0:0:0:0:
452,156,217822,1,0,0:0:0:0:
388,108,217980,2,0,L|448:40,1,90
324,36,218296,2,0,L|264:104,1,90,8|0,0:0|0:0,0:0:0:0:
184,112,218612,37,0,0:0:0:0:
116,156,218770,1,0,0:0:0:0:
92,232,218928,1,8,0:0:0:0:
96,312,219086,6,0,L|48:352,2,45,4|0|0,0:0|0:0|0:0,0:0:0:0:
208,356,219401,1,0,0:0:0:0:
192,236,219559,1,8,0:0:0:0:
