osu file format v12

[General]
AudioFilename: GUMI.mp3
AudioLeadIn: 0
PreviewTime: 60644
Countdown: 0
SampleSet: Normal
StackLeniency: 0.7
Mode: 0
LetterboxInBreaks: 0

[Editor]
DistanceSpacing: 0.8
BeatDivisor: 4
GridSize: 4

[Metadata]
Title:Keppekishou
TitleUnicode:ケッペキショウ
Artist:scop
ArtistUnicode:すこっぷ
Creator:tutuhaha
Version:Hard
Source:
Tags:Megpoid GUMI Vocaloid
BeatmapID:204445
BeatmapSetID:70115

[Difficulty]
HPDrainRate:5
CircleSize:4
OverallDifficulty:6
ApproachRate:7
SliderMultiplier:1.4
SliderTickRate:1

[Events]
//Background and Video events
0,0,"BG.JPG",0,0
Video,0,"GUMI.flv"
//Break Periods
2,35654,39291
2,81128,89817
2,141759,145712
2,167022,176028
//Storyboard Layer 0 (Background)
//Storyboard Layer 1 (Fail)
//Storyboard Layer 2 (Pass)
//Storyboard Layer 3 (Foreground)
//Storyboard Sound Samples
//Background Colour Transformations
3,100,163,162,255

[TimingPoints]
2455,315.789473684211,4,1,1,60,1,0
2455,-133.333333333333,4,1,1,40,0,0
13981,-133.333333333333,4,2,1,10,0,0
14928,-133.333333333333,4,1,1,40,0,0
15244,315.789473684211,4,1,1,70,1,0
60402,-100,4,1,1,10,0,0
60717,-100,4,1,1,80,0,1
80928,-100,4,1,1,70,0,0
121034,-100,4,1,1,10,0,0
121349,-100,4,1,1,80,0,1
141559,-100,4,1,1,70,0,0
159244,-100,4,2,1,80,0,0
161771,-100,4,1,1,70,0,0
166192,-100,4,2,1,60,0,0
176928,-100,4,1,1,60,0,0
187034,-100,4,1,1,50,0,0
189244,-100,4,1,1,10,0,0
189559,-100,4,1,1,80,0,1
209770,-100,4,1,1,70,0,0

[Colours]
Combo1 : 255,53,53
Combo2 : 142,142,142
Combo3 : 44,164,252
Combo4 : 255,255,91

[HitObjects]
88,84,2455,2,0,L|136:104,2,52.5000020027161
120,228,3086,2,0,L|72:208,2,52.5000020027161
0,312,3718,6,0,L|108:356,2,105.000004005432
28,168,4665,2,0,P|52:132|80:124,1,52.5000020027161
108,72,4981,2,0,P|148:68|168:48,1,52.5000020027161
228,44,5297,38,0,P|288:32|332:52,1,105.000004005432
412,168,5928,2,0,P|352:180|308:160,1,105.000004005432
164,156,6560,5,0,0:0:0:0:
164,156,6876,1,0,0:0:0:0:
164,156,7191,1,0,0:0:0:0:
72,272,7507,38,0,L|132:316,2,52.5000020027161
88,124,8139,2,0,L|45:92,2,52.5000020027161
204,32,8770,6,0,L|300:84,2,105.000004005432
204,180,9718,2,0,P|200:216|212:244,1,52.5000020027161
244,292,10033,2,0,P|276:308|316:312,1,52.5000020027161
360,284,10349,38,0,P|368:224|420:184,1,105.000004005432
396,48,10981,2,0,P|336:60|300:112,1,105.000004005432
164,64,11612,5,0,0:0:0:0:
108,200,11928,2,0,L|60:240,2,52.5000020027161
256,192,12323,12,0,14297,0:0:0:0:
256,192,14928,5,8,0:0:0:0:
256,192,15244,2,0,P|232:132|144:120,1,140,4|8,0:0|0:0,0:0:0:0:
88,212,15875,1,0,0:0:0:0:
96,336,16191,1,8,0:0:0:0:
220,320,16507,38,0,P|284:352|360:316,1,140,0|8,0:0|0:0,0:0:0:0:
360,204,17138,1,0,0:0:0:0:
460,124,17454,6,0,P|440:68|352:52,2,140,8|0|8,0:0|0:0|0:0,0:0:0:0:
340,168,18401,2,0,L|252:276,1,140,0|8,0:0|0:0,0:0:0:0:
148,352,19033,38,0,P|92:284|100:204,1,140,0|8,0:0|0:0,0:0:0:0:
44,116,19665,1,0,0:0:0:0:
80,72,19822,1,0,0:0:0:0:
132,56,19980,1,8,0:0:0:0:
188,60,20138,1,0,0:0:0:0:
236,84,20296,6,0,P|296:96|372:52,1,140,4|8,0:0|0:0,0:0:0:0:
452,152,20928,1,0,0:0:0:0:
420,272,21244,1,8,0:0:0:0:
316,344,21559,38,0,P|280:296|296:212,1,140,0|8,0:0|0:0,0:0:0:0:
324,176,22033,1,0,0:0:0:0:
360,132,22191,2,0,L|380:64,2,70,0|0|8,0:0|0:0|0:0,0:0:0:0:
240,96,22822,6,0,P|200:48|112:56,1,140,0|8,0:0|0:0,0:0:0:0:
72,160,23454,1,0,0:0:0:0:
112,280,23770,1,8,0:0:0:0:
224,336,24086,37,0,0:0:0:0:
276,316,24244,1,0,0:0:0:0:
308,268,24401,1,8,0:0:0:0:
320,212,24559,1,0,0:0:0:0:
308,156,24717,2,0,P|292:96|356:44,1,140,0|8,0:0|0:0,0:0:0:0:
404,172,25349,38,0,P|464:208|476:272,1,140,4|8,0:0|0:0,0:0:0:0:
444,320,25822,1,0,0:0:0:0:
392,344,25980,2,0,L|236:344,1,140,0|8,0:0|0:0,0:0:0:0:
116,304,26612,6,0,P|172:256|168:172,1,140,0|8,0:0|0:0,0:0:0:0:
124,172,27086,2,0,L|264:120,1,140
292,80,27559,2,0,P|332:68|368:72,1,70,8|0,0:0|0:0,0:0:0:0:
416,64,27875,38,0,P|412:120|484:176,1,140,0|8,0:0|0:0,0:0:0:0:
424,292,28507,1,0,0:0:0:0:
308,344,28822,1,8,0:0:0:0:
180,348,29138,6,0,P|140:284|164:212,1,140,0|8,0:0|0:0,0:0:0:0:
200,192,29612,2,0,P|220:128|196:52,1,140
24,68,30244,37,0,0:0:0:0:
24,68,30401,2,0,P|52:108|148:112,1,140,4|8,0:0|0:0,0:0:0:0:
260,80,31033,1,0,0:0:0:0:
384,52,31349,1,8,0:0:0:0:
400,176,31665,6,0,P|412:240|468:288,1,140,0|8,0:0|0:0,0:0:0:0:
412,300,32138,2,0,L|260:320,1,140
216,324,32612,1,8,0:0:0:0:
108,212,32928,38,0,P|164:208|216:128,2,140,0|8|0,0:0|0:0|0:0,0:0:0:0:
24,60,33875,1,8,0:0:0:0:
24,60,34033,2,0,P|72:120|156:128,1,140
184,116,34507,5,8,0:0:0:0:
236,92,34665,2,0,P|288:60|368:80,1,140
408,108,35138,1,8,0:0:0:0:
464,256,35454,1,4,0:0:0:0:
352,292,40191,38,0,L|252:268,2,70,8|0|4,0:0|0:0|0:0,0:0:0:0:
400,264,40665,2,0,P|404:184|344:124,1,140
328,100,41138,1,0,0:0:0:0:
276,76,41296,2,0,L|120:52,1,140
88,172,41928,5,8,0:0:0:0:
164,272,42244,2,0,P|248:260|300:200,1,140
280,168,42717,1,8,0:0:0:0:
184,88,43033,38,0,P|156:72|104:68,1,70,0|0,0:0|0:0,0:0:0:0:
108,204,43507,1,0,0:0:0:0:
108,204,43665,2,0,P|144:224|192:224,2,70,0|0|8,0:0|0:0|0:0,0:0:0:0:
76,252,44138,6,0,P|116:316|200:328,1,140
228,320,44612,2,0,P|248:268|336:232,1,140,8|0,0:0|0:0,0:0:0:0:
376,220,45086,1,0,0:0:0:0:
456,84,45401,37,8,0:0:0:0:
456,84,45559,2,0,P|380:88|320:36,1,140,4|8,0:0|0:0,0:0:0:0:
216,112,46191,2,0,P|152:100|68:136,1,140,0|8,0:0|0:0,0:0:0:0:
48,168,46665,6,0,P|112:192|136:272,1,140
152,308,47138,1,8,0:0:0:0:
176,360,47296,2,0,P|244:360|304:320,1,140
328,272,47770,1,8,0:0:0:0:
368,140,48086,38,0,P|396:132|440:104,1,70
320,56,48559,1,0,0:0:0:0:
320,56,48717,2,0,P|284:40|236:40,2,70,0|0|8,0:0|0:0|0:0,0:0:0:0:
288,104,49191,6,0,P|224:128|200:212,1,140
208,244,49665,1,8,0:0:0:0:
232,296,49822,2,0,P|316:320|372:296,1,140
404,264,50296,1,8,0:0:0:0:
400,124,50612,38,0,P|368:156|264:72,1,210,4|0,0:0|0:0,0:0:0:0:
220,40,51244,2,0,L|72:88,1,140
56,192,51875,6,0,P|120:200|152:268,2,140,0|8|0,0:0|0:0|0:0,0:0:0:0:
36,244,52665,2,0,L|24:320,1,70
180,340,53138,38,0,P|264:344|280:232,1,210,0|0,0:0|0:0,0:0:0:0:
248,196,53770,2,0,L|152:80,1,140
284,88,54401,6,0,P|336:120|424:88,2,140,0|8|0,0:0|0:0|0:0,0:0:0:0:
240,52,55191,2,0,L|172:8,1,70
200,172,55665,38,0,P|200:244|84:268,1,210,4|0,0:0|0:0,0:0:0:0:
36,236,56296,2,0,P|28:164|88:108,1,140
172,72,56928,6,0,P|232:68|324:40,2,140,0|8|0,0:0|0:0|0:0,0:0:0:0:
188,184,57875,1,0,0:0:0:0:
216,232,58033,1,0,0:0:0:0:
244,280,58191,1,4,0:0:0:0:
440,168,58665,37,0,0:0:0:0:
440,168,58822,1,0,0:0:0:0:
320,52,59138,1,8,0:0:0:0:
292,100,59296,2,0,P|236:120|144:104,1,140
136,164,59770,2,0,P|100:192|72:288,1,140
336,328,60717,6,0,P|360:292|408:280,1,70,4|0,0:0|0:0,0:0:0:0:
428,248,61033,2,0,P|460:208|444:116,1,140,8|0,0:0|0:0,0:0:0:0:
304,68,61665,5,8,0:0:0:0:
304,68,61822,2,0,P|256:100|160:64,1,140
124,76,62296,1,8,0:0:0:0:
72,60,62454,2,0,P|64:144|96:192,1,140
132,228,62928,1,8,0:0:0:0:
236,324,63244,6,0,P|280:272|364:264,1,140,4|8,0:0|0:0,0:0:0:0:
400,284,63717,2,0,P|408:216|472:160,1,140
320,140,64349,22,0,P|244:128|200:72,1,140,0|0,0:0|0:0,0:0:0:0:
152,108,64822,2,0,P|108:92|64:88,1,70,8|0,0:0|0:0,0:0:0:0:
28,88,65138,1,0,0:0:0:0:
68,220,65454,1,8,0:0:0:0:
188,292,65770,6,0,P|168:232|208:168,1,140,4|8,0:0|0:0,0:0:0:0:
320,92,66401,1,0,0:0:0:0:
264,220,66717,5,8,0:0:0:0:
264,220,66875,2,0,P|304:272|392:276,1,140
428,264,67349,1,8,0:0:0:0:
468,224,67507,2,0,P|480:160|440:100,1,140
392,76,67980,1,8,0:0:0:0:
276,156,68296,22,0,P|208:144|156:68,1,140,0|8,0:0|0:0,0:0:0:0:
124,132,68770,2,0,P|68:120|12:48,1,140
184,40,69401,6,0,P|224:80|228:168,1,140,4|0,0:0|0:0,0:0:0:0:
248,216,69875,2,0,P|200:236|180:268,1,70,8|0,0:0|0:0,0:0:0:0:
184,304,70191,2,0,P|128:316|44:280,1,140,0|8,0:0|0:0,0:0:0:0:
88,88,70822,5,4,0:0:0:0:
124,132,70980,1,0,0:0:0:0:
176,152,71138,1,8,0:0:0:0:
300,200,71454,2,0,P|304:136|248:80,1,140,0|8,0:0|0:0,0:0:0:0:
204,64,71928,21,0,0:0:0:0:
72,120,72244,1,0,0:0:0:0:
100,256,72559,1,0,0:0:0:0:
236,288,72875,1,0,0:0:0:0:
292,276,73033,1,8,0:0:0:0:
336,240,73191,1,0,0:0:0:0:
364,192,73349,6,0,P|368:144|296:72,1,140,4|8,0:0|0:0,0:0:0:0:
260,96,73822,2,0,P|216:52|128:40,1,140
60,152,74454,6,0,P|112:168|192:120,1,140
224,172,74928,2,0,P|264:184|288:212,1,70,8|0,0:0|0:0,0:0:0:0:
336,224,75244,2,0,P|388:264|480:240,1,140,0|8,0:0|0:0,0:0:0:0:
464,88,75875,21,4,0:0:0:0:
408,96,76033,1,0,0:0:0:0:
356,120,76191,1,8,0:0:0:0:
236,192,76507,2,0,P|156:216|92:184,1,140,0|8,0:0|0:0,0:0:0:0:
64,160,76980,6,0,P|92:112|80:20,2,140,0|8|0,0:0|0:0|0:0,0:0:0:0:
92,296,77928,1,0,0:0:0:0:
144,316,78086,1,8,0:0:0:0:
200,316,78244,1,0,0:0:0:0:
252,296,78401,21,0,0:0:0:0:
412,140,78875,1,0,0:0:0:0:
412,140,79033,1,0,0:0:0:0:
256,64,79349,6,0,L|194:29,1,70,8|0,0:0|0:0,0:0:0:0:
328,216,79822,2,0,L|392:252,1,70,0|8,0:0|0:0,0:0:0:0:
172,148,80296,1,0,0:0:0:0:
292,284,80612,6,0,L|404:344,1,105,0|0,0:0|0:0,0:0:0:0:
408,348,80928,1,4,0:0:0:0:
460,112,90717,22,0,P|444:80|412:56,2,70,8|0|4,0:0|0:0|0:0,0:0:0:0:
472,168,91191,1,0,0:0:0:0:
384,260,91507,2,0,P|384:300|372:332,2,70,0|0|0,0:0|0:0|0:0,0:0:0:0:
300,164,92138,5,8,0:0:0:0:
180,128,92454,1,0,0:0:0:0:
56,152,92770,2,0,P|68:220|148:264,1,140
128,316,93244,2,0,P|168:320|200:312,1,70,8|0,0:0|0:0,0:0:0:0:
248,336,93559,38,0,P|276:316|328:316,1,70,0|0,0:0|0:0,0:0:0:0:
420,244,94033,2,0,P|384:216|344:208,2,70
472,128,94665,6,0,P|424:80|332:56,2,140,8|0|0,0:0|0:0|0:0,0:0:0:0:
440,172,95454,2,0,P|460:200|492:220,1,70,0|8,0:0|0:0,0:0:0:0:
380,332,95928,37,0,0:0:0:0:
380,332,96086,2,0,P|344:268|252:252,1,140,4|8,0:0|0:0,0:0:0:0:
228,248,96559,1,0,0:0:0:0:
172,260,96717,2,0,P|120:280|80:364,1,140,0|8,0:0|0:0,0:0:0:0:
48,304,97191,6,0,P|52:244|12:164,1,140
32,116,97665,1,8,0:0:0:0:
56,68,97822,2,0,P|132:76|208:40,1,140
240,28,98296,1,8,0:0:0:0:
296,20,98454,1,0,0:0:0:0:
352,24,98612,1,4,0:0:0:0:
464,360,99875,37,4,0:0:0:0:
428,316,100033,1,0,0:0:0:0:
380,288,100191,1,8,0:0:0:0:
328,272,100349,1,0,0:0:0:0:
272,272,100507,2,0,P|192:256|144:200,1,140,0|8,0:0|0:0,0:0:0:0:
80,76,101138,6,0,P|152:76|216:132,1,140,4|8,0:0|0:0,0:0:0:0:
220,168,101612,1,0,0:0:0:0:
240,220,101770,2,0,P|312:224|384:184,1,140,0|8,0:0|0:0,0:0:0:0:
280,68,102401,38,0,P|368:112|464:60,2,210,0|8|8,0:0|0:0|0:0,0:0:0:0:
228,52,103507,1,0,0:0:0:0:
176,32,103665,6,0,P|140:24|104:32,1,70
56,144,104138,1,0,0:0:0:0:
56,144,104296,2,0,P|96:148|136:128,1,70
180,144,104612,2,0,P|208:184|240:200,1,70,8|0,0:0|0:0,0:0:0:0:
224,252,104928,38,0,P|304:228|364:252,1,140,0|8,0:0|0:0,0:0:0:0:
400,280,105401,1,0,0:0:0:0:
444,312,105559,2,0,P|472:340|504:352,1,70
464,196,106033,5,0,0:0:0:0:
464,196,106191,2,0,P|452:152|364:96,1,140,4|8,0:0|0:0,0:0:0:0:
324,96,106665,1,0,0:0:0:0:
268,96,106822,2,0,P|232:96|144:32,1,140,0|8,0:0|0:0,0:0:0:0:
92,44,107296,38,0,P|88:100|28:176,1,140
48,224,107770,1,8,0:0:0:0:
56,280,107928,2,0,P|100:348|172:356,1,140
208,348,108401,1,8,0:0:0:0:
292,236,108717,6,0,P|304:200|344:176,1,70
384,164,109033,2,0,P|340:128|320:40,1,140,8|0,0:0|0:0,0:0:0:0:
264,56,109507,1,0,0:0:0:0:
208,60,109665,2,0,P|144:56|56:104,1,140,8|0,0:0|0:0,0:0:0:0:
28,116,110138,38,0,P|48:172|24:268,1,140
32,308,110612,2,0,P|40:348|76:384,1,70
112,260,111086,5,0,0:0:0:0:
112,260,111244,2,0,P|144:228|248:312,1,210,4|0,0:0|0:0,0:0:0:0:
292,344,111875,2,0,L|440:296,1,140
456,192,112507,38,0,P|392:184|360:116,2,140,0|8|0,0:0|0:0|0:0,0:0:0:0:
476,140,113296,2,0,L|488:64,1,70
332,44,113770,6,0,P|248:40|232:152,1,210,0|0,0:0|0:0,0:0:0:0:
264,188,114401,2,0,L|360:304,1,140
228,296,115033,38,0,P|176:264|88:296,2,140,0|8|0,0:0|0:0|0:0,0:0:0:0:
272,332,115822,2,0,L|340:376,1,70
312,212,116296,6,0,P|312:140|428:116,1,210,4|0,0:0|0:0,0:0:0:0:
476,148,116928,2,0,P|484:220|424:276,1,140
340,312,117559,38,0,P|280:316|188:344,2,140,0|8|0,0:0|0:0|0:0,0:0:0:0:
324,200,118507,1,0,0:0:0:0:
296,152,118665,1,0,0:0:0:0:
268,104,118822,1,4,0:0:0:0:
72,216,119296,5,0,0:0:0:0:
72,216,119454,1,0,0:0:0:0:
192,332,119770,1,0,0:0:0:0:
220,284,119928,2,0,P|276:264|364:308,1,140
404,272,120401,2,0,P|440:244|468:148,1,140
176,56,121349,6,0,P|152:92|112:108,1,70,4|0,0:0|0:0,0:0:0:0:
84,136,121665,2,0,P|52:176|68:268,1,140,8|0,0:0|0:0,0:0:0:0:
208,316,122296,5,8,0:0:0:0:
208,316,122454,2,0,P|256:284|352:320,1,140
388,308,122928,1,8,0:0:0:0:
440,324,123086,2,0,P|448:240|416:192,1,140
380,156,123559,1,8,0:0:0:0:
276,60,123875,22,0,P|232:112|148:120,1,140,4|8,0:0|0:0,0:0:0:0:
112,100,124349,1,0,0:0:0:0:
112,100,124507,2,0,P|144:152|136:232,1,140,0|8,0:0|0:0,0:0:0:0:
192,244,124980,6,0,P|268:256|312:312,1,140
360,276,125454,2,0,P|404:292|448:296,1,70,8|0,0:0|0:0,0:0:0:0:
484,296,125770,1,0,0:0:0:0:
444,164,126086,1,8,0:0:0:0:
324,92,126401,6,0,P|344:152|304:216,1,140,4|8,0:0|0:0,0:0:0:0:
192,292,127033,1,0,0:0:0:0:
248,164,127349,21,8,0:0:0:0:
248,164,127507,2,0,P|208:112|120:108,1,140
84,120,127980,1,8,0:0:0:0:
44,160,128138,2,0,P|32:224|72:284,1,140
120,308,128612,1,8,0:0:0:0:
236,228,128928,6,0,P|304:240|356:316,1,140,0|8,0:0|0:0,0:0:0:0:
388,252,129401,2,0,P|444:264|500:336,1,140
328,344,130033,6,0,P|288:304|284:216,1,140,4|0,0:0|0:0,0:0:0:0:
264,168,130507,2,0,P|312:148|332:116,1,70,8|0,0:0|0:0,0:0:0:0:
328,80,130822,2,0,P|384:68|468:104,1,140,0|8,0:0|0:0,0:0:0:0:
424,296,131454,21,4,0:0:0:0:
388,252,131612,1,0,0:0:0:0:
336,232,131770,1,8,0:0:0:0:
212,184,132086,2,0,P|208:248|264:304,1,140,0|8,0:0|0:0,0:0:0:0:
308,320,132559,5,0,0:0:0:0:
440,264,132875,1,0,0:0:0:0:
412,128,133191,1,0,0:0:0:0:
276,96,133507,1,0,0:0:0:0:
220,108,133665,1,8,0:0:0:0:
176,144,133822,1,0,0:0:0:0:
148,192,133980,6,0,P|144:240|216:312,1,140,4|8,0:0|0:0,0:0:0:0:
252,288,134454,2,0,P|296:332|384:344,1,140
452,232,135086,22,0,P|400:216|320:264,1,140
288,212,135559,2,0,P|248:200|224:172,1,70,8|0,0:0|0:0,0:0:0:0:
176,160,135875,2,0,P|124:120|32:144,1,140,0|8,0:0|0:0,0:0:0:0:
48,296,136507,5,4,0:0:0:0:
104,288,136665,1,0,0:0:0:0:
156,264,136822,1,8,0:0:0:0:
276,192,137138,2,0,P|356:168|420:200,1,140,0|8,0:0|0:0,0:0:0:0:
448,224,137612,6,0,P|420:272|432:364,2,140,0|8|0,0:0|0:0|0:0,0:0:0:0:
420,88,138559,1,0,0:0:0:0:
368,68,138717,1,8,0:0:0:0:
312,68,138875,1,0,0:0:0:0:
260,88,139033,5,0,0:0:0:0:
100,244,139507,1,0,0:0:0:0:
100,244,139665,1,0,0:0:0:0:
256,320,139980,6,0,L|317:354,1,70,8|0,0:0|0:0,0:0:0:0:
184,168,140454,2,0,L|120:132,1,70,0|8,0:0|0:0,0:0:0:0:
340,236,140928,1,0,0:0:0:0:
220,100,141243,6,0,L|108:40,1,105
104,36,141559,1,4,0:0:0:0:
452,216,146612,6,0,P|408:148|436:84,1,140,4|8,0:0|0:0,0:0:0:0:
392,48,147086,2,0,L|248:20,1,140
116,96,147717,1,0,0:0:0:0:
120,252,148033,22,0,P|200:220|220:164,1,140
244,124,148507,1,0,0:0:0:0:
288,92,148665,1,0,0:0:0:0:
340,76,148822,1,8,0:0:0:0:
396,72,148980,1,0,0:0:0:0:
452,84,149138,6,0,P|448:160|500:208,1,140,0|8,0:0|0:0,0:0:0:0:
388,276,149770,2,0,L|248:320,1,140,0|8,0:0|0:0,0:0:0:0:
144,256,150401,2,0,L|277:214,1,140,0|8,0:0|0:0,0:0:0:0:
308,168,150875,1,0,0:0:0:0:
336,120,151033,2,0,P|412:96|444:36,1,140,0|8,0:0|0:0,0:0:0:0:
316,32,151665,5,4,0:0:0:0:
196,72,151980,1,8,0:0:0:0:
112,164,152296,1,0,0:0:0:0:
76,284,152612,2,0,L|168:272,1,70,8|0,0:0|0:0,0:0:0:0:
200,264,152928,21,0,0:0:0:0:
324,248,153243,1,8,0:0:0:0:
428,176,153559,1,0,0:0:0:0:
488,64,153875,1,8,0:0:0:0:
336,24,154191,6,0,P|360:48|372:96,1,70
328,120,154507,2,0,P|268:116|216:56,1,140,12|0,0:0|0:0,0:0:0:0:
168,32,154980,1,0,0:0:0:0:
76,160,155296,5,0,0:0:0:0:
76,160,155454,1,4,0:0:0:0:
180,280,155770,1,8,0:0:0:0:
180,280,155928,1,4,0:0:0:0:
256,144,156243,1,0,0:0:0:0:
256,144,156401,1,12,0:0:0:0:
376,40,156717,22,0,P|420:72|436:160,1,140,4|8,0:0|0:0,0:0:0:0:
412,204,157191,1,0,0:0:0:0:
376,248,157349,2,0,P|304:272|220:248,1,140,0|8,0:0|0:0,0:0:0:0:
124,156,157980,6,0,P|196:148|268:176,1,140,0|8,0:0|0:0,0:0:0:0:
304,204,158454,1,0,0:0:0:0:
340,248,158612,2,0,P|376:296|392:380,1,140,0|8,0:0|0:0,0:0:0:0:
236,344,159243,5,2,0:0:0:0:
144,260,159559,1,2,0:0:0:0:
112,212,159717,1,0,0:0:0:0:
104,156,159875,2,0,P|176:120|212:48,1,140,2|2,0:0|0:0,0:0:0:0:
360,96,160507,21,2,0:0:0:0:
440,192,160822,1,2,0:0:0:0:
420,244,160980,1,0,0:0:0:0:
384,288,161138,2,0,P|312:300|224:276,1,140,2|2,0:0|0:0,0:0:0:0:
168,188,161770,6,0,L|16:188,2,140,4|8|0,0:0|0:0|0:0,0:0:0:0:
252,96,162717,1,8,0:0:0:0:
144,272,163033,6,0,L|-8:272,1,140,0|8,0:0|0:0,0:0:0:0:
256,192,163665,1,0,0:0:0:0:
256,192,163980,1,8,0:0:0:0:
508,272,164296,6,0,L|368:272,1,140,0|0,0:0|0:0,0:0:0:0:
312,272,164770,1,0,0:0:0:0:
144,184,165086,1,0,0:0:0:0:
152,240,165243,1,8,0:0:0:0:
188,284,165401,6,0,P|260:272|316:208,1,140
324,172,165875,2,0,P|340:104|416:68,2,140,8|0|2,0:0|0:0|0:0,0:0:0:0:
396,256,166822,1,4,0:0:0:0:
128,320,176928,38,0,P|104:244|120:172,1,140,4|8,0:0|0:0,0:0:0:0:
140,136,177401,2,0,P|204:140|272:96,1,140
308,64,177875,1,8,0:0:0:0:
344,20,178033,6,0,P|384:76|460:104,1,140
500,128,178507,1,8,0:0:0:0:
452,244,178822,1,0,0:0:0:0:
352,320,179138,1,8,0:0:0:0:
196,312,179454,38,0,P|232:252|316:240,1,140,0|8,0:0|0:0,0:0:0:0:
348,208,179928,1,0,0:0:0:0:
400,184,180086,2,0,P|432:160|444:116,2,70,0|0|8,0:0|0:0|0:0,0:0:0:0:
368,136,180559,6,0,P|352:72|268:36,1,140
236,40,181033,1,8,0:0:0:0:
160,140,181349,1,0,0:0:0:0:
172,264,181665,1,8,0:0:0:0:
256,172,181980,38,0,P|312:208|392:216,1,140,4|8,0:0|0:0,0:0:0:0:
436,196,182454,1,0,0:0:0:0:
472,152,182612,2,0,P|480:116|504:88,2,70,0|0|8,0:0|0:0|0:0,0:0:0:0:
420,128,183086,6,0,P|368:88|328:24,1,140
272,32,183559,1,8,0:0:0:0:
148,44,183875,1,0,0:0:0:0:
64,140,184191,2,0,L|92:216,1,70,8|0,0:0|0:0,0:0:0:0:
124,248,184507,38,0,P|168:176|244:156,1,140,4|8,0:0|0:0,0:0:0:0:
272,164,184980,1,0,0:0:0:0:
328,164,185138,2,0,P|368:116|444:96,1,140,0|8,0:0|0:0,0:0:0:0:
496,96,185612,5,0,0:0:0:0:
476,220,185928,1,0,0:0:0:0:
476,220,186086,1,8,0:0:0:0:
404,324,186401,2,0,P|376:268|296:232,1,140,0|8,0:0|0:0,0:0:0:0:
92,148,187033,38,0,P|168:152|244:124,1,140,0|0,0:0|0:0,0:0:0:0:
272,96,187507,1,0,0:0:0:0:
308,52,187665,1,0,0:0:0:0:
436,192,187980,1,0,0:0:0:0:
436,192,188138,2,0,P|372:216|276:200,1,140
252,240,188612,2,0,P|184:244|108:296,1,140
400,236,189559,6,0,P|408:200|448:168,1,70
416,120,189875,2,0,P|372:64|296:64,1,140,8|0,0:0|0:0,0:0:0:0:
192,140,190507,5,8,0:0:0:0:
192,140,190665,2,0,P|156:176|52:184,1,140
40,144,191138,1,8,0:0:0:0:
32,88,191296,2,0,P|72:48|168:40,1,140
208,48,191770,1,8,0:0:0:0:
312,144,192086,6,0,P|376:188|504:140,2,210,4|8|8,0:0|0:0|0:0,0:0:0:0:
256,156,193191,2,0,P|240:108|160:72,1,140
108,84,193665,1,8,0:0:0:0:
72,128,193822,1,0,0:0:0:0:
64,184,193980,1,0,0:0:0:0:
136,304,194296,1,8,0:0:0:0:
332,292,194612,22,0,P|284:292|256:280,1,70,4|0,0:0|0:0,0:0:0:0:
228,240,194928,2,0,P|236:176|176:96,1,140,8|0,0:0|0:0,0:0:0:0:
148,88,195401,1,0,0:0:0:0:
96,72,195559,1,8,0:0:0:0:
40,68,195717,6,0,P|28:128|64:200,1,140
156,300,196349,1,0,0:0:0:0:
292,276,196665,2,0,P|312:256|328:216,2,70,0|8|0,0:0|0:0|0:0,0:0:0:0:
328,320,197138,6,0,P|400:300|456:248,1,140,0|8,0:0|0:0,0:0:0:0:
460,204,197612,1,0,0:0:0:0:
396,80,197928,1,0,0:0:0:0:
264,36,198243,22,0,P|208:48|136:116,1,140,4|0,0:0|0:0,0:0:0:0:
116,148,198717,2,0,P|144:180|156:228,1,70,8|0,0:0|0:0,0:0:0:0:
172,260,199033,2,0,P|112:296|64:368,2,140,0|8|4,0:0|0:0|0:0,0:0:0:0:
228,252,199822,5,0,0:0:0:0:
284,260,199980,1,8,0:0:0:0:
412,152,200296,2,0,P|344:144|264:160,1,140,0|8,0:0|0:0,0:0:0:0:
220,148,200770,2,0,P|168:144|88:88,2,140
268,280,201717,5,0,0:0:0:0:
324,272,201875,1,8,0:0:0:0:
376,248,202033,1,0,0:0:0:0:
412,208,202191,2,0,P|408:152|460:80,1,140,4|8,0:0|0:0,0:0:0:0:
508,96,202665,2,0,P|448:76|380:8,1,140
252,40,203296,22,0,P|184:44|108:76,1,140
120,128,203770,2,0,P|80:152|60:176,1,70,8|0,0:0|0:0,0:0:0:0:
28,212,204086,2,0,P|96:232|156:292,1,140,0|8,0:0|0:0,0:0:0:0:
308,328,204717,5,4,0:0:0:0:
268,292,204875,1,0,0:0:0:0:
240,244,205033,1,8,0:0:0:0:
280,80,205349,2,0,P|312:108|328:148,2,70,0|0|8,0:0|0:0|0:0,0:0:0:0:
240,116,205822,6,0,P|192:148|100:152,2,140,0|8|0,0:0|0:0|0:0,0:0:0:0:
408,132,206770,2,0,P|356:160|312:236,1,140
304,284,207243,5,0,0:0:0:0:
80,312,207717,1,0,0:0:0:0:
80,312,207875,1,0,0:0:0:0:
64,88,208349,2,0,P|96:140|184:180,1,140
216,192,208822,2,0,P|260:196|296:184,1,70,8|0,0:0|0:0,0:0:0:0:
336,164,209138,5,0,0:0:0:0:
216,48,209454,1,0,0:0:0:0:
380,84,209770,6,0,P|424:144|424:224,1,140,4|8,0:0|0:0,0:0:0:0:
332,288,210401,1,0,0:0:0:0:
208,312,210717,1,8,0:0:0:0:
84,324,211033,38,0,P|56:256|84:168,1,140,0|8,0:0|0:0,0:0:0:0:
96,144,211507,1,0,0:0:0:0:
132,100,211665,2,0,P|208:84|268:28,1,140,0|8,0:0|0:0,0:0:0:0:
372,92,212296,5,0,0:0:0:0:
284,180,212612,1,8,0:0:0:0:
340,292,212928,1,0,0:0:0:0:
292,320,213086,1,0,0:0:0:0:
236,332,213243,2,0,P|168:328|108:252,1,140,8|0,0:0|0:0,0:0:0:0:
96,228,213717,37,0,0:0:0:0:
84,172,213875,2,0,P|88:108|168:48,1,140,8|0,0:0|0:0,0:0:0:0:
196,48,214349,1,0,0:0:0:0:
252,60,214507,1,8,0:0:0:0:
292,100,214665,1,0,0:0:0:0:
308,152,214822,6,0,P|344:204|432:220,2,140,4|8|0,0:0|0:0|0:0,0:0:0:0:
184,132,215770,1,8,0:0:0:0:
64,164,216086,38,0,P|64:216|112:300,1,140,0|8,0:0|0:0,0:0:0:0:
156,312,216559,1,0,0:0:0:0:
212,312,216717,2,0,P|260:312|296:328,2,70,0|0|8,0:0|0:0|0:0,0:0:0:0:
184,188,217349,5,0,0:0:0:0:
276,100,217665,1,8,0:0:0:0:
400,80,217980,2,0,P|432:64|460:32,2,70,0|0|8,0:0|0:0|0:0,0:0:0:0:
384,132,218454,1,0,0:0:0:0:
360,184,218612,2,0,P|348:220|360:256,2,70,0|0|8,0:0|0:0|0:0,0:0:0:0:
308,164,219086,1,4,0:0:0:0:
260,136,219243,6,0,P|216:132|164:144,1,70,0|0,0:0|0:0,0:0:0:0:
136,148,219559,1,0,0:0:0:0:
