osu file format v12

[General]
AudioFilename: GUMI.mp3
AudioLeadIn: 0
PreviewTime: 60644
Countdown: 0
SampleSet: Normal
StackLeniency: 0.7
Mode: 0
LetterboxInBreaks: 0

[Editor]
DistanceSpacing: 0.8
BeatDivisor: 4
GridSize: 4

[Metadata]
Title:Keppekishou
TitleUnicode:ケッペキショウ
Artist:scop
ArtistUnicode:すこっぷ
Creator:tutuhaha
Version:Easy
Source:
Tags:Megpoid GUMI Vocaloid
BeatmapID:204444
BeatmapSetID:70115

[Difficulty]
HPDrainRate:3
CircleSize:3
OverallDifficulty:3
ApproachRate:4
SliderMultiplier:0.7
SliderTickRate:1

[Events]
//Background and Video events
Video,0,"GUMI.flv"
0,0,"BG.JPG",0,0
//Break Periods
2,12443,13924
2,35653,39187
2,81128,89713
2,141759,145292
2,167022,175608
//Storyboard Layer 0 (Background)
//Storyboard Layer 1 (Fail)
//Storyboard Layer 2 (Pass)
//Storyboard Layer 3 (Foreground)
//Storyboard Sound Samples
//Background Colour Transformations
3,100,163,162,255

[TimingPoints]
2455,315.789473684211,4,1,1,40,1,0
13981,-100,4,2,1,10,0,0
14928,-100,4,1,1,40,0,0
15244,315.789473684211,4,1,2,70,1,0
31981,-100,4,1,1,70,0,0
34192,-100,4,1,2,70,0,0
44771,-100,4,1,1,70,0,0
47060,-100,4,1,2,70,0,0
47376,-100,4,1,1,70,0,0
49507,-100,4,1,2,70,0,0
50613,-100,4,1,1,70,0,0
60717,-90.9090909090909,4,1,2,80,0,1
69402,-90.9090909090909,4,1,1,80,0,1
70981,-90.9090909090909,4,1,2,80,0,1
72560,-90.9090909090909,4,1,1,80,0,1
74850,-90.9090909090909,4,1,2,80,0,1
77060,-90.9090909090909,4,1,1,80,0,1
77218,-90.9090909090909,4,1,2,80,0,1
78402,-90.9090909090909,4,1,1,80,0,1
80928,-100,4,1,2,70,0,0
102718,-100,4,1,1,70,0,0
103350,-100,4,1,2,70,0,0
105244,-100,4,1,1,70,0,0
105876,-100,4,1,2,70,0,0
107928,-100,4,1,1,70,0,0
108244,-100,4,1,2,70,0,0
111244,-100,4,1,1,70,0,0
121349,-90.9090909090909,4,1,2,80,0,1
122297,-90.9090909090909,4,1,1,80,0,1
125139,-90.9090909090909,4,1,2,80,0,1
133271,-90.9090909090909,4,1,1,80,0,1
133428,-90.9090909090909,4,1,2,80,0,1
137455,-90.9090909090909,4,1,1,80,0,1
141559,-100,4,1,2,70,0,0
147165,-100,4,1,1,70,0,0
148034,-100,4,1,2,70,0,0
154744,-100,4,1,1,70,0,0
159244,-100,4,2,1,80,0,0
161771,-100,4,1,2,70,0,0
164297,-100,4,1,1,70,0,0
166192,-100,4,2,1,60,0,0
176928,-100,4,1,2,60,0,0
183718,-100,4,1,1,60,0,0
184034,-100,4,1,2,60,0,0
187034,-100,4,1,1,50,0,0
189244,-100,4,1,1,10,0,0
189559,-90.9090909090909,4,1,2,80,0,1
195797,-90.9090909090909,4,1,1,80,0,1
196034,-90.9090909090909,4,1,2,80,0,1
198244,-90.9090909090909,4,1,1,80,0,1
199665,-90.9090909090909,4,1,2,80,0,1
207244,-90.9090909090909,4,1,1,80,0,1
209770,-100,4,1,2,70,0,0

[Colours]
Combo1 : 255,53,53
Combo2 : 142,142,142
Combo3 : 44,164,252
Combo4 : 255,255,91

[HitObjects]
68,68,2455,2,0,P|176:92|200:184,1,210
216,288,4033,2,0,L|432:288,1,210
460,244,5297,6,0,P|428:176|484:56,1,210
428,40,6560,2,0,L|280:40,1,140
176,52,7823,38,0,P|112:80|84:140,2,140
188,108,9402,1,0,0:0:0:0:
196,164,9718,2,0,P|224:228|296:240,1,140
392,200,10981,1,0,0:0:0:0:
424,92,11612,2,0,L|284:44,1,140
160,336,15244,5,0,0:0:0:0:
256,280,15875,1,0,0:0:0:0:
348,220,16507,2,0,P|316:160|240:140,1,140
152,88,17770,6,0,L|40:184,1,140
68,288,19033,2,0,L|174:196,1,140
216,160,19980,1,8,0:0:0:0:
260,128,20296,38,0,P|340:148|396:112,1,140,4|0,0:0|0:0,0:0:0:0:
320,32,21559,1,0,0:0:0:0:
264,40,21875,1,8,0:0:0:0:
208,48,22191,1,0,0:0:0:0:
128,124,22822,6,0,P|136:188|80:248,1,140
52,284,23770,1,8,0:0:0:0:
12,324,24086,2,0,L|152:364,1,140
240,300,25349,22,0,P|232:236|276:172,1,140,4|0,0:0|0:0,0:0:0:0:
384,180,26612,2,0,P|396:120|356:48,1,140
304,48,27559,1,8,0:0:0:0:
248,48,27875,6,0,L|100:48,1,140
52,144,29138,2,0,P|112:156|160:220,1,140
256,272,30401,38,0,P|320:296|388:280,2,140,4|0|0,0:0|0:0|0:0,0:0:0:0:
264,216,31980,2,0,P|272:144|228:80,1,140,8|8,0:0|0:0,0:0:0:0:
192,56,32928,5,0,0:0:0:0:
124,144,33559,1,0,0:0:0:0:
124,256,34191,2,0,P|184:284|260:272,1,140
304,248,35138,2,0,L|380:248,1,70,8|4,0:0|0:0,0:0:0:0:
256,80,40507,38,0,P|184:64|112:96,2,140,4|0|0,0:0|0:0|0:0,0:0:0:0:
256,192,42401,1,0,0:0:0:0:
256,304,43033,6,0,P|328:320|400:288,2,140
200,308,44612,2,0,P|168:264|80:248,1,140,8|8,0:0|0:0,0:0:0:0:
36,264,45559,37,4,0:0:0:0:
68,156,46191,1,0,0:0:0:0:
152,84,46822,2,0,P|236:52|340:100,1,210,0|8,0:0|0:0,0:0:0:0:
368,148,48086,5,0,0:0:0:0:
340,256,48717,1,0,0:0:0:0:
252,324,49349,2,0,P|200:296|156:228,1,140
100,132,50612,38,0,B|208:112|208:112|292:40,1,210,4|0,0:0|0:0,0:0:0:0:
340,56,51875,2,0,P|408:48|468:88,1,140,0|8,0:0|0:0,0:0:0:0:
408,184,53138,6,0,B|296:212|296:212|216:280,1,210
180,304,54401,2,0,P|132:296|44:336,1,140,0|8,0:0|0:0,0:0:0:0:
24,220,55665,38,0,B|104:148|104:148|148:48,1,210,4|0,0:0|0:0,0:0:0:0:
196,80,56928,2,0,P|256:76|328:108,1,140,0|8,0:0|0:0,0:0:0:0:
396,196,58191,6,0,L|240:196,1,140,0|8,0:0|0:0,0:0:0:0:
192,248,59296,2,0,P|140:252|28:192,1,175,0|0,0:0|0:0,0:0:0:0:
140,64,60717,6,0,L|304:64,1,154.000004699707,4|0,0:0|0:0,0:0:0:0:
344,104,61665,1,8,0:0:0:0:
376,156,61980,2,0,P|404:232|476:268,1,154.000004699707
352,320,63244,5,0,0:0:0:0:
228,316,63875,1,0,0:0:0:0:
128,248,64507,2,0,P|128:180|196:112,1,154.000004699707
236,92,65454,1,8,0:0:0:0:
292,64,65770,22,0,P|368:44|440:72,2,154.000004699707,4|0|0,0:0|0:0|0:0,0:0:0:0:
232,172,67665,1,0,0:0:0:0:
176,284,68296,2,0,P|132:260|96:160,1,154.000004699707
56,120,69244,2,0,P|132:120|188:56,1,154.000004699707,12|8,0:0|0:0,0:0:0:0:
236,32,70191,1,0,0:0:0:0:
308,132,70822,6,0,P|364:112|460:136,2,154.000004699707,4|0|0,0:0|0:0|0:0,0:0:0:0:
276,184,72401,2,0,P|240:224|128:240,1,154.000004699707,8|8,0:0|0:0,0:0:0:0:
84,236,73349,5,0,0:0:0:0:
56,116,73980,1,0,0:0:0:0:
160,48,74612,2,0,P|200:108|188:196,1,154.000004699707
176,248,75559,1,8,0:0:0:0:
152,304,75875,38,0,P|208:352|288:352,1,154.000004699707,4|0,0:0|0:0,0:0:0:0:
340,328,76822,2,0,P|388:264|380:176,1,154.000004699707,8|8,0:0|0:0,0:0:0:0:
352,144,77770,1,0,0:0:0:0:
240,92,78401,22,0,L|76:92,2,154.000004699707,0|0|0,0:0|0:0|0:0,0:0:0:0:
276,140,79980,2,0,P|332:140|360:128,1,77.0000023498536,8|0,0:0|0:0,0:0:0:0:
436,60,80928,1,4,0:0:0:0:
40,204,91033,6,0,P|56:136|124:92,1,140,4|0,0:0|0:0,0:0:0:0:
216,132,92296,2,0,P|288:144|360:108,1,140
432,44,93559,37,0,0:0:0:0:
464,152,94191,1,0,0:0:0:0:
432,260,94822,2,0,P|384:308|308:316,1,140
204,324,96086,6,0,P|160:264|88:244,1,140,4|0,0:0|0:0,0:0:0:0:
84,132,97349,1,0,0:0:0:0:
168,56,97980,1,0,0:0:0:0:
280,36,98612,1,4,0:0:0:0:
116,188,99875,2,0,P|184:172|256:196,1,140
256,304,101138,38,0,P|328:320|400:288,2,140,4|0|0,0:0|0:0|0:0,0:0:0:0:
244,248,102717,2,0,P|288:196|284:116,1,140,8|8,0:0|0:0,0:0:0:0:
256,80,103665,6,0,P|184:64|112:96,2,140
312,76,105244,2,0,P|344:120|432:136,1,140,8|8,0:0|0:0,0:0:0:0:
476,120,106191,37,4,0:0:0:0:
444,228,106822,1,0,0:0:0:0:
360,300,107454,2,0,P|276:332|172:284,1,210,0|8,0:0|0:0,0:0:0:0:
144,236,108717,5,0,0:0:0:0:
172,128,109349,1,0,0:0:0:0:
260,60,109980,2,0,P|312:88|356:156,1,140
412,252,111244,38,0,B|304:272|304:272|220:344,1,210,4|0,0:0|0:0,0:0:0:0:
172,328,112507,2,0,P|108:336|44:296,1,140
104,200,113770,6,0,B|216:172|216:172|296:104,1,210
332,80,115033,2,0,P|380:88|468:48,1,140
488,164,116296,38,0,B|408:236|408:236|364:336,1,210,4|0,0:0|0:0,0:0:0:0:
316,304,117559,2,0,P|256:308|184:276,1,140
116,188,118822,6,0,L|272:188,1,140,0|0,0:0|0:0,0:0:0:0:
320,136,119928,2,0,P|372:132|472:200,1,175,0|0,0:0|0:0,0:0:0:0:
372,320,121349,6,0,L|208:320,1,154.000004699707,4|0,0:0|0:0,0:0:0:0:
188,264,122296,2,0,P|164:192|88:152,1,154.000004699707,8|8,0:0|0:0,0:0:0:0:
48,120,123244,1,0,0:0:0:0:
160,64,123875,5,0,0:0:0:0:
284,68,124507,1,0,0:0:0:0:
384,136,125138,2,0,P|384:204|316:272,1,154.000004699707,0|0,0:0|0:0,0:0:0:0:
276,292,126086,1,8,0:0:0:0:
220,320,126401,22,0,P|144:340|72:312,2,154.000004699707,4|0|0,0:0|0:0|0:0,0:0:0:0:
280,212,128296,1,0,0:0:0:0:
336,100,128928,2,0,P|380:124|416:224,1,154.000004699707
456,264,129875,2,0,P|380:264|324:328,1,154.000004699707,8|8,0:0|0:0,0:0:0:0:
276,352,130822,1,0,0:0:0:0:
204,252,131454,6,0,P|148:272|52:248,2,154.000004699707,4|0|0,0:0|0:0|0:0,0:0:0:0:
236,200,133033,2,0,P|272:160|384:144,1,154.000004699707,8|8,0:0|0:0,0:0:0:0:
428,148,133980,5,0,0:0:0:0:
456,268,134612,1,0,0:0:0:0:
352,336,135244,2,0,P|312:276|324:188,1,154.000004699707
336,136,136191,1,8,0:0:0:0:
360,80,136507,38,0,P|304:32|224:32,1,154.000004699707,4|0,0:0|0:0,0:0:0:0:
172,56,137454,2,0,P|124:120|132:208,1,154.000004699707,8|8,0:0|0:0,0:0:0:0:
160,240,138401,1,0,0:0:0:0:
272,292,139033,22,0,L|436:292,2,154.000004699707,0|0|0,0:0|0:0|0:0,0:0:0:0:
236,244,140612,2,0,P|180:244|152:256,1,77.0000023498536,8|0,0:0|0:0,0:0:0:0:
76,324,141559,1,4,0:0:0:0:
48,212,146612,6,0,P|52:132|168:80,1,210,4|8,0:0|0:0,0:0:0:0:
188,124,147875,2,0,P|232:184|292:208,1,140
356,116,149138,5,0,0:0:0:0:
468,96,149770,1,0,0:0:0:0:
428,204,150401,2,0,P|428:280|392:344,1,140
292,364,151665,6,0,P|260:316|252:232,1,140,4|0,0:0|0:0,0:0:0:0:
248,180,152612,1,8,0:0:0:0:
220,132,152928,2,0,P|176:80|108:72,1,140
36,160,154191,22,0,P|40:212|180:252,1,210,4|0,0:0|0:0,0:0:0:0:
216,228,155454,2,0,P|252:176|384:196,1,210,0|8,0:0|0:0,0:0:0:0:
408,244,156717,5,4,0:0:0:0:
316,308,157349,1,0,0:0:0:0:
204,308,157980,1,0,0:0:0:0:
116,236,158612,1,0,0:0:0:0:
96,124,159243,6,0,P|124:80|208:52,1,140,2|2,0:0|0:0,0:0:0:0:
300,108,160507,2,0,L|444:108,1,140,2|2,0:0|0:0,0:0:0:0:
440,220,161770,22,0,P|404:268|324:280,1,140,4|0,0:0|0:0,0:0:0:0:
272,276,162717,1,8,0:0:0:0:
216,264,163033,2,0,P|176:224|88:224,1,140
96,108,164296,38,0,B|192:64|192:64|304:64,1,210,4|0,0:0|0:0,0:0:0:0:
372,104,165717,2,0,P|424:164|424:260,1,175
400,308,166822,1,0,0:0:0:0:
28,204,176928,6,0,P|48:136|108:92,1,140,4|0,0:0|0:0,0:0:0:0:
212,72,178191,1,0,0:0:0:0:
320,100,178822,1,0,0:0:0:0:
380,196,179454,38,0,P|440:248|504:248,1,140
472,140,180717,1,0,0:0:0:0:
376,84,181349,1,0,0:0:0:0:
264,96,181980,6,0,P|224:60|136:60,2,140,4|0|0,0:0|0:0|0:0,0:0:0:0:
240,148,183559,2,0,P|236:224|284:280,1,140,8|8,0:0|0:0,0:0:0:0:
320,304,184507,37,4,0:0:0:0:
404,228,185138,1,0,0:0:0:0:
452,128,185770,2,0,P|440:64|376:28,1,140
288,92,187033,6,0,P|272:120|160:144,1,140,0|0,0:0|0:0,0:0:0:0:
172,204,187980,2,0,P|80:220|44:260,1,140
36,304,188928,1,0,0:0:0:0:
160,312,189559,6,0,P|228:332|308:304,2,154.000004699707,4|0|0,0:0|0:0|0:0,0:0:0:0:
104,204,191454,1,0,0:0:0:0:
112,80,192086,6,0,P|188:100|240:168,1,154.000004699707,0|0,0:0|0:0,0:0:0:0:
256,212,193033,1,8,0:0:0:0:
276,268,193349,2,0,P|344:300|416:280,1,154.000004699707
484,176,194612,22,0,L|324:176,1,154.000004699707,4|0,0:0|0:0,0:0:0:0:
268,188,195559,2,0,P|220:136|128:128,1,154.000004699707,8|8,0:0|0:0,0:0:0:0:
84,148,196507,6,0,L|84:312,2,154.000004699707
84,88,198086,2,0,P|160:92|236:52,1,154.000004699707,12|8,0:0|0:0,0:0:0:0:
288,48,199033,1,0,0:0:0:0:
320,168,199665,6,0,P|384:184|436:268,2,154.000004699707,4|0|0,0:0|0:0|0:0,0:0:0:0:
248,268,201559,1,0,0:0:0:0:
140,324,202191,22,0,P|80:296|40:220,2,154.000004699707
160,204,204086,1,0,0:0:0:0:
204,88,204717,6,0,P|280:68|356:104,1,154.000004699707,4|0,0:0|0:0,0:0:0:0:
388,144,205665,1,8,0:0:0:0:
404,204,205980,2,0,P|400:284|352:344,1,154.000004699707
260,264,207243,22,0,L|96:264,2,154.000004699707,0|0|0,0:0|0:0|0:0,0:0:0:0:
280,204,208822,2,0,P|240:172|212:140,1,77.0000023498536,8|0,0:0|0:0,0:0:0:0:
156,60,209770,5,4,0:0:0:0:
60,120,210401,1,0,0:0:0:0:
164,164,211033,2,0,P|196:224|272:244,1,140
360,296,212296,6,0,L|472:200,1,140
444,96,213559,2,0,L|338:188,1,140
296,224,214507,1,8,0:0:0:0:
252,256,214822,38,0,P|172:236|116:272,1,140,4|0,0:0|0:0,0:0:0:0:
192,352,216086,1,0,0:0:0:0:
248,344,216401,1,8,0:0:0:0:
304,336,216717,1,0,0:0:0:0:
384,260,217349,6,0,P|376:196|432:136,1,140
460,100,218296,1,8,0:0:0:0:
500,60,218612,2,0,L|356:44,1,140,0|4,0:0|0:0,0:0:0:0:
304,40,219559,1,0,0:0:0:0:
