osu file format v12

[General]
AudioFilename: GUMI.mp3
AudioLeadIn: 0
PreviewTime: 60644
Countdown: 0
SampleSet: Normal
StackLeniency: 0.7
Mode: 0
LetterboxInBreaks: 0

[Editor]
DistanceSpacing: 1.5
BeatDivisor: 4
GridSize: 4

[Metadata]
Title:Keppekishou
TitleUnicode:ケッペキショウ
Artist:scop
ArtistUnicode:すこっぷ
Creator:tutuhaha
Version:Dance
Source:
Tags:Megpoid GUMI Vocaloid
BeatmapID:201731
BeatmapSetID:70115

[Difficulty]
HPDrainRate:7
CircleSize:4
OverallDifficulty:8
ApproachRate:9
SliderMultiplier:2.1
SliderTickRate:1

[Events]
//Background and Video events
Video,0,"GUMI.flv"
0,0,"BG.JPG",0,0
//Break Periods
2,35653,39749
2,81128,90117
2,141759,146012
2,167022,176328
//Storyboard Layer 0 (Background)
//Storyboard Layer 1 (Fail)
//Storyboard Layer 2 (Pass)
//Storyboard Layer 3 (Foreground)
//Storyboard Sound Samples
//Background Colour Transformations
3,100,163,162,255

[TimingPoints]
2455,315.789473684211,4,1,1,60,1,0
2455,-200,4,1,1,30,0,0
13981,-200,4,2,1,10,0,0
14928,-200,4,1,1,40,0,0
15244,315.789473684211,4,1,1,70,1,0
60402,-100,4,1,1,10,0,0
60717,-90.9090909090909,4,1,1,80,0,1
70823,-90.9090909090909,4,1,1,80,0,1
80928,-100,4,1,1,70,0,0
121034,-100,4,1,1,10,0,0
121349,-90.9090909090909,4,1,1,80,0,1
141559,-100,4,1,1,70,0,0
159244,-100,4,2,1,80,0,0
161771,-100,4,1,1,70,0,0
166192,-100,4,2,1,60,0,0
176928,-100,4,1,1,60,0,0
187034,-100,4,1,1,50,0,0
189244,-100,4,1,1,10,0,0
189559,-90.9090909090909,4,1,1,80,0,1
209770,-100,4,1,1,70,0,0

[Colours]
Combo1 : 255,53,53
Combo2 : 142,142,142
Combo3 : 44,164,252
Combo4 : 255,255,91

[HitObjects]
48,84,2455,2,0,L|100:128,1,52.5
160,168,2770,1,0,0:0:0:0:
384,320,3086,1,0,0:0:0:0:
444,252,3244,1,0,0:0:0:0:
468,164,3402,1,0,0:0:0:0:
20,184,3718,6,0,L|108:260,1,105
348,148,4349,1,0,0:0:0:0:
0,288,4665,2,0,L|52:332,1,52.5
218,312,4981,2,0,L|176:276,1,52.5
120,212,5297,37,0,0:0:0:0:
368,28,5612,1,0,0:0:0:0:
432,92,5770,1,0,0:0:0:0:
468,172,5928,1,0,0:0:0:0:
24,336,6244,2,0,L|56:224,1,105
480,260,6876,1,0,0:0:0:0:
72,152,7191,1,0,0:0:0:0:
468,172,7507,6,0,L|432:116,1,52.5
304,68,7823,2,0,L|364:164,1,105
316,232,8297,1,0,0:0:0:0:
240,280,8455,2,0,P|228:248|204:232,1,52.5
16,232,8770,2,0,P|48:248|80:248,1,52.5
144,120,9086,38,0,P|144:96|160:72,1,52.5
354,74,9402,2,0,P|368:96|368:124,1,52.5
240,280,9718,1,0,0:0:0:0:
176,216,9876,1,0,0:0:0:0:
64,144,10033,1,0,0:0:0:0:
88,232,10191,1,0,0:0:0:0:
260,200,10349,6,0,P|264:144|300:108,1,105
372,72,10823,1,0,0:0:0:0:
216,72,10981,2,0,P|184:72|160:56,1,52.5
88,232,11297,2,0,P|72:212|68:184,1,52.5
260,200,11612,2,0,P|304:176|360:196,1,105,0|0,0:0|0:0,0:0:0:0:
416,248,12086,1,0,0:0:0:0:
460,324,12244,1,0,0:0:0:0:
256,192,12323,12,0,14297,0:0:0:0:
256,92,14928,37,0,0:0:0:0:
256,92,15244,22,0,P|188:96|112:48,1,157.5,4|0,0:0|0:0,0:0:0:0:
52,92,15559,2,0,B|52:148|52:148|20:192,1,105,8|0,0:0|0:0,0:0:0:0:
68,328,15875,2,0,B|128:240|128:240|236:228,1,210,0|8,0:0|0:0,0:0:0:0:
444,264,16349,37,0,0:0:0:0:
444,264,16428,1,0,0:0:0:0:
444,264,16507,2,0,P|420:232|416:168,1,105
192,144,16822,2,0,P|212:92|272:60,1,105,8|0,0:0|0:0,0:0:0:0:
396,52,17138,1,0,0:0:0:0:
336,192,17296,1,0,0:0:0:0:
192,144,17454,1,8,0:0:0:0:
76,240,17612,2,0,L|104:288,1,52.5
132,352,17770,6,0,P|164:272|228:260,1,157.5
296,304,18086,2,0,P|352:332|400:324,1,105,8|0,0:0|0:0,0:0:0:0:
452,276,18322,1,0,0:0:0:0:
452,276,18401,2,0,P|480:220|472:172,1,105
296,36,18717,38,0,P|244:52|208:96,1,105,8|0,0:0|0:0,0:0:0:0:
164,152,18954,1,0,0:0:0:0:
164,152,19033,2,0,P|112:172|60:152,1,105
376,36,19349,2,0,P|376:96|408:136,1,105,8|0,0:0|0:0,0:0:0:0:
428,200,19586,1,0,0:0:0:0:
428,200,19665,1,0,0:0:0:0:
256,344,19822,1,0,0:0:0:0:
202,187,19980,6,0,L|164:152,1,52.5,8|0,0:0|0:0,0:0:0:0:
124,80,20138,2,0,P|128:52|144:36,1,52.5
208,84,20296,2,0,B|284:164|284:164|288:192|272:224,1,157.5,4|0,0:0|0:0,0:0:0:0:
216,260,20612,2,0,P|168:276|116:256,1,105,8|0,0:0|0:0,0:0:0:0:
124,80,20928,2,0,P|148:28|252:20,1,157.5
284,72,21244,2,0,P|276:124|232:156,1,105,8|0,0:0|0:0,0:0:0:0:
0,52,21559,38,0,P|40:16|104:12,1,105
124,80,21796,1,0,0:0:0:0:
124,80,21875,2,0,P|84:116|76:168,1,105,8|0,0:0|0:0,0:0:0:0:
76,244,22112,1,0,0:0:0:0:
76,244,22191,2,0,P|132:296|256:248,1,210,0|8,0:0|0:0,0:0:0:0:
460,116,22665,5,0,0:0:0:0:
460,116,22744,1,0,0:0:0:0:
460,116,22822,2,0,P|384:96|328:156,1,157.5
260,180,23138,2,0,L|136:192,1,105,8|0,0:0|0:0,0:0:0:0:
44,100,23454,1,0,0:0:0:0:
172,28,23612,1,0,0:0:0:0:
304,96,23770,1,8,0:0:0:0:
432,28,23928,37,0,0:0:0:0:
432,28,24007,1,0,0:0:0:0:
432,28,24086,1,0,0:0:0:0:
436,248,24244,1,0,0:0:0:0:
152,180,24401,2,0,L|201:196,1,52.5,8|0,0:0|0:0,0:0:0:0:
280,204,24559,2,0,P|316:176|324:164,1,52.5
252,128,24717,2,0,B|124:88|124:88|36:104,1,210,0|8,0:0|0:0,0:0:0:0:
28,248,25191,1,0,0:0:0:0:
152,324,25349,37,4,0:0:0:0:
264,228,25507,2,0,P|356:220|408:336,1,210
264,328,25980,1,0,0:0:0:0:
156,228,26138,2,0,P|96:200|112:68,1,210
328,64,26612,5,0,0:0:0:0:
192,124,26770,1,0,0:0:0:0:
68,204,26928,1,8,0:0:0:0:
8,336,27086,2,0,B|80:344|136:304|136:304|164:344|216:348,1,210
456,324,27559,2,0,P|404:300|340:312,1,105,8|0,0:0|0:0,0:0:0:0:
160,192,27875,37,0,0:0:0:0:
288,120,28033,2,0,P|408:148|456:64,1,210
316,40,28507,1,0,0:0:0:0:
184,108,28665,2,0,P|120:52|8:112,1,210
68,312,29138,5,0,0:0:0:0:
172,208,29296,1,0,0:0:0:0:
312,164,29454,1,8,0:0:0:0:
460,160,29612,2,0,B|440:108|372:88|372:88|356:32|300:28,1,210
32,96,30086,2,0,P|100:88|144:56,1,105,8|0,0:0|0:0,0:0:0:0:
256,252,30401,37,4,0:0:0:0:
400,224,30559,2,0,P|360:140|448:56,1,210
488,196,31033,1,0,0:0:0:0:
408,332,31191,2,0,P|300:296|236:376,1,210
52,244,31665,5,0,0:0:0:0:
192,196,31822,1,0,0:0:0:0:
328,136,31980,1,8,0:0:0:0:
440,40,32138,2,0,B|380:60|320:24|320:24|264:32|252:88,1,210
180,96,32533,1,0,0:0:0:0:
180,96,32612,2,0,P|76:56|44:56,1,105,8|0,0:0|0:0,0:0:0:0:
36,272,32928,37,0,0:0:0:0:
180,304,33086,2,0,P|172:208|80:156,1,210
108,300,33559,1,0,0:0:0:0:
248,348,33717,2,0,P|276:284|404:272,1,210
444,52,34191,5,0,0:0:0:0:
312,120,34349,1,0,0:0:0:0:
236,244,34507,1,8,0:0:0:0:
112,324,34665,1,0,0:0:0:0:
112,324,34744,1,0,0:0:0:0:
112,324,34822,2,0,P|120:248|160:216,1,105
320,48,35138,2,0,P|252:100|160:32,1,210,8|4,0:0|0:0,0:0:0:0:
84,96,40349,37,0,0:0:0:0:
84,96,40428,1,0,0:0:0:0:
84,96,40507,2,0,P|124:64|184:64,1,105,4|0,0:0|0:0,0:0:0:0:
280,164,40822,1,8,0:0:0:0:
228,304,40980,1,0,0:0:0:0:
204,84,41138,2,0,P|256:72|288:28,1,105
428,80,41454,1,8,0:0:0:0:
480,216,41612,1,0,0:0:0:0:
332,52,41770,6,0,P|328:108|360:152,1,105
480,216,42086,1,8,0:0:0:0:
340,256,42244,2,0,P|336:172|464:144,1,210
412,204,42638,1,0,0:0:0:0:
412,204,42717,2,0,B|388:220|428:252|428:252|428:316,1,105,8|0,0:0|0:0,0:0:0:0:
176,336,43033,38,0,P|212:304|272:304,1,105
160,196,43349,1,8,0:0:0:0:
220,64,43507,1,0,0:0:0:0:
292,272,43665,2,0,P|320:220|308:160,1,105
176,124,43980,1,8,0:0:0:0:
116,260,44138,1,0,0:0:0:0:
292,128,44296,6,0,P|312:76|368:60,1,105
452,260,44612,2,0,P|424:296|360:300,1,105,8|0,0:0|0:0,0:0:0:0:
164,284,44928,1,0,0:0:0:0:
316,364,45086,2,0,P|368:304|300:184,1,210
248,184,45480,37,0,0:0:0:0:
248,184,45559,2,0,P|188:176|156:104,1,105,4|0,0:0|0:0,0:0:0:0:
44,52,45875,2,0,P|96:32|168:48,1,105,8|0,0:0|0:0,0:0:0:0:
212,76,46112,1,0,0:0:0:0:
212,76,46191,2,0,P|276:80|324:56,2,105,0|0|8,0:0|0:0|0:0,0:0:0:0:
76,136,46665,5,0,0:0:0:0:
100,280,46822,1,0,0:0:0:0:
244,300,46980,1,0,0:0:0:0:
212,76,47138,1,8,0:0:0:0:
320,172,47296,2,0,P|392:100|488:132,1,210
432,184,47691,1,0,0:0:0:0:
432,184,47770,2,0,B|408:168|396:184|396:184|412:256|412:260,1,105,8|0,0:0|0:0,0:0:0:0:
204,164,48086,38,0,P|164:128|148:60,1,105
8,32,48401,1,8,0:0:0:0:
147,80,48559,1,0,0:0:0:0:
252,276,48717,2,0,P|268:224|312:192,1,105
268,52,49033,1,8,0:0:0:0:
306,193,49191,6,0,P|212:204|172:92,1,210
312,120,49665,1,8,0:0:0:0:
340,264,49822,1,0,0:0:0:0:
396,52,49980,1,0,0:0:0:0:
420,272,50138,1,0,0:0:0:0:
500,28,50296,2,0,L|460:112,2,70,8|0|0,0:0|0:0|0:0,0:0:0:0:
488,184,50612,38,0,L|404:192,1,70,4|0,0:0|0:0,0:0:0:0:
360,112,50822,2,0,L|276:120,1,70,0|8,0:0|0:0,0:0:0:0:
256,204,51033,2,0,L|172:212,1,70
128,132,51244,2,0,L|44:140,2,70
168,296,51559,2,0,B|236:288|236:288|292:312,1,105,0|8,0:0|0:0,0:0:0:0:
488,184,51875,5,0,0:0:0:0:
428,224,51980,1,0,0:0:0:0:
392,284,52086,1,0,0:0:0:0:
368,352,52191,2,0,P|296:328|288:240,1,140,8|0,0:0|0:0,0:0:0:0:
316,204,52507,2,0,L|296:68,1,105,0|0,0:0|0:0,0:0:0:0:
12,28,52822,2,0,L|52:112,2,70,8|0|0,0:0|0:0|0:0,0:0:0:0:
24,184,53138,38,0,L|108:192,1,70
152,112,53349,2,0,L|236:120,1,70,0|8,0:0|0:0,0:0:0:0:
256,204,53559,2,0,L|340:212,1,70
384,132,53770,2,0,L|468:140,2,70
344,296,54086,2,0,B|276:288|276:288|220:312,1,105,0|8,0:0|0:0,0:0:0:0:
24,184,54401,5,0,0:0:0:0:
84,224,54507,1,0,0:0:0:0:
120,284,54612,1,0,0:0:0:0:
144,352,54717,2,0,P|216:328|224:240,1,140,8|0,0:0|0:0,0:0:0:0:
196,204,55033,2,0,L|216:68,1,105
468,40,55349,1,8,0:0:0:0:
456,108,55454,1,0,0:0:0:0:
416,164,55559,1,0,0:0:0:0:
352,196,55665,38,0,L|324:104,1,70,4|0,0:0|0:0,0:0:0:0:
256,324,55875,2,0,L|228:232,1,70,0|8,0:0|0:0,0:0:0:0:
112,192,56086,2,0,L|84:100,1,70
40,312,56296,2,0,L|16:224,2,70
224,168,56612,2,0,L|224:256,2,70
400,312,56928,6,0,L|448:224,2,70
368,184,57244,2,0,B|404:116|404:116|380:52,1,140,8|0,0:0|0:0,0:0:0:0:
280,12,57559,2,0,B|255:70|255:70|288:128,1,105
300,256,57875,2,0,L|248:272,2,52.5,8|0|0,0:0|0:0|0:0,0:0:0:0:
480,128,58191,37,4,0:0:0:0:
192,148,58507,1,0,0:0:0:0:
332,80,58665,1,0,0:0:0:0:
480,128,58822,1,8,0:0:0:0:
68,152,59138,5,0,0:0:0:0:
332,80,59296,2,0,B|344:136|396:152|396:152|380:216|436:256,1,210
208,384,59770,2,0,P|208:328|240:276,1,105,8|0,0:0|0:0,0:0:0:0:
332,80,60086,2,0,P|408:108|348:56,1,210
20,68,60717,6,0,P|52:112|120:120,1,115.50000352478,4|0,0:0|0:0,0:0:0:0:
402,122,61033,2,0,P|460:112|492:68,1,115.50000352478,8|0,0:0|0:0,0:0:0:0:
252,40,61349,2,0,P|248:132|320:176,1,173.250005287171,0|0,0:0|0:0,0:0:0:0:
380,200,61665,1,8,0:0:0:0:
488,92,61822,6,0,P|448:40|376:36,2,115.50000352478
468,240,62296,1,8,0:0:0:0:
336,308,62454,2,0,P|300:224|396:144,1,231.000007049561
444,84,62849,1,0,0:0:0:0:
444,84,62928,2,0,L|320:28,1,115.50000352478,8|0,0:0|0:0,0:0:0:0:
220,232,63244,22,0,P|148:268|52:192,1,173.250005287171,0|0,0:0|0:0,0:0:0:0:
44,160,63559,1,8,0:0:0:0:
268,152,63717,2,0,P|236:240|344:320,1,231.000007049561
396,188,64191,1,8,0:0:0:0:
188,108,64349,6,0,P|288:132|368:28,1,231.000007049561
468,156,64822,1,8,0:0:0:0:
380,276,64980,1,0,0:0:0:0:
288,68,65138,1,0,0:0:0:0:
396,188,65296,5,0,0:0:0:0:
344,216,65375,1,0,0:0:0:0:
288,212,65454,1,8,0:0:0:0:
244,176,65533,1,0,0:0:0:0:
220,124,65612,1,0,0:0:0:0:
232,68,65691,1,0,0:0:0:0:
276,32,65770,22,0,P|352:24|408:104,1,173.250005287171,4|0,0:0|0:0,0:0:0:0:
340,128,66086,2,0,L|188:244,1,173.250005287171,8|0,0:0|0:0,0:0:0:0:
184,304,66401,2,0,B|124:224|0:256|4:260,1,173.250005287171
28,328,66717,1,8,0:0:0:0:
204,364,66875,6,0,P|196:248|316:216,1,231.000007049561
428,268,67349,2,0,P|388:300|312:288,1,115.50000352478,8|0,0:0|0:0,0:0:0:0:
256,268,67586,1,0,0:0:0:0:
256,268,67665,2,0,P|224:216|236:152,1,115.50000352478
428,56,67980,2,0,P|392:112|328:124,1,115.50000352478,8|0,0:0|0:0,0:0:0:0:
280,92,68217,5,0,0:0:0:0:
280,92,68296,2,0,P|224:48|120:76,1,173.250005287171,0|0,0:0|0:0,0:0:0:0:
84,128,68612,1,8,0:0:0:0:
304,176,68770,2,0,P|300:68|404:24,1,231.000007049561
476,152,69244,1,8,0:0:0:0:
268,240,69401,22,0,P|352:188|436:268,1,231.000007049561,4|0,0:0|0:0,0:0:0:0:
304,340,69875,1,8,0:0:0:0:
112,260,70033,1,0,0:0:0:0:
36,48,70191,6,0,B|100:72|100:72|108:96|148:112,1,115.50000352478,4|0,0:0|0:0,0:0:0:0:
108,180,70428,1,0,0:0:0:0:
108,180,70507,2,0,B|131:190|154:179|154:179|216:207,1,115.50000352478,4|0,0:0|0:0,0:0:0:0:
224,284,70744,5,0,0:0:0:0:
224,284,70822,2,0,P|280:300|336:260,1,115.50000352478,4|0,0:0|0:0,0:0:0:0:
472,88,71138,2,0,P|388:72|320:188,2,231.000007049561,8|0|8,0:0|0:0|0:0,0:0:0:0:
272,328,71928,22,0,P|260:232|136:204,1,231.000007049561
24,346,72401,2,0,P|68:356|132:312,1,115.50000352478,8|0,0:0|0:0,0:0:0:0:
140,116,72717,2,0,P|176:76|244:68,1,115.50000352478
300,108,72954,1,0,0:0:0:0:
300,108,73033,2,0,L|424:76,1,115.50000352478,8|0,0:0|0:0,0:0:0:0:
420,304,73349,6,0,B|304:336|304:336|272:308|240:308,1,173.250005287171
184,312,73665,1,8,0:0:0:0:
28,148,73822,2,0,P|140:120|200:220,1,231.000007049561
352,216,74296,1,8,0:0:0:0:
128,212,74454,6,0,P|152:120|36:44,1,231.000007049561
32,192,74928,1,8,0:0:0:0:
112,320,75086,2,0,L|184:304,1,57.7500017623902
240,284,75244,2,0,P|304:316|428:260,1,173.250005287171
428,224,75559,2,0,P|420:160|376:128,1,115.50000352478,8|0,0:0|0:0,0:0:0:0:
316,92,75796,21,0,0:0:0:0:
316,92,75875,2,0,P|256:88|200:36,1,115.50000352478,4|0,0:0|0:0,0:0:0:0:
32,192,76191,2,0,P|136:240|232:168,2,231.000007049561,8|0|8,0:0|0:0|0:0,0:0:0:0:
220,72,76980,6,0,P|228:184|336:216,1,231.000007049561
404,92,77454,1,8,0:0:0:0:
316,300,77612,2,0,P|336:208|424:192,1,173.250005287171
480,184,77928,2,0,L|512:64,2,115.50000352478,0|8|0,0:0|0:0|0:0,0:0:0:0:
256,152,78401,21,0,0:0:0:0:
56,192,78875,1,0,0:0:0:0:
256,152,79033,1,0,0:0:0:0:
56,192,79349,1,8,0:0:0:0:
276,244,79507,5,0,0:0:0:0:
172,44,79665,1,0,0:0:0:0:
320,80,79822,1,0,0:0:0:0:
132,204,79980,2,0,L|16:272,1,115.50000352478,8|0,0:0|0:0,0:0:0:0:
312,320,80296,6,0,B|424:304|424:304|452:328|504:328|512:316,1,173.250005287171
480,244,80612,2,0,B|464:132|464:132|488:104|488:52|476:44,1,173.250005287171,8|0,0:0|0:0,0:0:0:0:
404,76,80928,5,4,0:0:0:0:
76,32,90717,5,0,0:0:0:0:
76,32,90796,1,0,0:0:0:0:
76,32,90875,1,0,0:0:0:0:
80,188,91033,1,4,0:0:0:0:
180,80,91191,2,0,P|264:48|352:132,1,210
184,264,91665,1,0,0:0:0:0:
304,344,91822,2,0,P|332:252|448:240,1,210
336,36,92296,5,0,0:0:0:0:
208,108,92454,1,0,0:0:0:0:
116,220,92612,1,8,0:0:0:0:
88,364,92770,2,0,P|144:352|184:296,1,105
312,328,93086,1,0,0:0:0:0:
364,204,93244,2,0,P|320:176|256:188,1,105,8|0,0:0|0:0,0:0:0:0:
64,96,93559,37,0,0:0:0:0:
24,236,93717,2,0,P|112:232|160:120,1,210
360,56,94191,1,0,0:0:0:0:
308,196,94349,2,0,P|384:132|488:172,1,210
348,340,94822,5,0,0:0:0:0:
200,336,94980,1,0,0:0:0:0:
80,252,95138,1,8,0:0:0:0:
52,108,95296,1,0,0:0:0:0:
260,40,95454,1,0,0:0:0:0:
188,168,95612,2,0,L|212:224,2,52.5,0|0|8,0:0|0:0|0:0,0:0:0:0:
408,172,95928,37,0,0:0:0:0:
372,40,96086,1,4,0:0:0:0:
268,124,96244,2,0,P|160:144|100:48,1,210
260,40,96717,1,0,0:0:0:0:
332,168,96875,2,0,P|328:280|224:320,1,210
40,256,97349,5,0,0:0:0:0:
144,152,97507,1,0,0:0:0:0:
280,212,97665,1,8,0:0:0:0:
400,128,97822,2,0,B|432:60|488:56|488:56|488:104|524:140,1,210
444,264,98296,1,8,0:0:0:0:
316,332,98454,37,0,0:0:0:0:
316,332,98533,1,0,0:0:0:0:
316,332,98612,1,8,0:0:0:0:
92,20,99875,5,8,0:0:0:0:
260,48,100033,1,0,0:0:0:0:
120,128,100191,1,8,0:0:0:0:
252,36,100349,1,0,0:0:0:0:
200,204,100507,1,8,0:0:0:0:
200,204,100586,1,0,0:0:0:0:
200,204,100665,1,0,0:0:0:0:
240,32,100822,1,8,0:0:0:0:
316,224,100980,37,0,0:0:0:0:
316,224,101059,1,0,0:0:0:0:
316,224,101138,2,0,P|384:232|424:204,1,105,4|0,0:0|0:0,0:0:0:0:
480,64,101454,2,0,P|420:72|384:108,1,105,8|0,0:0|0:0,0:0:0:0:
308,308,101770,1,0,0:0:0:0:
472,168,101928,1,0,0:0:0:0:
324,20,102086,2,0,P|304:72|320:132,1,105,8|0,0:0|0:0,0:0:0:0:
100,56,102401,5,0,0:0:0:0:
216,144,102559,1,0,0:0:0:0:
132,264,102717,1,8,0:0:0:0:
340,192,102875,2,0,P|352:128|236:52,1,210
100,56,103349,2,0,P|72:108|12:120,1,105,8|0,0:0|0:0,0:0:0:0:
60,364,103665,38,0,P|128:364|176:328,1,105
276,160,103980,2,0,P|216:172|176:216,1,105,8|0,0:0|0:0,0:0:0:0:
348,348,104296,1,0,0:0:0:0:
444,236,104454,1,0,0:0:0:0:
384,36,104612,2,0,P|364:92|384:144,1,105,8|0,0:0|0:0,0:0:0:0:
224,296,104928,5,0,0:0:0:0:
276,160,105086,1,0,0:0:0:0:
168,60,105244,1,8,0:0:0:0:
384,36,105401,1,0,0:0:0:0:
172,160,105559,1,0,0:0:0:0:
372,204,105717,2,0,P|392:124|512:112,1,210
496,184,106112,37,0,0:0:0:0:
496,184,106191,2,0,B|460:164|448:184|448:184|456:244,1,105,4|0,0:0|0:0,0:0:0:0:
268,352,106507,2,0,L|260:212,1,105,8|0,0:0|0:0,0:0:0:0:
104,160,106822,2,0,P|84:100|28:84,1,105
44,288,107138,2,0,P|88:320|148:308,1,105,8|0,0:0|0:0,0:0:0:0:
272,256,107454,5,0,0:0:0:0:
384,164,107612,1,0,0:0:0:0:
456,36,107770,1,8,0:0:0:0:
268,148,107928,2,0,P|228:64|104:88,1,210
64,124,108322,1,0,0:0:0:0:
64,124,108401,2,0,P|48:172|64:228,1,105,8|0,0:0|0:0,0:0:0:0:
248,344,108717,37,0,0:0:0:0:
196,204,108875,1,0,0:0:0:0:
104,88,109033,2,0,P|48:64|0:80,1,105,8|0,0:0|0:0,0:0:0:0:
124,260,109349,1,0,0:0:0:0:
272,268,109507,1,0,0:0:0:0:
392,184,109665,2,0,P|400:120|444:88,1,105,8|0,0:0|0:0,0:0:0:0:
364,304,109980,5,0,0:0:0:0:
196,204,110138,1,0,0:0:0:0:
392,184,110296,2,0,P|380:128|328:96,1,105,8|0,0:0|0:0,0:0:0:0:
103,179,110612,2,0,P|160:176|196:204,1,105
12,356,110928,2,0,L|52:272,2,70,8|0|0,0:0|0:0|0:0,0:0:0:0:
24,200,111244,38,0,L|108:192,1,70,4|0,0:0|0:0,0:0:0:0:
152,272,111454,2,0,L|236:264,1,70,0|8,0:0|0:0,0:0:0:0:
256,180,111665,2,0,L|340:172,1,70
384,252,111875,2,0,L|468:244,2,70
300,84,112191,2,0,L|384:76,2,70
24,200,112507,5,0,0:0:0:0:
84,160,112612,1,0,0:0:0:0:
120,100,112717,1,0,0:0:0:0:
144,32,112822,2,0,P|216:56|224:144,1,140,8|0,0:0|0:0,0:0:0:0:
196,180,113138,2,0,L|216:316,1,105
500,356,113454,2,0,L|460:272,2,70,8|0|0,0:0|0:0|0:0,0:0:0:0:
488,200,113770,38,0,L|404:192,1,70,0|0,0:0|0:0,0:0:0:0:
360,272,113980,2,0,L|276:264,1,70,0|8,0:0|0:0,0:0:0:0:
256,180,114191,2,0,L|172:172,1,70
128,252,114401,2,0,L|44:244,2,70,0|0|0,0:0|0:0|0:0,0:0:0:0:
272,80,114717,2,0,L|184:72,2,70,0|8|0,0:0|0:0|0:0,0:0:0:0:
488,200,115033,5,0,0:0:0:0:
428,160,115138,1,0,0:0:0:0:
392,100,115244,1,0,0:0:0:0:
368,32,115349,2,0,P|296:56|288:144,1,140,8|0,0:0|0:0,0:0:0:0:
316,180,115665,2,0,L|296:316,1,105
44,344,115980,1,8,0:0:0:0:
56,276,116086,1,0,0:0:0:0:
96,220,116191,1,0,0:0:0:0:
160,188,116296,38,0,L|188:280,1,70
256,60,116507,2,0,L|284:152,1,70,0|8,0:0|0:0,0:0:0:0:
400,192,116717,2,0,L|428:284,1,70
489,99,116928,2,0,L|472:32,1,70
316,180,117138,2,0,L|298:112,1,70
128,244,117349,2,0,L|110:176,1,70,8|0,0:0|0:0,0:0:0:0:
72,44,117559,6,0,L|24:132,2,70
64,204,117875,2,0,B|28:272|28:272|52:336,1,140,8|0,0:0|0:0,0:0:0:0:
152,376,118191,2,0,B|177:318|177:318|144:260,1,105
132,132,118507,2,0,L|184:116,2,52.5,8|0|0,0:0|0:0|0:0,0:0:0:0:
256,272,118822,37,4,0:0:0:0:
472,192,119138,1,0,0:0:0:0:
256,272,119296,1,0,0:0:0:0:
374,50,119454,2,0,L|328:144,1,105,8|0,0:0|0:0,0:0:0:0:
16,336,119928,5,0,0:0:0:0:
16,336,120086,2,0,P|68:320|96:268,1,105,0|0,0:0|0:0,0:0:0:0:
264,80,120401,2,0,P|196:84|160:120,1,105,8|0,0:0|0:0,0:0:0:0:
376,264,120717,2,0,P|380:324|408:248,1,210
44,72,121349,6,0,P|80:132|140:152,1,115.50000352478,4|0,0:0|0:0,0:0:0:0:
196,172,121586,1,0,0:0:0:0:
196,172,121665,2,0,P|248:180|280:236,1,115.50000352478,8|0,0:0|0:0,0:0:0:0:
424,324,121980,2,0,P|356:248|408:168,1,173.250005287171
432,128,122296,1,8,0:0:0:0:
272,312,122454,6,0,P|264:192|348:104,1,231.000007049561
440,232,122928,1,8,0:0:0:0:
200,252,123086,2,0,P|256:288|356:176,1,231.000007049561
340,112,123480,1,0,0:0:0:0:
340,112,123559,2,0,P|292:144|276:208,1,115.50000352478,8|0,0:0|0:0,0:0:0:0:
184,348,123875,22,0,P|104:332|64:232,1,173.250005287171
140,232,124191,2,0,P|64:248|16:168,1,173.250005287171,8|0,0:0|0:0,0:0:0:0:
96,168,124507,2,0,B|148:100|148:100|300:60,1,231.000007049561,0|8,0:0|0:0,0:0:0:0:
468,332,124980,6,0,P|320:288|324:216,1,231.000007049561
424,20,125454,2,0,P|460:76|460:136,1,115.50000352478,8|0,0:0|0:0,0:0:0:0:
316,237,125770,1,0,0:0:0:0:
340,40,125928,5,0,0:0:0:0:
316,92,126007,1,0,0:0:0:0:
272,128,126086,1,8,0:0:0:0:
216,136,126165,1,0,0:0:0:0:
160,116,126244,1,0,0:0:0:0:
128,68,126322,1,0,0:0:0:0:
112,12,126401,22,0,P|88:72|24:96,1,115.50000352478,4|0,0:0|0:0,0:0:0:0:
44,268,126717,2,0,P|156:240|232:324,2,231.000007049561,8|0|8,0:0|0:0|0:0,0:0:0:0:
160,116,127507,6,0,P|228:112|276:60,1,115.50000352478
432,192,127822,2,0,P|468:148|468:84,1,115.50000352478,0|8,0:0|0:0,0:0:0:0:
196,36,128138,2,0,P|168:96|292:192,1,231.000007049561
348,168,128533,1,0,0:0:0:0:
348,168,128612,2,0,P|324:108|276:92,1,115.50000352478,8|0,0:0|0:0,0:0:0:0:
36,304,128928,6,0,P|148:320|192:248,1,173.250005287171
200,204,129244,2,0,P|264:216|308:252,1,115.50000352478,8|0,0:0|0:0,0:0:0:0:
440,336,129559,1,0,0:0:0:0:
448,176,129717,1,0,0:0:0:0:
380,28,129875,1,8,0:0:0:0:
344,268,130033,22,0,P|252:236|264:96,1,231.000007049561,4|0,0:0|0:0,0:0:0:0:
380,28,130507,1,8,0:0:0:0:
148,96,130665,1,0,0:0:0:0:
376,176,130822,1,12,0:0:0:0:
144,252,130980,5,0,0:0:0:0:
172,304,131059,1,0,0:0:0:0:
224,332,131138,1,8,0:0:0:0:
280,332,131217,1,0,0:0:0:0:
332,312,131296,1,0,0:0:0:0:
364,264,131375,1,0,0:0:0:0:
384,208,131454,6,0,P|400:144|460:112,1,115.50000352478,4|0,0:0|0:0,0:0:0:0:
444,36,131691,1,0,0:0:0:0:
444,36,131770,2,0,P|392:52|320:28,1,115.50000352478,8|0,0:0|0:0,0:0:0:0:
160,208,132086,2,0,P|224:120|184:52,1,173.250005287171,0|0,0:0|0:0,0:0:0:0:
128,28,132401,1,8,0:0:0:0:
44,268,132559,22,0,P|148:204|224:284,1,231.000007049561
360,348,133033,1,8,0:0:0:0:
160,208,133191,2,0,P|256:184|268:64,1,231.000007049561
344,40,133586,1,0,0:0:0:0:
344,40,133665,2,0,P|364:104|360:160,1,115.50000352478,8|0,0:0|0:0,0:0:0:0:
196,332,133980,6,0,P|184:248|256:184,1,173.250005287171
320,168,134296,1,8,0:0:0:0:
496,324,134454,2,0,P|408:332|292:224,1,231.000007049561
248,96,134928,1,8,0:0:0:0:
304,312,135086,6,0,P|336:236|472:252,1,231.000007049561
440,324,135480,1,0,0:0:0:0:
440,324,135559,2,0,B|416:296|396:296|396:296|376:356,1,115.50000352478,8|0,0:0|0:0,0:0:0:0:
72,324,135875,2,0,B|96:296|116:296|116:296|136:356,1,115.50000352478
200,304,136112,1,0,0:0:0:0:
200,304,136191,2,0,L|160:176,1,115.50000352478,8|0,0:0|0:0,0:0:0:0:
116,128,136428,21,0,0:0:0:0:
116,128,136507,2,0,P|196:152|248:124,1,115.50000352478,4|0,0:0|0:0,0:0:0:0:
464,100,136822,2,0,P|408:32|280:84,2,231.000007049561,8|0|8,0:0|0:0|0:0,0:0:0:0:
256,228,137612,6,0,P|232:296|72:272,1,231.000007049561
52,144,138086,2,0,P|112:156|148:224,1,115.50000352478,8|0,0:0|0:0,0:0:0:0:
240,328,138401,1,0,0:0:0:0:
400,300,138559,1,0,0:0:0:0:
424,140,138717,1,8,0:0:0:0:
280,68,138875,1,0,0:0:0:0:
176,192,139033,21,0,0:0:0:0:
400,300,139507,1,0,0:0:0:0:
176,192,139665,1,0,0:0:0:0:
400,300,139980,5,8,0:0:0:0:
240,280,140138,1,0,0:0:0:0:
400,300,140454,5,8,0:0:0:0:
296,176,140612,1,0,0:0:0:0:
156,252,140770,1,0,0:0:0:0:
24,344,140928,2,0,B|92:320|92:320|172:376|260:336,1,231.000007049561,8|0,0:0|0:0,0:0:0:0:
256,28,141559,5,0,0:0:0:0:
152,56,146612,22,0,P|100:84|84:168,1,105,4|0,0:0|0:0,0:0:0:0:
24,312,146928,1,8,0:0:0:0:
24,312,147086,2,0,P|92:324|152:208,1,210
20,152,147559,1,8,0:0:0:0:
204,272,147717,6,0,P|160:188|240:104,1,210
372,88,148191,1,8,0:0:0:0:
504,156,148349,1,0,0:0:0:0:
288,188,148507,2,0,P|232:168|212:104,1,105
168,64,148743,1,0,0:0:0:0:
168,64,148822,2,0,P|120:24|52:36,1,105,8|0,0:0|0:0,0:0:0:0:
144,316,149138,6,0,L|224:340,2,70
148,216,149454,2,0,L|80:195,2,70,8|0|0,0:0|0:0|0:0,0:0:0:0:
232,160,149770,2,0,L|312:184,2,70
236,60,150086,2,0,L|168:39,2,70,8|0|0,0:0|0:0|0:0,0:0:0:0:
400,80,150401,22,0,L|476:104,1,70
364,200,150612,2,0,L|297:178,1,70,0|8,0:0|0:0,0:0:0:0:
180,264,150822,2,0,L|256:288,1,70
144,384,151033,2,0,B|68:356|68:356|72:296|0:244,1,210,0|8,0:0|0:0,0:0:0:0:
28,172,151428,2,0,L|68:120,2,52.5,0|0|0,0:0|0:0|0:0,0:0:0:0:
96,216,151665,6,0,P|136:160|192:156,1,105,4|0,0:0|0:0,0:0:0:0:
312,188,151980,1,8,0:0:0:0:
384,316,152138,1,0,0:0:0:0:
68,296,152296,2,0,P|124:296|172:260,1,105
224,136,152612,1,8,0:0:0:0:
360,84,152770,1,0,0:0:0:0:
484,264,152928,6,0,P|432:236|404:180,1,105
292,108,153243,1,8,0:0:0:0:
156,56,153401,1,0,0:0:0:0:
20,232,153559,2,0,P|80:240|128:200,1,105
260,188,153875,1,8,0:0:0:0:
408,200,154033,1,0,0:0:0:0:
268,32,154191,21,0,0:0:0:0:
416,32,154349,1,0,0:0:0:0:
212,116,154507,2,0,P|144:128|48:16,1,210,12|0,0:0|0:0,0:0:0:0:
268,32,154980,2,0,P|216:112|312:196,1,210,4|0,0:0|0:0,0:0:0:0:
280,312,155454,2,0,P|264:216|372:152,1,210,4|0,0:0|0:0,0:0:0:0:
372,384,155928,2,0,P|328:324|196:376,1,210,4|0,0:0|0:0,0:0:0:0:
36,156,156401,5,8,0:0:0:0:
60,108,156480,1,0,0:0:0:0:
108,88,156559,1,0,0:0:0:0:
160,92,156638,1,0,0:0:0:0:
204,124,156717,6,0,P|264:136|328:96,1,105,4|0,0:0|0:0,0:0:0:0:
356,60,156954,1,0,0:0:0:0:
356,60,157033,2,0,P|420:72|460:128,1,105,8|0,0:0|0:0,0:0:0:0:
396,328,157349,2,0,P|328:248|384:160,1,210,0|8,0:0|0:0,0:0:0:0:
512,240,157822,21,0,0:0:0:0:
512,240,157980,2,0,P|472:252|408:244,1,105
340,208,158217,1,0,0:0:0:0:
340,208,158296,2,0,P|296:192|224:208,1,105,8|0,0:0|0:0,0:0:0:0:
28,304,158612,2,0,P|128:296|136:180,1,210,0|8,0:0|0:0,0:0:0:0:
412,108,159086,1,0,0:0:0:0:
308,124,159243,6,0,P|248:136|184:96,1,105,2|0,0:0|0:0,0:0:0:0:
156,60,159480,1,0,0:0:0:0:
156,60,159559,2,0,P|92:72|52:128,1,105,2|0,0:0|0:0,0:0:0:0:
116,328,159875,2,0,P|184:248|128:160,1,210,2|2,0:0|0:0,0:0:0:0:
0,240,160349,5,0,0:0:0:0:
0,240,160507,2,0,P|40:252|104:244,1,105,2|0,0:0|0:0,0:0:0:0:
172,208,160743,1,0,0:0:0:0:
172,208,160822,2,0,P|216:192|288:208,1,105,2|0,0:0|0:0,0:0:0:0:
484,304,161138,2,0,P|384:296|376:180,1,210,2|2,0:0|0:0,0:0:0:0:
100,56,161612,21,0,0:0:0:0:
100,56,161691,1,0,0:0:0:0:
100,56,161770,2,0,P|180:24|252:80,1,157.5,4|0,0:0|0:0,0:0:0:0:
264,132,162086,2,0,P|268:80|368:36,1,157.5,8|0,0:0|0:0,0:0:0:0:
404,92,162401,2,0,P|392:160|304:188,1,157.5
264,132,162717,2,0,P|208:104|120:152,1,157.5,8|0,0:0|0:0,0:0:0:0:
28,264,163033,6,0,P|92:284|160:216,1,157.5
184,152,163349,2,0,P|200:80|288:60,1,157.5,8|0,0:0|0:0,0:0:0:0:
352,80,163665,2,0,P|364:152|456:172,1,157.5
468,104,163980,2,0,L|392:260,1,157.5
360,316,164296,1,8,0:0:0:0:
72,188,164612,21,8,0:0:0:0:
200,280,164770,1,0,0:0:0:0:
140,96,165086,5,0,0:0:0:0:
200,280,165243,1,8,0:0:0:0:
244,52,165401,2,0,P|304:20|424:84,1,210
200,280,165875,1,8,0:0:0:0:
284,132,166191,6,0,P|356:152|388:232,1,157.5,2|0,0:0|0:0,0:0:0:0:
464,280,166507,2,0,P|412:308|316:276,1,157.5,2|0,0:0|0:0,0:0:0:0:
321,281,166822,1,4,0:0:0:0:
52,84,176928,22,0,P|104:84|156:124,1,105,4|0,0:0|0:0,0:0:0:0:
244,224,177243,1,8,0:0:0:0:
436,328,177401,2,0,P|324:264|360:184,1,210
440,112,177875,1,8,0:0:0:0:
216,92,178033,6,0,P|140:100|104:224,1,210
56,280,178428,1,0,0:0:0:0:
56,280,178507,2,0,L|172:332,1,105,8|0,0:0|0:0,0:0:0:0:
312,324,178822,1,0,0:0:0:0:
448,248,178980,1,0,0:0:0:0:
312,56,179138,2,0,P|320:128|360:164,1,105,8|0,0:0|0:0,0:0:0:0:
432,280,179454,38,0,P|360:264|312:328,1,157.5,0|0,0:0|0:0,0:0:0:0:
244,352,179770,2,0,P|180:348|136:300,1,105,8|0,0:0|0:0,0:0:0:0:
56,104,180086,1,0,0:0:0:0:
192,160,180243,1,0,0:0:0:0:
292,268,180401,1,8,0:0:0:0:
408,356,180559,6,0,P|368:288|452:192,1,210
456,56,181033,2,0,P|396:48|356:0,1,105,8|0,0:0|0:0,0:0:0:0:
228,52,181349,1,0,0:0:0:0:
108,136,181507,1,0,0:0:0:0:
40,348,181665,2,0,P|104:336|140:276,1,105,8|0,0:0|0:0,0:0:0:0:
168,240,181901,37,0,0:0:0:0:
168,240,181980,2,0,P|196:180|304:200,1,157.5,4|0,0:0|0:0,0:0:0:0:
324,240,182296,2,0,L|448:228,1,105,8|0,0:0|0:0,0:0:0:0:
280,44,182612,2,0,L|152:56,1,105
68,168,182928,1,8,0:0:0:0:
236,336,183086,6,0,P|184:280|248:160,1,210
180,40,183559,2,0,L|308:28,1,105,8|0,0:0|0:0,0:0:0:0:
388,120,183875,2,0,L|504:144,1,105
376,348,184191,2,0,L|256:316,1,105,8|0,0:0|0:0,0:0:0:0:
208,280,184428,37,0,0:0:0:0:
208,280,184507,2,0,P|192:204|104:188,1,157.5
44,200,184822,2,0,P|88:152|72:92,1,105,8|0,0:0|0:0,0:0:0:0:
204,48,185138,2,0,L|368:28,1,157.5
440,28,185454,1,8,0:0:0:0:
300,236,185612,6,0,P|256:196|244:136,1,105
440,28,185928,2,0,P|420:84|368:116,1,105,0|8,0:0|0:0,0:0:0:0:
176,172,186243,1,0,0:0:0:0:
176,172,186322,1,0,0:0:0:0:
176,172,186401,2,0,P|112:168|56:208,1,105
4,356,186717,2,0,P|72:344|104:300,1,105,8|0,0:0|0:0,0:0:0:0:
252,288,187033,38,0,P|288:236|420:272,1,210
472,40,187507,1,0,0:0:0:0:
472,40,187665,2,0,P|436:136|328:112,1,210,0|0,0:0|0:0,0:0:0:0:
176,172,188138,6,0,P|132:92|4:112,1,210
84,336,188612,1,8,0:0:0:0:
220,284,188770,1,0,0:0:0:0:
220,284,188849,1,0,0:0:0:0:
220,284,188928,2,0,P|264:248|240:328,1,210
492,316,189559,6,0,P|460:272|392:264,1,115.50000352478,4|0,0:0|0:0,0:0:0:0:
110,262,189875,2,0,P|52:272|20:316,1,115.50000352478,8|0,0:0|0:0,0:0:0:0:
260,344,190191,2,0,P|264:252|192:208,1,173.250005287171
132,184,190507,1,8,0:0:0:0:
24,292,190665,6,0,P|64:344|136:348,2,115.50000352478
44,144,191138,1,8,0:0:0:0:
176,76,191296,2,0,P|212:160|116:240,1,231.000007049561
68,300,191691,1,0,0:0:0:0:
68,300,191770,2,0,L|192:356,1,115.50000352478,8|0,0:0|0:0,0:0:0:0:
292,152,192086,22,0,P|364:116|460:192,1,173.250005287171
468,224,192401,1,8,0:0:0:0:
244,232,192559,2,0,P|276:144|168:64,1,231.000007049561
116,196,193033,1,8,0:0:0:0:
324,276,193191,6,0,P|224:252|144:356,1,231.000007049561
44,228,193665,1,8,0:0:0:0:
132,108,193822,1,0,0:0:0:0:
224,316,193980,1,0,0:0:0:0:
116,196,194138,5,0,0:0:0:0:
168,168,194217,1,0,0:0:0:0:
224,172,194296,1,8,0:0:0:0:
268,208,194375,1,0,0:0:0:0:
292,260,194454,1,0,0:0:0:0:
280,316,194533,1,0,0:0:0:0:
236,352,194612,22,0,P|176:360|128:304,1,115.50000352478,4|0,0:0|0:0,0:0:0:0:
52,100,194928,2,0,P|148:128|152:244,1,231.000007049561,8|0,0:0|0:0,0:0:0:0:
8,324,195401,1,0,0:0:0:0:
84,184,195559,1,8,0:0:0:0:
224,84,195717,6,0,P|284:160|408:120,1,231.000007049561
488,24,196191,2,0,P|424:20|388:56,1,115.50000352478,8|0,0:0|0:0,0:0:0:0:
368,296,196507,2,0,P|332:336|272:336,1,115.50000352478
120,284,196822,1,8,0:0:0:0:
68,132,196980,1,0,0:0:0:0:
300,200,197138,6,0,P|304:92|164:52,1,231.000007049561,0|8,0:0|0:0,0:0:0:0:
224,284,197612,2,0,P|284:204|412:256,1,231.000007049561
496,360,198086,1,8,0:0:0:0:
336,384,198243,22,0,P|304:316|324:264,1,115.50000352478,0|4,0:0|0:0,0:0:0:0:
428,64,198559,1,0,0:0:0:0:
428,64,198638,1,0,0:0:0:0:
428,64,198717,2,0,P|392:104|324:100,1,115.50000352478,12|0,0:0|0:0,0:0:0:0:
268,56,198954,1,0,0:0:0:0:
268,56,199033,2,0,L|104:72,1,115.50000352478,4|0,0:0|0:0,0:0:0:0:
56,292,199349,2,0,L|92:224,1,57.7500017623902,8|0,0:0|0:0,0:0:0:0:
188,208,199507,2,0,L|160:259,1,57.7500017623902
232,304,199665,6,0,P|292:252|396:292,1,173.250005287171,4|0,0:0|0:0,0:0:0:0:
452,236,199980,2,0,P|444:164|400:128,1,115.50000352478,8|0,0:0|0:0,0:0:0:0:
176,92,200296,2,0,P|248:120|340:48,1,173.250005287171
360,0,200612,1,8,0:0:0:0:
120,32,200770,6,0,P|156:84|132:144,1,115.50000352478
272,228,201086,2,0,P|236:280|260:340,1,115.50000352478,0|8,0:0|0:0,0:0:0:0:
456,196,201401,2,0,P|436:120|296:104,1,231.000007049561
236,148,201796,1,0,0:0:0:0:
236,148,201875,2,0,L|88:120,1,115.50000352478,8|0,0:0|0:0,0:0:0:0:
56,360,202191,22,0,P|128:320|100:224,1,173.250005287171,0|0,0:0|0:0,0:0:0:0:
56,188,202507,1,8,0:0:0:0:
248,336,202665,2,0,P|280:240|416:248,1,231.000007049561
460,84,203138,1,8,0:0:0:0:
356,304,203296,6,0,P|296:272|280:216,1,115.50000352478
56,188,203612,2,0,P|68:128|128:80,1,115.50000352478,0|8,0:0|0:0,0:0:0:0:
344,52,203928,1,0,0:0:0:0:
344,52,204086,2,0,P|296:100|180:72,1,173.250005287171
152,156,204401,2,0,L|176:296,1,115.50000352478,8|0,0:0|0:0,0:0:0:0:
188,348,204638,5,0,0:0:0:0:
188,348,204717,2,0,P|208:284|276:272,1,115.50000352478,4|0,0:0|0:0,0:0:0:0:
492,300,205033,2,0,P|400:304|340:188,1,231.000007049561,8|0,0:0|0:0,0:0:0:0:
232,72,205507,1,0,0:0:0:0:
72,52,205665,1,8,0:0:0:0:
268,228,205822,22,0,P|360:164|340:48,1,231.000007049561,0|0,0:0|0:0,0:0:0:0:
200,124,206296,1,8,0:0:0:0:
336,316,206454,2,0,P|292:240|148:256,1,231.000007049561
180,324,206849,1,0,0:0:0:0:
180,324,206928,2,0,B|228:280|256:312|256:312|240:364,1,115.50000352478,8|0,0:0|0:0,0:0:0:0:
440,296,207243,37,0,0:0:0:0:
376,144,207717,1,0,0:0:0:0:
440,296,207875,1,8,0:0:0:0:
64,76,208349,5,0,0:0:0:0:
256,44,208507,2,0,L|132:116,1,115.50000352478
192,380,208822,2,0,L|291:322,1,115.50000352478,8|0,0:0|0:0,0:0:0:0:
332,252,209059,1,0,0:0:0:0:
332,252,209138,2,0,P|376:208|520:276,1,231.000007049561
40,268,209770,6,0,P|56:200|144:156,1,157.5,4|0,0:0|0:0,0:0:0:0:
204,152,210086,2,0,L|276:40,1,105,8|0,0:0|0:0,0:0:0:0:
480,152,210401,2,0,B|376:180|376:180|312:288,1,210,0|8,0:0|0:0,0:0:0:0:
104,360,210875,37,0,0:0:0:0:
104,360,210954,1,0,0:0:0:0:
104,360,211033,2,0,P|132:272|76:212,1,157.5
44,164,211349,2,0,L|124:40,1,105,8|0,0:0|0:0,0:0:0:0:
256,44,211665,1,0,0:0:0:0:
404,96,211822,1,0,0:0:0:0:
344,240,211980,1,8,0:0:0:0:
472,336,212138,2,0,L|416:360,1,52.5
344,364,212296,6,0,P|296:320|200:344,1,157.5
140,296,212612,2,0,P|88:256|80:196,1,105,8|0,0:0|0:0,0:0:0:0:
96,144,212849,1,0,0:0:0:0:
96,144,212928,2,0,P|156:112|208:124,1,105
428,84,213243,37,8,0:0:0:0:
312,192,213401,1,0,0:0:0:0:
156,196,213559,2,0,P|96:168|80:48,1,157.5
120,24,213875,2,0,P|180:24|224:60,1,105,8|0,0:0|0:0,0:0:0:0:
256,116,214112,1,0,0:0:0:0:
256,116,214191,2,0,P|328:100|356:48,1,105
432,200,214507,6,0,L|481:217,1,52.5,8|0,0:0|0:0,0:0:0:0:
484,296,214665,2,0,P|460:328|440:344,1,52.5
408,272,214822,2,0,B|288:228|288:228|248:176,1,157.5,4|0,0:0|0:0,0:0:0:0:
204,160,215138,2,0,P|152:144|96:164,1,105,8|0,0:0|0:0,0:0:0:0:
0,372,215454,2,0,P|92:320|52:212,1,210,0|8,0:0|0:0,0:0:0:0:
256,80,215928,37,0,0:0:0:0:
256,80,216007,1,0,0:0:0:0:
256,80,216086,2,0,P|208:44|120:72,1,157.5
128,152,216401,2,0,L|240:184,1,105,8|0,0:0|0:0,0:0:0:0:
452,264,216717,2,0,P|448:204|316:152,1,210,0|8,0:0|0:0,0:0:0:0:
248,28,217191,1,0,0:0:0:0:
116,76,217349,6,0,P|192:112|196:184,1,157.5,0|0,0:0|0:0,0:0:0:0:
144,232,217665,2,0,P|96:224|56:180,1,105,8|0,0:0|0:0,0:0:0:0:
288,48,217980,6,0,P|316:127|268:180,1,157.5,0|0,0:0|0:0,0:0:0:0:
197,178,218296,2,0,P|168:138|171:79,1,105,8|0,0:0|0:0,0:0:0:0:
432,152,218612,22,0,P|396:228|323:232,1,157.5,0|0,0:0|0:0,0:0:0:0:
275,179,218928,2,0,P|283:130|327:90,1,105,8|4,0:0|0:0,0:0:0:0:
388,48,219165,1,0,0:0:0:0:
388,48,219243,5,8,0:0:0:0:
256,272,219401,1,0,0:0:0:0:
124,48,219559,1,0,0:0:0:0:
