osu file format v12

[General]
AudioFilename: Scandal - Awanaitsumorino, Genkidene.mp3
AudioLeadIn: 0
PreviewTime: -1
Countdown: 1
SampleSet: Normal
StackLeniency: 0.7
Mode: 0
LetterboxInBreaks: 1
WidescreenStoryboard: 0

[Editor]
DistanceSpacing: 1
BeatDivisor: 6
GridSize: 8

[Metadata]
Title:Awanaitsumorino, Genkidene
TitleUnicode:Awanaitsumorino, Genkidene
Artist:scandal
ArtistUnicode:scandal
Creator:su4eva
Version:collab
Source:
Tags:
BeatmapID:350637
BeatmapSetID:140372

[Difficulty]
HPDrainRate:6
CircleSize:6
OverallDifficulty:7
ApproachRate:9
SliderMultiplier:1.4
SliderTickRate:1

[Events]
//Background and Video events
0,0,"awanai.jpg",0,0
//Break Periods
2,23091,34462
//Storyboard Layer 0 (Background)
//Storyboard Layer 1 (Fail)
//Storyboard Layer 2 (Pass)
//Storyboard Layer 3 (Foreground)
//Storyboard Sound Samples
//Background Colour Transformations
3,100,163,162,255

[TimingPoints]
11920,342.857142857143,4,1,0,100,1,0
12000,-100,4,1,0,100,0,0

[HitObjects]
256,184,11919,1,0,0:0:0:0:
256,184,13291,1,0,0:0:0:0:
256,184,14662,1,0,0:0:0:0:
256,184,16034,1,0,0:0:0:0:
432,64,16605,5,0,0:0:0:0:
440,128,16834,2,0,L|456:176,2,46.6666666666667
352,64,17405,1,0,0:0:0:0:
272,64,17577,1,0,0:0:0:0:
184,64,17748,1,0,0:0:0:0:
88,64,17919,1,0,0:0:0:0:
88,160,18091,1,0,0:0:0:0:
184,160,18262,1,0,0:0:0:0:
272,160,18434,1,0,0:0:0:0:
352,160,18605,1,0,0:0:0:0:
432,160,18777,6,0,L|432:240,1,70
432,304,19119,5,0,0:0:0:0:
352,304,19291,1,0,0:0:0:0:
272,304,19462,1,0,0:0:0:0:
192,304,19634,1,0,0:0:0:0:
192,216,19805,1,0,0:0:0:0:
272,216,19977,1,0,0:0:0:0:
352,216,20148,6,0,L|352:136,1,70
432,144,20491,5,0,0:0:0:0:
432,48,20662,1,0,0:0:0:0:
352,48,20834,1,0,0:0:0:0:
272,48,21005,1,0,0:0:0:0:
192,48,21177,1,0,0:0:0:0:
96,48,21348,1,0,0:0:0:0:
96,144,21519,2,0,L|96:256,1,93.3333333333333
192,192,22377,5,0,0:0:0:0:
304,192,22548,1,0,0:0:0:0:
72,192,22891,1,0,0:0:0:0:
464,48,35062,6,0,L|408:120,1,70
384,144,35405,2,0,L|320:88,1,70
288,112,35748,2,0,L|232:168,1,70
160,224,36262,5,0,0:0:0:0:
240,192,36434,1,0,0:0:0:0:
304,192,36605,1,0,0:0:0:0:
336,248,36777,1,0,0:0:0:0:
368,192,36948,1,0,0:0:0:0:
400,248,37119,1,0,0:0:0:0:
432,192,37291,1,0,0:0:0:0:
400,136,37462,1,0,0:0:0:0:
336,136,37634,1,0,0:0:0:0:
368,72,40548,6,0,L|432:16,1,70
424,96,40891,1,0,0:0:0:0:
408,112,41062,1,0,0:0:0:0:
360,160,41234,2,0,L|272:224,1,93.3333333333333
240,224,41748,5,0,0:0:0:0:
192,160,41919,1,0,0:0:0:0:
208,96,42091,1,0,0:0:0:0:
280,56,42434,2,0,L|216:48,1,46.6666666666667
136,32,42719,1,0,0:0:0:0:
80,104,42891,1,0,0:0:0:0:
64,176,43119,1,0,0:0:0:0:
