osu file format v14

[General]
AudioFilename: Koishi Circulation.mp3
AudioLeadIn: 0
PreviewTime: -1
Countdown: 1
SampleSet: Normal
StackLeniency: 0.7
Mode: 0
LetterboxInBreaks: 1
WidescreenStoryboard: 1

[Editor]
Bookmarks: 1655,18707,19339,39549,59760,79970,100181,120392,138076,157023,158286,168392,178496,188602,189865,208813,210076,230286
DistanceSpacing: 1.6
BeatDivisor: 4
GridSize: 4
TimelineZoom: 2.999999

[Metadata]
Title:Koishi Circulation
TitleUnicode:Koishi Circulation
Artist:sawawa
ArtistUnicode:さわわ
Creator:A s h e m u
Version:Insane+ AR10
Source:東方Project
Tags:ハルトマンの妖怪少女 Komeiji Koishi Circulation Touhou Sawawa さわわ 東方疾走響2
BeatmapID:774171
BeatmapSetID:350469

[Difficulty]
HPDrainRate:7
CircleSize:4
OverallDifficulty:8
ApproachRate:10
SliderMultiplier:1.8
SliderTickRate:1

[Events]
//Background and Video events
0,0,"Koishi Circulation_BG.jpg",0,0
//Break Periods
2,59944,68136
//Storyboard Layer 0 (Background)
//Storyboard Layer 1 (Fail)
//Storyboard Layer 2 (Pass)
//Storyboard Layer 3 (Foreground)
//Storyboard Sound Samples

[TimingPoints]
1639,315.789473684211,7,1,0,60,1,0
19323,315.789473684211,4,1,0,60,1,0
79954,-76.9230769230769,4,1,0,60,0,1
81217,-100,4,1,0,60,0,1
81533,-142.857142857143,4,1,0,60,0,1
81849,-200,4,1,0,60,0,1
82165,-100,4,1,0,60,0,1
82480,-76.9230769230769,4,1,0,60,0,1
83744,-166.666666666667,4,1,0,60,0,1
84059,-100,4,1,0,60,0,1
84375,-66.6666666666667,4,1,0,60,0,1
84849,-76.9230769230769,4,1,0,60,0,1
87217,-166.666666666667,4,1,0,60,0,1
87533,-76.9230769230769,4,1,0,60,0,1
89428,-166.666666666667,4,1,0,60,0,1
89744,-55.5555555555556,4,1,0,60,0,1
90059,-76.9230769230769,4,1,0,60,0,1
91323,-100,4,1,0,60,0,1
91638,-166.666666666667,4,1,0,60,0,1
92586,-76.9230769230769,4,1,0,60,0,1
93849,-100,4,1,0,60,0,1
94165,-166.666666666667,4,1,0,60,0,1
94954,-76.9230769230769,4,1,0,60,0,1
97007,-100,4,1,0,60,0,1
97323,-166.666666666667,4,1,0,60,0,1
98901,-76.9230769230769,4,1,0,60,0,1
99849,-55.5555555555556,4,1,0,60,0,1
100165,-83.3333333333333,4,1,0,60,0,1
101744,-71.4285714285714,4,1,0,60,0,1
102059,-62.5,4,1,0,60,0,1
102375,-55.5555555555556,4,1,0,60,0,1
102691,-76.9230769230769,4,1,0,60,0,1
103954,-71.4285714285714,4,1,0,60,0,1
104270,-50,4,1,0,60,0,1
104901,-76.9230769230769,4,1,0,60,0,1
107112,-142.857142857143,4,1,0,60,0,1
107744,-76.9230769230769,4,1,0,60,0,1
111849,-100,4,1,0,60,0,1
112165,-142.857142857143,4,1,0,60,0,1
112796,-76.9230769230769,4,1,0,60,0,1
114059,-166.666666666667,4,1,0,60,0,1
114691,-100,4,1,0,60,0,1
115007,-55.5555555555556,4,1,0,60,0,1
115323,-76.9230769230769,4,1,0,60,0,1
120375,315.789473684211,7,1,0,60,1,0
120376,-100,4,1,0,60,0,0
138059,315.789473684211,4,1,0,60,1,0
168374,-142.857142857143,4,1,0,60,0,0
186059,-100,4,1,0,60,0,0
188585,-200,4,1,0,60,0,0
188901,-142.857142857143,4,1,0,60,0,0
189216,-83.3333333333333,4,1,0,60,0,0
189532,-55.5555555555556,4,1,0,60,0,0
189848,-76.9230769230769,4,1,0,60,0,1
198690,-100,4,1,0,60,0,1
199006,-142.857142857143,4,1,0,60,0,1
199322,-200,4,1,0,60,0,1
199637,-55.5555555555556,4,1,0,60,0,1
199953,-76.9230769230769,4,1,0,60,0,1
208795,-100,4,1,0,60,0,0
209743,-55.5555555555556,4,1,0,60,0,0
210059,-66.6666666666667,4,1,0,60,0,1
218901,-83.3333333333333,4,1,0,60,0,1
219216,-100,4,1,0,60,0,1
219532,-125,4,1,0,60,0,1
219848,-66.6666666666667,4,1,0,60,0,1
230270,-100,4,1,0,60,0,0

[HitObjects]
208,120,1639,5,0,0:0:0:0:
128,192,1796,1,0,0:0:0:0:
64,80,1954,1,0,0:0:0:0:
24,288,2112,2,0,P|96:296|160:288,1,135
200,272,2428,2,0,L|240:176,1,90
352,48,2744,5,0,0:0:0:0:
400,128,2902,2,0,L|360:224,1,90
368,304,3217,2,0,P|424:320|464:312,1,90
496,240,3533,1,0,0:0:0:0:
400,128,3691,1,0,0:0:0:0:
264,192,3849,5,0,0:0:0:0:
208,304,4007,1,0,0:0:0:0:
56,216,4165,1,0,0:0:0:0:
112,80,4323,2,0,P|176:48|256:56,1,135
280,72,4639,2,0,L|304:160,1,90
272,328,4954,1,0,0:0:0:0:
192,272,5112,2,0,L|168:184,1,90
112,80,5428,2,0,P|64:72|16:80,2,90
280,152,5902,5,0,0:0:0:0:
280,152,5981,1,0,0:0:0:0:
280,152,6060,2,0,L|384:176,1,90
464,120,6375,1,0,0:0:0:0:
496,320,6533,2,0,P|432:336|360:320,1,135
328,288,6849,2,0,L|296:200,1,90
168,72,7165,5,0,0:0:0:0:
120,168,7323,2,0,L|152:256,1,90
184,336,7639,2,0,P|160:368|112:376,1,90
248,272,7954,2,0,P|272:240|320:232,1,90
408,304,8270,5,0,0:0:0:0:
464,152,8428,1,0,0:0:0:0:
464,152,8586,1,0,0:0:0:0:
376,48,8744,2,0,P|304:48|248:104,1,135
232,128,9060,2,0,L|136:152,1,90
40,80,9375,5,0,0:0:0:0:
120,256,9533,2,0,L|208:232,1,90
408,176,9849,2,0,P|432:224|432:272,1,90
145,339,10165,2,0,P|121:291|121:243,1,90
168,120,10481,5,0,0:0:0:0:
256,56,10639,1,0,0:0:0:0:
408,176,10796,1,0,0:0:0:0:
256,312,10954,2,0,P|184:280|152:232,1,135
128,184,11270,2,0,L|200:120,1,90
288,40,11586,5,0,0:0:0:0:
328,180,11744,1,0,0:0:0:0:
460,116,11902,1,0,0:0:0:0:
288,32,12060,5,0,0:0:0:0:
460,128,12217,1,0,0:0:0:0:
328,192,12375,1,0,0:0:0:0:
136,44,12533,1,0,0:0:0:0:
68,212,12691,6,0,P|56:168|68:124,1,90
136,32,13007,1,0,0:0:0:0:
228,168,13165,2,0,P|244:264|268:288,1,135
308,308,13481,2,0,L|388:252,1,90
384,80,13796,5,0,0:0:0:0:
272,80,13954,1,0,0:0:0:0:
228,168,14112,1,0,0:0:0:0:
464,32,14270,2,0,P|480:80|464:120,1,90
368,172,14586,1,0,0:0:0:0:
256,288,14744,5,0,0:0:0:0:
256,288,14823,1,0,0:0:0:0:
256,288,14902,2,0,L|152:304,1,90
72,248,15217,1,0,0:0:0:0:
128,96,15375,2,0,P|176:48|256:48,1,135
280,80,15691,2,0,L|344:144,1,90
448,152,16007,5,0,0:0:0:0:
416,240,16165,2,0,L|320:248,1,90
72,248,16481,2,0,P|56:192|64:160,1,90
176,56,16796,2,0,P|192:96|184:144,1,90
128,216,17112,5,0,0:0:0:0:
208,288,17270,2,0,L|304:272,1,90
448,248,17586,2,0,P|456:176|424:120,1,135
392,88,17902,2,0,L|304:104,1,90
144,128,18217,5,0,0:0:0:0:
96,224,18375,2,0,P|40:232|-8:224,1,90
16,104,18691,6,0,L|32:80,7,22.5
48,64,19007,1,0,0:0:0:0:
88,48,19086,1,0,0:0:0:0:
128,48,19165,1,0,0:0:0:0:
168,80,19244,1,0,0:0:0:0:
192,128,19323,6,0,P|240:144|288:136,1,90
352,48,19638,1,0,0:0:0:0:
432,192,19796,1,0,0:0:0:0:
352,320,19954,2,0,L|248:328,1,90
262,326,20191,1,0,0:0:0:0:
262,326,20270,1,0,0:0:0:0:
168,248,20428,1,0,0:0:0:0:
56,312,20586,6,0,P|32:320|0:320,2,45
136,144,20901,1,0,0:0:0:0:
256,200,21059,2,0,L|272:248,1,45
288,288,21217,2,0,P|336:304|376:288,1,90
456,200,21533,1,0,0:0:0:0:
352,80,21691,1,0,0:0:0:0:
288,160,21849,5,0,0:0:0:0:
272,184,21928,1,0,0:0:0:0:
256,208,22007,2,0,P|200:208|168:184,1,90
184,48,22323,1,0,0:0:0:0:
32,104,22480,2,0,L|16:200,1,90
8,256,22717,1,0,0:0:0:0:
8,256,22796,1,0,0:0:0:0:
143,281,22954,1,0,0:0:0:0:
336,168,23112,5,0,0:0:0:0:
376,152,23191,1,0,0:0:0:0:
416,144,23270,2,0,P|440:192|440:240,1,90
264,328,23586,1,0,0:0:0:0:
224,344,23665,1,0,0:0:0:0:
183,359,23744,2,0,P|151:319|143:279,1,90
216,160,24059,1,0,0:0:0:0:
216,160,24138,1,0,0:0:0:0:
216,160,24217,1,0,0:0:0:0:
320,272,24375,6,0,L|348:312,1,45
412,368,24533,2,0,P|460:352|484:316,1,90
424,212,24849,1,0,0:0:0:0:
305,167,25007,2,0,L|209:159,1,90
215,159,25244,1,0,0:0:0:0:
215,159,25323,1,0,0:0:0:0:
168,24,25480,1,0,0:0:0:0:
72,144,25638,5,0,0:0:0:0:
56,184,25717,1,0,0:0:0:0:
56,232,25796,1,0,0:0:0:0:
128,336,25954,1,0,0:0:0:0:
104,116,26112,1,0,0:0:0:0:
144,100,26191,1,0,0:0:0:0:
192,100,26270,1,0,0:0:0:0:
312,280,26428,1,0,0:0:0:0:
348,64,26586,1,0,0:0:0:0:
216,220,26744,1,0,0:0:0:0:
112,56,26901,5,0,0:0:0:0:
112,56,26980,1,0,0:0:0:0:
112,56,27059,2,0,L|208:64,1,90
332,168,27375,1,0,0:0:0:0:
448,24,27533,2,0,L|358:31,1,90
358,31,27770,1,0,0:0:0:0:
358,31,27849,1,0,0:0:0:0:
236,112,28007,1,0,0:0:0:0:
160,320,28165,5,0,0:0:0:0:
112,304,28244,1,0,0:0:0:0:
80,272,28323,1,0,0:0:0:0:
80,112,28480,1,0,0:0:0:0:
192,40,28638,1,0,0:0:0:0:
192,40,28717,1,0,0:0:0:0:
192,40,28796,6,0,L|240:40,1,45
376,112,28954,2,0,L|320:112,1,45
192,184,29112,2,0,L|240:184,1,45
376,256,29270,2,0,L|320:256,1,45
192,320,29428,5,0,0:0:0:0:
176,320,29507,1,0,0:0:0:0:
160,320,29586,2,0,L|56:320,1,90
16,232,29901,1,0,0:0:0:0:
80,80,30059,2,0,L|184:80,1,90
170,80,30296,1,0,0:0:0:0:
170,80,30375,1,0,0:0:0:0:
264,24,30533,1,0,0:0:0:0:
344,160,30691,5,0,0:0:0:0:
344,160,30770,1,0,0:0:0:0:
344,160,30849,2,0,P|400:192|432:192,1,90
256,280,31165,1,0,0:0:0:0:
256,280,31244,1,0,0:0:0:0:
256,280,31323,2,0,P|216:304|168:304,1,90
96,232,31638,1,0,0:0:0:0:
170,80,31796,1,0,0:0:0:0:
240,160,31954,6,0,L|288:160,1,45
368,160,32112,2,0,P|384:112|368:64,1,90
304,24,32428,1,0,0:0:0:0:
240,160,32586,1,0,0:0:0:0:
170,80,32744,1,0,0:0:0:0:
170,80,32823,1,0,0:0:0:0:
170,80,32901,2,0,L|80:88,1,90
48,264,33217,6,0,L|144:256,1,90
137,256,33454,1,0,0:0:0:0:
137,256,33533,1,0,0:0:0:0:
384,312,33691,2,0,L|288:320,1,90
294,319,33928,1,0,0:0:0:0:
294,319,34007,1,0,0:0:0:0:
200,192,34165,1,0,0:0:0:0:
144,352,34323,1,0,0:0:0:0:
48,264,34480,6,0,L|56:216,7,45
176,96,35112,2,0,L|168:152,7,45
160,192,35744,5,0,0:0:0:0:
168,240,35823,1,0,0:0:0:0:
200,272,35901,1,0,0:0:0:0:
248,280,35980,1,0,0:0:0:0:
288,256,36059,1,0,0:0:0:0:
336,240,36138,1,0,0:0:0:0:
384,240,36217,1,0,0:0:0:0:
424,272,36296,1,0,0:0:0:0:
448,312,36375,6,0,L|424:360,1,45
225,319,36533,2,0,L|257:263,1,45
424,272,36691,2,0,L|400:320,1,45
200,272,36849,2,0,L|232:216,1,45
224,148,37007,5,0,0:0:0:0:
184,124,37086,1,0,0:0:0:0:
136,127,37165,1,0,0:0:0:0:
96,148,37244,1,0,0:0:0:0:
72,192,37323,2,0,L|88:244,1,45
264,224,37480,2,0,L|248:172,1,45
260,136,37638,5,0,0:0:0:0:
288,96,37717,1,0,0:0:0:0:
332,76,37796,1,0,0:0:0:0:
384,84,37875,1,0,0:0:0:0:
424,116,37954,2,0,L|460:160,1,45
316,200,38112,2,0,L|280:156,1,45
208,48,38270,6,0,L|168:56,7,22.5
296,40,38586,1,0,0:0:0:0:
271,202,38744,6,0,L|263:226,3,22.5
252,264,38901,1,0,0:0:0:0:
96,176,39059,5,0,0:0:0:0:
256,348,39217,1,0,0:0:0:0:
388,264,39375,1,0,0:0:0:0:
392,72,39533,6,0,L|504:88,1,90
481,84,39849,1,0,0:0:0:0:
144,184,40165,2,0,L|32:200,1,90
55,196,40480,1,0,0:0:0:0:
360,328,40796,2,0,L|472:344,1,90
449,340,41112,1,0,0:0:0:0:
144,184,41428,2,0,L|128:72,1,90
132,95,41744,1,0,0:0:0:0:
360,328,42059,5,0,0:0:0:0:
392,224,42217,1,0,0:0:0:0:
360,328,42375,1,0,0:0:0:0:
144,184,42691,1,0,0:0:0:0:
96,288,42849,1,0,0:0:0:0:
144,184,43007,1,0,0:0:0:0:
392,96,43323,6,0,P|448:88|488:96,2,90
120,288,43954,2,0,P|64:296|24:288,1,90
80,96,44270,1,0,0:0:0:0:
208,336,44428,1,0,0:0:0:0:
264,200,44586,6,0,P|312:192|352:200,1,90
488,248,44901,2,0,L|512:144,1,90
368,40,45217,2,0,P|320:48|280:40,1,90
96,8,45533,2,0,L|80:96,1,90
48,280,45849,6,0,P|96:296|144:288,1,90
264,152,46165,2,0,P|320:144|360:152,1,90
448,304,46480,1,0,0:0:0:0:
496,112,46638,2,0,P|512:72|496:24,2,90
336,208,47112,6,0,L|320:296,1,90
152,360,47428,2,0,P|104:352|72:320,1,90
64,128,47744,2,0,P|120:136|152:160,1,90
240,328,48059,2,0,P|296:320|328:296,1,90
336,208,48375,5,0,0:0:0:0:
408,128,48533,2,0,P|448:112|496:128,2,90
336,208,49007,5,0,0:0:0:0:
240,328,49165,1,0,0:0:0:0:
144,64,49323,1,0,0:0:0:0:
72,328,49638,6,0,L|96:232,1,90
216,32,49954,2,0,L|232:144,1,90
320,328,50270,2,0,L|344:232,1,90
464,32,50586,2,0,L|480:144,1,90
440,328,50901,6,0,L|416:232,1,90
296,32,51217,2,0,L|280:144,1,90
192,328,51533,2,0,L|168:232,1,90
48,32,51849,2,0,L|32:144,1,90
103,342,52165,6,0,L|199:326,1,90
416,232,52480,2,0,L|320:216,1,90
104,152,52796,2,0,L|200:136,1,90
417,42,53112,2,0,L|321:26,1,90
136,8,53428,5,0,0:0:0:0:
32,200,53586,2,0,P|0:176|-8:128,2,90
176,256,54059,1,0,0:0:0:0:
280,64,54217,2,0,P|312:88|320:136,2,90
312,264,54691,5,0,0:0:0:0:
312,264,54849,1,0,0:0:0:0:
208,88,55007,1,0,0:0:0:0:
208,88,55165,1,0,0:0:0:0:
64,216,55323,1,0,0:0:0:0:
64,216,55480,1,0,0:0:0:0:
56,80,55638,1,0,0:0:0:0:
56,80,55796,1,0,0:0:0:0:
128,4,55954,5,0,0:0:0:0:
312,76,56112,1,0,0:0:0:0:
164,184,56270,1,0,0:0:0:0:
312,248,56428,1,0,0:0:0:0:
384,32,56586,1,0,0:0:0:0:
312,248,56744,1,0,0:0:0:0:
204,80,56901,1,0,0:0:0:0:
164,184,57059,1,0,0:0:0:0:
16,240,57217,6,0,L|80:256,3,45
136,352,57533,2,0,L|184:336,3,45
224,320,57849,5,0,0:0:0:0:
272,312,57928,1,0,0:0:0:0:
320,320,58007,1,0,0:0:0:0:
360,344,58086,1,0,0:0:0:0:
408,344,58165,1,0,0:0:0:0:
440,304,58244,1,0,0:0:0:0:
432,256,58323,1,0,0:0:0:0:
392,224,58401,1,0,0:0:0:0:
352,192,58480,6,0,P|344:160|352:136,1,45
432,56,58638,2,0,P|440:88|432:112,1,45
424,144,58796,1,0,0:0:0:0:
384,176,58875,1,0,0:0:0:0:
336,184,58954,1,0,0:0:0:0:
288,176,59033,1,0,0:0:0:0:
248,144,59112,6,0,L|224:120,7,22.5
200,88,59428,6,0,L|192:64,7,22.5
184,24,59744,5,0,0:0:0:0:
256,192,68586,12,0,69533,0:0:0:0:
128,232,69849,5,0,0:0:0:0:
160,348,70007,2,0,P|112:356|72:340,2,90
272,264,70480,1,0,0:0:0:0:
352,348,70638,2,0,L|376:256,1,90
400,156,70954,1,0,0:0:0:0:
388,112,71033,1,0,0:0:0:0:
356,80,71112,1,0,0:0:0:0:
128,180,71428,2,0,P|152:268|228:304,2,180
76,340,72375,6,0,L|44:244,1,90
204,132,72691,2,0,L|236:228,1,90
48,144,73007,1,0,0:0:0:0:
116,32,73165,1,0,0:0:0:0:
296,120,73323,2,0,L|392:80,1,90
484,124,73638,5,0,0:0:0:0:
408,4,73796,1,0,0:0:0:0:
340,204,73954,2,0,P|292:216|244:200,1,90
184,48,74270,2,0,B|180:16|180:16|128:160,1,180
112,320,74744,6,0,L|172:300,1,45
224,272,74901,2,0,P|233:228|221:185,1,90
104,12,75217,2,0,P|94:55|106:98,1,90
260,44,75533,1,0,0:0:0:0:
106,98,75691,1,0,0:0:0:0:
221,185,75849,1,0,0:0:0:0:
59,255,76007,1,0,0:0:0:0:
378,301,76165,6,0,L|292:328,1,90
134,208,76480,2,0,L|221:185,1,90
268,28,76796,2,0,P|340:64|308:164,1,180
59,255,77428,5,0,0:0:0:0:
221,185,77586,1,0,0:0:0:0:
158,326,77744,1,0,0:0:0:0:
320,256,77901,1,0,0:0:0:0:
476,96,78059,1,0,0:0:0:0:
314,166,78217,1,0,0:0:0:0:
377,25,78375,1,0,0:0:0:0:
215,95,78533,1,0,0:0:0:0:
260,280,78691,5,0,0:0:0:0:
251,312,78770,1,0,0:0:0:0:
245,342,78849,1,0,0:0:0:0:
269,319,78928,1,0,0:0:0:0:
297,300,79007,1,0,0:0:0:0:
328,289,79086,1,0,0:0:0:0:
362,285,79165,1,0,0:0:0:0:
395,288,79244,1,0,0:0:0:0:
428,297,79323,5,0,0:0:0:0:
464,144,79480,2,0,L|488:96,1,45
364,160,79638,2,0,P|328:216|260:248,1,135
180,200,79954,6,0,P|156:144|152:84,1,116.999994644165
364,160,80270,2,0,L|388:272,1,107.999996704102
386,265,80507,1,0,0:0:0:0:
386,265,80586,1,0,0:0:0:0:
304,356,80744,1,0,0:0:0:0:
284,224,80901,1,0,0:0:0:0:
152,312,81059,2,0,L|96:288,1,58.4999973220826
56,188,81217,6,0,P|60:120|92:52,1,135
128,156,81533,6,0,P|160:96|188:72,1,94.499997116089
208,160,81849,6,0,P|244:184|252:224,1,67.5
153,312,82165,6,0,P|217:364|285:356,1,135
284,196,82480,6,0,P|312:144|316:76,1,116.999994644165
80,72,82796,2,0,P|52:124|48:192,1,116.999994644165
72,296,83112,1,0,0:0:0:0:
208,240,83270,1,0,0:0:0:0:
208,240,83349,1,0,0:0:0:0:
208,240,83428,1,0,0:0:0:0:
156,32,83586,1,0,0:0:0:0:
328,128,83744,6,0,P|361:161|370:204,1,80.9999975280763
248,326,84059,6,0,L|296:184,1,135
352,56,84375,6,0,P|232:44|128:144,1,270.000010299683
248,326,84849,2,0,L|328:340,1,58.4999973220826
412,352,85007,6,0,P|448:308|452:240,1,116.999994644165
372,160,85323,1,0,0:0:0:0:
248,326,85480,1,0,0:0:0:0:
160,216,85638,1,0,0:0:0:0:
92,348,85796,1,0,0:0:0:0:
92,348,85875,1,0,0:0:0:0:
92,348,85954,2,0,P|148:360|208:348,1,116.999994644165
292,292,86270,5,0,0:0:0:0:
372,160,86428,1,0,0:0:0:0:
160,216,86586,1,0,0:0:0:0:
248,326,86744,1,0,0:0:0:0:
372,160,86901,2,0,P|304:104|276:12,1,175.499991966248
232,120,87217,2,0,L|216:212,1,80.9999975280763
200,344,87533,6,0,P|144:344|88:320,1,116.999994644165
48,192,87770,1,0,0:0:0:0:
48,192,87849,2,0,P|104:192|160:216,1,116.999994644165
292,292,88165,1,0,0:0:0:0:
316,88,88323,2,0,L|260:36,1,58.4999973220826
220,0,88480,2,0,P|164:12|128:72,1,116.999994644165
152,184,88796,5,0,0:0:0:0:
200,344,88954,1,0,0:0:0:0:
316,88,89112,1,0,0:0:0:0:
392,336,89270,1,0,0:0:0:0:
160,276,89428,2,0,P|201:262|247:282,1,80.9999975280763
296,372,89744,6,0,L|348:124,1,242.999992584229
416,204,90059,6,0,P|436:256|416:320,1,116.999994644165
91,313,90375,2,0,P|75:257|96:204,1,116.999994644165
216,100,90691,1,0,0:0:0:0:
416,204,90849,1,0,0:0:0:0:
260,304,91007,1,0,0:0:0:0:
316,88,91165,1,0,0:0:0:0:
316,88,91244,1,0,0:0:0:0:
316,88,91323,6,0,P|296:156|232:192,1,135
144,148,91638,6,0,P|132:88|140:56,1,80.9999975280763
244,189,91954,2,0,P|256:249|248:281,1,80.9999975280763
237,96,92270,2,0,P|297:84|329:92,1,80.9999975280763
168,232,92586,6,0,P|108:232|60:192,1,116.999994644165
200,40,92901,2,0,L|216:164,1,116.999994644165
308,216,93217,1,0,0:0:0:0:
112,324,93375,1,0,0:0:0:0:
112,324,93454,1,0,0:0:0:0:
112,324,93533,2,0,P|172:336|228:312,1,116.999994644165
308,216,93849,6,0,L|356:84,1,135
400,180,94165,2,0,P|424:236|440:248,1,80.9999975280763
354,89,94480,2,0,P|336:40|284:12,1,107.999996704102
220,160,94954,6,0,L|208:220,1,58.4999973220826
180,320,95112,2,0,P|132:352|68:348,1,116.999994644165
36,132,95428,2,0,P|84:100|148:104,1,116.999994644165
112,232,95744,1,0,0:0:0:0:
276,256,95901,1,0,0:0:0:0:
74,350,96059,2,0,L|28:228,1,116.999994644165
196,236,96375,6,0,P|224:188|284:176,1,116.999994644165
352,308,96691,1,0,0:0:0:0:
400,180,96849,1,0,0:0:0:0:
344,48,97007,2,0,L|304:180,1,135
196,236,97323,2,0,P|160:228|132:192,1,80.9999975280763
176,116,97638,5,0,0:0:0:0:
344,48,97796,1,0,0:0:0:0:
196,236,97954,1,0,0:0:0:0:
400,180,98112,1,0,0:0:0:0:
352,308,98270,1,0,0:0:0:0:
196,236,98428,1,0,0:0:0:0:
72,320,98586,1,0,0:0:0:0:
176,116,98744,1,0,0:0:0:0:
196,236,98901,5,0,0:0:0:0:
72,320,99059,2,0,P|116:368|180:376,1,116.999994644165
356,232,99375,1,0,0:0:0:0:
164,378,99533,1,0,0:0:0:0:
68,184,99691,1,0,0:0:0:0:
68,184,99770,1,0,0:0:0:0:
68,184,99849,2,0,P|76:60|176:4,1,242.999992584229
229,70,100165,6,0,P|285:78|341:70,1,107.999996704102
174,185,100480,2,0,P|118:177|62:185,1,107.999996704102
120,284,100796,1,0,0:0:0:0:
229,70,100954,1,0,0:0:0:0:
288,188,101112,1,0,0:0:0:0:
236,292,101270,2,0,L|292:320,1,53.9999983520508
384,312,101428,6,0,P|432:240|412:168,1,161.999995056153
288,188,101744,6,0,B|160:132|160:132|176:188,1,188.999994232178
228,320,102059,6,0,B|145:348|60:308|60:308|105:300,1,216
288,188,102375,6,0,B|336:40|336:40|360:136,1,242.999992584229
372,228,102691,5,0,0:0:0:0:
196,208,102849,2,0,P|206:146|263:102,2,116.999994644165
228,320,103323,2,0,L|164:336,1,58.4999973220826
72,352,103480,2,0,P|48:300|60:232,1,116.999994644165
176,120,103796,6,0,B|252:128,1,58.4999973220826
248,280,103954,2,0,P|192:296|120:264,1,125.999996154785
316,176,104270,6,0,B|340:244|340:244|355:234,1,90
491,159,104428,2,0,P|478:116|452:80,1,90
124,97,104586,6,0,B|136:168|112:272|112:272|120:300|120:300|152:340|224:336|248:280,1,360
312,40,105059,1,0,0:0:0:0:
312,40,105138,1,0,0:0:0:0:
312,40,105217,2,0,P|368:36|424:72,1,116.999994644165
234,126,105533,2,0,L|112:112,1,116.999994644165
184,248,105770,1,0,0:0:0:0:
184,248,105849,6,0,L|304:232,1,116.999994644165
356,124,106165,1,0,0:0:0:0:
416,248,106323,1,0,0:0:0:0:
296,328,106480,5,0,0:0:0:0:
184,248,106638,1,0,0:0:0:0:
234,126,106796,1,0,0:0:0:0:
356,124,106954,1,0,0:0:0:0:
416,248,107112,6,0,P|368:248|316:228,1,94.499997116089
142,110,107428,2,0,P|190:110|242:130,1,94.499997116089
324,232,107744,5,0,0:0:0:0:
236,44,107901,1,0,0:0:0:0:
180,176,108059,1,0,0:0:0:0:
88,56,108217,1,0,0:0:0:0:
296,168,108375,1,0,0:0:0:0:
140,240,108533,1,0,0:0:0:0:
30,144,108691,2,0,L|152:106,1,116.999994644165
312,48,109007,5,0,0:0:0:0:
372,176,109165,1,0,0:0:0:0:
180,300,109323,1,0,0:0:0:0:
236,120,109480,1,0,0:0:0:0:
388,248,109638,1,0,0:0:0:0:
248,336,109796,1,0,0:0:0:0:
248,336,109875,1,0,0:0:0:0:
248,336,109954,1,0,0:0:0:0:
12,184,110112,1,0,0:0:0:0:
12,184,110191,1,0,0:0:0:0:
12,184,110270,6,0,P|14:246|50:294,1,116.999994644165
192,153,110586,2,0,P|190:91|154:43,1,116.999994644165
36,92,110901,1,0,0:0:0:0:
192,153,111059,1,0,0:0:0:0:
87,219,111217,1,0,0:0:0:0:
256,272,111375,2,0,P|292:260|312:240,1,58.4999973220826
176,236,111533,6,0,B|72:280|72:280|88:216,1,175.499991966248
112,132,111849,6,0,P|152:84|224:76,1,135
176,236,112165,6,0,P|144:280|104:292,1,94.499997116089
232,168,112480,6,0,L|264:79,1,94.499997116089
287,232,112796,6,0,P|232:248|173:234,1,116.999994644165
0,141,113112,2,0,P|49:124|113:132,1,116.999994644165
224,168,113428,1,0,0:0:0:0:
304,60,113586,1,0,0:0:0:0:
304,60,113665,1,0,0:0:0:0:
304,60,113744,1,0,0:0:0:0:
408,120,113901,1,0,0:0:0:0:
332,292,114059,6,0,P|300:316|252:320,1,80.9999975280763
384,220,114375,6,0,P|416:196|464:192,1,80.9999975280763
416,296,114691,6,0,P|392:348|312:372,1,135
248,288,115007,6,0,L|208:40,1,242.999992584229
80,160,115323,6,0,P|112:212|172:244,1,116.999994644165
288,128,115638,2,0,P|256:76|196:44,1,116.999994644165
158,240,115954,5,0,0:0:0:0:
288,128,116112,1,0,0:0:0:0:
248,288,116270,1,0,0:0:0:0:
378,176,116428,1,0,0:0:0:0:
344,332,116586,6,0,L|396:292,3,58.4999973220826
484,224,116901,2,0,L|495:159,3,58.4999973220826
504,120,117217,5,0,0:0:0:0:
492,76,117296,1,0,0:0:0:0:
456,44,117375,1,0,0:0:0:0:
412,32,117454,1,0,0:0:0:0:
368,44,117533,1,0,0:0:0:0:
332,76,117612,1,0,0:0:0:0:
328,124,117691,1,0,0:0:0:0:
356,164,117770,1,0,0:0:0:0:
396,188,117849,6,0,L|448:216,1,58.4999973220826
232,176,118007,2,0,L|180:148,1,58.4999973220826
312,104,118165,2,0,L|340:52,1,58.4999973220826
300,268,118323,2,0,L|272:320,1,58.4999973220826
287,40,118480,6,0,L|360:56,1,58.4999973220826
324,331,118638,2,0,L|248:312,1,58.4999973220826
180,148,118796,2,0,L|160:92,3,58.4999973220826
148,48,119112,5,0,0:0:0:0:
384,88,119270,1,0,0:0:0:0:
232,176,119428,1,0,0:0:0:0:
468,216,119586,1,0,0:0:0:0:
304,120,119744,2,0,P|232:96|152:144,1,175.499991966248
116,248,120059,2,0,L|140:304,3,58.4999973220826
200,344,120375,6,0,P|248:344|296:320,1,90
328,256,120690,1,0,0:0:0:0:
312,168,120848,2,0,P|384:160|440:200,1,135
456,288,121164,2,0,L|408:368,1,90
224,256,121480,1,0,0:0:0:0:
88,288,121638,2,0,L|0:264,1,90
72,168,121953,1,0,0:0:0:0:
168,328,122111,1,0,0:0:0:0:
208,160,122269,2,0,P|256:168|288:192,1,90
184,312,122585,5,0,0:0:0:0:
320,264,122743,2,0,L|352:176,1,90
392,44,123059,2,0,P|324:52|280:104,1,135
208,160,123375,2,0,L|104:140,1,90
72,68,123690,1,0,0:0:0:0:
16,188,123848,2,0,P|24:240|64:260,1,90
172,264,124164,2,0,L|268:288,1,90
352,196,124480,1,0,0:0:0:0:
448,344,124638,1,0,0:0:0:0:
448,344,124717,1,0,0:0:0:0:
448,344,124796,6,0,P|480:320|488:264,1,90
392,120,125111,1,0,0:0:0:0:
264,352,125269,2,0,P|216:312|192:232,1,135
224,168,125585,2,0,P|200:120|160:104,1,90
40,140,125901,1,0,0:0:0:0:
128,240,126059,2,0,L|224:256,1,90
368,280,126375,2,0,P|408:304|448:320,1,90
312,112,126690,2,0,P|272:88|232:72,1,90
152,168,127006,6,0,L|128:256,1,90
40,336,127322,1,0,0:0:0:0:
64,112,127480,2,0,P|96:56|168:48,1,135
152,168,127796,2,0,P|192:184|240:176,1,90
392,40,128111,1,0,0:0:0:0:
456,136,128269,2,0,L|432:232,1,90
376,352,128585,2,0,P|336:368|288:360,1,90
152,168,128901,2,0,P|192:152|240:160,1,90
336,216,129217,5,0,0:0:0:0:
276,308,129375,2,0,L|180:324,1,90
72,264,129690,2,0,P|28:216|28:148,1,135
104,84,130006,2,0,L|124:176,1,90
192,248,130322,1,0,0:0:0:0:
264,80,130480,2,0,L|248:168,1,90
208,348,130796,1,0,0:0:0:0:
72,264,130953,1,0,0:0:0:0:
100,368,131111,1,0,0:0:0:0:
192,248,131269,1,0,0:0:0:0:
272,368,131427,6,0,L|360:352,1,90
424,280,131743,1,0,0:0:0:0:
496,152,131901,2,0,P|424:152|384:208,1,135
336,272,132217,2,0,P|288:280|248:272,1,90
104,176,132532,1,0,0:0:0:0:
56,304,132690,2,0,P|96:320|152:304,1,90
240,200,133006,2,0,L|256:112,1,90
336,32,133322,1,0,0:0:0:0:
424,128,133480,1,0,0:0:0:0:
424,128,133559,1,0,0:0:0:0:
424,128,133638,6,0,L|440:224,1,90
512,288,133953,1,0,0:0:0:0:
384,352,134111,2,0,P|344:296|280:272,1,135
176,256,134427,2,0,P|152:208|160:168,1,90
232,64,134743,1,0,0:0:0:0:
328,144,134901,2,0,P|352:184|392:208,1,90
448,64,135217,2,0,L|352:48,1,90
328,144,135532,2,0,L|232:160,1,90
136,120,135848,5,0,0:0:0:0:
80,208,136006,2,0,L|104:304,1,90
200,344,136322,2,0,P|232:272|224:208,1,135
184,144,136638,2,0,P|168:104|184:56,1,90
280,8,136953,1,0,0:0:0:0:
336,96,137111,2,0,L|424:128,1,90
488,304,137427,2,0,L|352:256,1,135
328,288,137743,2,0,B|231:253|231:253|192:264,1,135
144,288,138059,5,0,0:0:0:0:
88,152,138216,2,0,P|48:168|24:208,2,90
208,192,138690,2,0,L|304:168,1,90
368,96,138927,1,0,0:0:0:0:
368,96,139006,2,0,P|360:48|320:16,1,90
192,72,139322,5,0,0:0:0:0:
184,96,139401,1,0,0:0:0:0:
176,120,139480,1,0,0:0:0:0:
144,232,139637,1,0,0:0:0:0:
184,328,139795,1,0,0:0:0:0:
184,328,139874,1,0,0:0:0:0:
184,328,139953,2,0,L|280:352,1,90
368,376,140269,1,0,0:0:0:0:
448,272,140427,1,0,0:0:0:0:
400,136,140585,5,0,0:0:0:0:
400,136,140664,1,0,0:0:0:0:
400,136,140743,2,0,L|304:112,1,90
232,32,141059,1,0,0:0:0:0:
176,120,141216,2,0,L|88:141,1,90
56,210,141453,1,0,0:0:0:0:
56,210,141532,2,0,L|143:231,1,90
264,344,141848,5,0,0:0:0:0:
288,328,141927,1,0,0:0:0:0:
312,312,142006,1,0,0:0:0:0:
408,240,142164,1,0,0:0:0:0:
304,112,142322,1,0,0:0:0:0:
280,128,142401,1,0,0:0:0:0:
256,144,142480,2,0,L|168:200,1,90
32,280,142795,2,0,P|32:312|72:352,1,90
216,264,143111,5,0,0:0:0:0:
232,288,143190,1,0,0:0:0:0:
248,312,143269,2,0,P|296:304|328:272,2,90
200,232,143743,2,0,P|208:184|240:152,1,90
296,256,143980,1,0,0:0:0:0:
296,256,144059,2,0,P|288:304|256:336,1,90
112,304,144374,5,0,0:0:0:0:
112,304,144453,1,0,0:0:0:0:
112,304,144532,2,0,L|80:208,1,90
136,40,144848,1,0,0:0:0:0:
136,40,144927,1,0,0:0:0:0:
136,40,145006,2,0,L|168:136,1,90
200,232,145322,1,0,0:0:0:0:
360,176,145480,1,0,0:0:0:0:
464,304,145637,6,0,L|408:320,3,45
296,256,145953,2,0,L|240:240,3,45
104,208,146269,6,0,L|88:160,1,45
136,40,146427,2,0,L|152:88,1,45
192,200,146585,2,0,P|216:200|240:192,1,45
280,48,146743,2,0,P|256:48|232:56,1,45
144,136,146901,6,0,L|112:144,6,22.5
192,200,147216,2,0,L|179:230,6,22.5
224,128,147532,1,0,0:0:0:0:
248,256,147690,2,0,L|280:264,3,22.5
304,272,147848,5,0,0:0:0:0:
352,272,147927,1,0,0:0:0:0:
392,248,148006,1,0,0:0:0:0:
416,208,148085,1,0,0:0:0:0:
424,160,148164,6,0,L|392:72,1,90
264,64,148480,2,0,L|296:152,1,90
360,304,148795,2,0,P|288:344|232:344,1,135
184,256,149111,2,0,L|168:168,1,90
72,80,149427,5,0,0:0:0:0:
72,80,149506,1,0,0:0:0:0:
72,80,149585,1,0,0:0:0:0:
32,240,149743,1,0,0:0:0:0:
224,112,149901,1,0,0:0:0:0:
224,112,149980,1,0,0:0:0:0:
224,112,150059,1,0,0:0:0:0:
184,256,150216,2,0,P|224:280|272:288,2,90
90,120,150690,6,0,L|70:76,1,45
148,40,150848,2,0,P|196:60|240:56,1,90
336,16,151164,1,0,0:0:0:0:
260,184,151322,2,0,L|396:200,1,135
260,88,151637,2,0,P|208:104|184:132,1,90
128,228,151953,5,0,0:0:0:0:
100,264,152032,1,0,0:0:0:0:
60,288,152111,1,0,0:0:0:0:
24,140,152269,1,0,0:0:0:0:
144,184,152427,1,0,0:0:0:0:
172,148,152506,1,0,0:0:0:0:
212,124,152585,1,0,0:0:0:0:
288,256,152743,5,0,0:0:0:0:
204,24,152901,1,0,0:0:0:0:
120,88,153059,1,0,0:0:0:0:
112,208,153216,6,0,L|160:216,7,45
176,328,153848,2,0,L|224:320,7,45
268,312,154480,5,0,0:0:0:0:
316,292,154559,1,0,0:0:0:0:
344,252,154637,1,0,0:0:0:0:
352,204,154716,1,0,0:0:0:0:
340,156,154795,1,0,0:0:0:0:
316,112,154874,1,0,0:0:0:0:
276,84,154953,1,0,0:0:0:0:
228,68,155032,1,0,0:0:0:0:
180,80,155111,6,0,L|132:96,3,45
16,176,155427,2,0,L|64:192,3,45
108,208,155743,5,0,0:0:0:0:
148,236,155822,1,0,0:0:0:0:
180,276,155901,1,0,0:0:0:0:
204,320,155980,1,0,0:0:0:0:
208,368,156059,2,0,L|152:380,1,45
20,240,156216,2,0,L|76:228,1,45
108,208,156374,5,0,0:0:0:0:
148,180,156453,1,0,0:0:0:0:
180,140,156532,1,0,0:0:0:0:
204,96,156611,1,0,0:0:0:0:
208,48,156690,2,0,L|252:32,1,45
436,88,156848,2,0,L|392:104,1,45
296,124,157006,6,0,L|300:148,1,22.5
244,120,157085,2,0,L|236:148,1,22.5
204,96,157164,2,0,L|184:112,1,22.5
108,208,157322,6,0,L|64:188,2,45
256,272,157637,1,0,0:0:0:0:
404,208,157795,1,0,0:0:0:0:
436,88,157953,6,0,L|388:76,3,45
344,68,158269,6,0,P|300:108|296:140,1,90
404,208,158585,2,0,P|448:168|452:136,1,90
420,24,158901,1,0,0:0:0:0:
324,176,159059,1,0,0:0:0:0:
264,52,159216,2,0,L|240:148,1,90
208,272,159532,5,0,0:0:0:0:
52,192,159690,1,0,0:0:0:0:
120,100,159848,2,0,L|144:196,1,90
128,344,160164,1,0,0:0:0:0:
208,176,160322,1,0,0:0:0:0:
30,279,160480,2,0,L|54:183,1,90
36,64,160795,5,0,0:0:0:0:
184,24,160953,1,0,0:0:0:0:
120,197,161111,2,0,L|216:173,1,90
336,84,161427,5,0,0:0:0:0:
296,232,161585,1,0,0:0:0:0:
120,197,161743,2,0,L|24:173,1,90
36,64,162059,5,0,0:0:0:0:
184,104,162216,1,0,0:0:0:0:
120,197,162374,2,0,L|144:293,1,90
357,171,162690,2,0,L|333:75,1,90
240,180,163006,2,0,L|277:325,1,135
288,356,163322,5,0,0:0:0:0:
288,356,163480,1,0,0:0:0:0:
120,196,163637,1,0,0:0:0:0:
120,196,163795,1,0,0:0:0:0:
184,104,163953,1,0,0:0:0:0:
356,172,164111,1,0,0:0:0:0:
196,276,164269,1,0,0:0:0:0:
264,36,164427,1,0,0:0:0:0:
120,196,164585,5,0,0:0:0:0:
120,196,164743,1,0,0:0:0:0:
288,356,164901,1,0,0:0:0:0:
288,356,165059,1,0,0:0:0:0:
264,196,165216,1,0,0:0:0:0:
332,368,165374,1,0,0:0:0:0:
436,208,165532,1,0,0:0:0:0:
196,276,165690,1,0,0:0:0:0:
120,196,165848,6,0,L|96:152,7,45
168,36,166480,2,0,L|192:80,7,45
236,176,167111,6,0,L|224:216,1,22.5
288,188,167190,2,0,L|288:220,1,22.5
340,180,167269,2,0,L|356:204,1,22.5
192,144,167427,6,0,L|204:104,1,22.5
140,132,167506,2,0,L|140:100,1,22.5
88,140,167585,2,0,L|72:116,1,22.5
384,156,167743,6,0,L|424:144,1,22.5
396,208,167822,2,0,L|428:208,1,22.5
388,260,167901,2,0,L|412:276,1,22.5
252,304,168059,6,0,L|256:332,7,22.5
260,360,168374,5,0,0:0:0:0:
260,360,168690,2,0,P|164:344|144:328,1,125.999996154785
72,192,169637,5,0,0:0:0:0:
216,88,169953,1,0,0:0:0:0:
256,244,170269,2,0,P|308:248|380:232,1,125.999996154785
344,80,170901,5,0,0:0:0:0:
168,176,171216,2,0,P|148:244|168:296,1,125.999996154785
264,328,171848,1,0,0:0:0:0:
368,268,172006,1,0,0:0:0:0:
476,356,172164,6,0,P|496:316|492:236,1,125.999996154785
376,148,172795,2,0,L|240:164,1,125.999996154785
156,100,173269,1,0,0:0:0:0:
72,272,173427,6,0,L|208:256,1,125.999996154785
272,300,173901,1,0,0:0:0:0:
348,348,174059,2,0,L|484:332,1,125.999996154785
364,148,174690,5,0,0:0:0:0:
272,300,175006,1,0,0:0:0:0:
192,200,175164,1,0,0:0:0:0:
72,272,175322,2,0,L|56:136,1,125.999996154785
177,74,175953,6,0,L|193:210,1,125.999996154785
260,280,176427,1,0,0:0:0:0:
360,316,176585,2,0,P|420:292|448:240,1,125.999996154785
428,136,177059,1,0,0:0:0:0:
320,76,177216,6,0,L|304:152,1,62.9999980773926
192,76,177532,2,0,L|208:152,1,62.9999980773926
236,280,177848,2,0,L|160:256,1,62.9999980773926
64,220,178164,2,0,P|60:148|76:120,1,94.499997116089
96,104,178480,5,0,0:0:0:0:
96,104,178795,1,0,0:0:0:0:
96,104,179111,1,0,0:0:0:0:
96,104,179427,2,0,L|176:120,1,62.9999980773926
324,144,179743,5,0,0:0:0:0:
324,144,180059,1,0,0:0:0:0:
324,144,180374,1,0,0:0:0:0:
224,256,180690,1,0,0:0:0:0:
152,176,180848,1,0,0:0:0:0:
60,288,181006,5,0,0:0:0:0:
60,288,181322,1,0,0:0:0:0:
60,288,181637,1,0,0:0:0:0:
60,288,181953,2,0,L|140:272,1,62.9999980773926
304,228,182269,5,0,0:0:0:0:
304,228,182585,1,0,0:0:0:0:
304,228,182901,1,0,0:0:0:0:
416,280,183059,1,0,0:0:0:0:
416,280,183137,1,0,0:0:0:0:
416,280,183216,1,0,0:0:0:0:
260,352,183374,1,0,0:0:0:0:
84,224,183532,5,0,0:0:0:0:
176,40,183848,1,0,0:0:0:0:
232,160,184164,1,0,0:0:0:0:
312,40,184480,1,0,0:0:0:0:
428,160,184795,1,0,0:0:0:0:
336,344,185111,1,0,0:0:0:0:
280,224,185427,1,0,0:0:0:0:
200,344,185743,1,0,0:0:0:0:
100,192,186059,5,0,0:0:0:0:
172,60,186216,1,0,0:0:0:0:
248,260,186374,1,0,0:0:0:0:
316,56,186532,1,0,0:0:0:0:
200,160,186690,1,0,0:0:0:0:
352,248,186848,1,0,0:0:0:0:
148,272,187006,1,0,0:0:0:0:
288,360,187164,1,0,0:0:0:0:
84,232,187322,6,0,P|76:184|88:140,1,90
426,144,187637,2,0,P|436:188|428:232,1,90
299,296,187953,1,0,0:0:0:0:
268,286,188032,1,0,0:0:0:0:
237,277,188111,1,0,0:0:0:0:
206,268,188190,1,0,0:0:0:0:
175,259,188269,1,0,0:0:0:0:
145,249,188348,1,0,0:0:0:0:
114,240,188427,1,0,0:0:0:0:
83,231,188506,1,0,0:0:0:0:
52,220,188585,6,0,P|48:172|56:152,1,67.5
208,56,188901,6,0,P|216:104|204:152,1,94.499997116089
148,288,189216,6,0,P|232:320|308:328,1,161.999995056153
438,165,189532,6,0,P|318:185|202:145,1,242.999992584229
100,112,189848,6,0,L|116:228,1,116.999994644165
248,344,190164,2,0,L|232:228,1,116.999994644165
208,24,190480,1,0,0:0:0:0:
325,160,190637,2,0,P|385:176|445:160,1,116.999994644165
380,40,190953,1,0,0:0:0:0:
344,52,191032,1,0,0:0:0:0:
312,72,191111,6,0,P|280:116|268:176,1,116.999994644165
264,320,191427,2,0,B|220:352|220:352|160:328|96:328|36:368,2,233.999989288331
368,220,192216,1,0,0:0:0:0:
164,192,192374,5,0,0:0:0:0:
164,192,192453,1,0,0:0:0:0:
164,192,192532,2,0,P|160:128|176:76,1,116.999994644165
260,252,192848,1,0,0:0:0:0:
379,105,193006,1,0,0:0:0:0:
379,105,193085,1,0,0:0:0:0:
379,105,193164,2,0,P|383:169|367:221,1,116.999994644165
276,40,193480,1,0,0:0:0:0:
168,96,193637,6,0,P|96:80|56:56,1,116.999994644165
164,192,193953,2,0,P|256:208|360:304,1,233.999989288331
120,344,194427,2,0,L|232:288,1,116.999994644165
384,192,194743,1,0,0:0:0:0:
384,192,194822,1,0,0:0:0:0:
384,192,194901,6,0,P|348:120|292:104,1,116.999994644165
60,128,195216,1,0,0:0:0:0:
220,192,195374,1,0,0:0:0:0:
80,316,195532,2,0,L|104:196,1,116.999994644165
272,28,195848,2,0,L|296:148,1,116.999994644165
404,320,196164,5,0,0:0:0:0:
294,142,196322,1,0,0:0:0:0:
192,328,196480,1,0,0:0:0:0:
82,150,196637,1,0,0:0:0:0:
272,28,196795,2,0,P|400:96|416:176,1,233.999989288331
416,173,197269,1,0,0:0:0:0:
284,284,197427,5,0,0:0:0:0:
284,284,197506,1,0,0:0:0:0:
284,284,197585,2,0,P|216:244|184:212,1,116.999994644165
164,60,197901,1,0,0:0:0:0:
100,272,198059,1,0,0:0:0:0:
100,272,198137,1,0,0:0:0:0:
100,272,198216,2,0,P|180:324|208:328,2,116.999994644165
48,136,198690,6,0,L|148:124,1,90
232,196,199006,6,0,L|296:164,1,62.9999980773926
404,148,199322,6,0,L|424:104,1,45
272,40,199637,6,0,L|228:204,1,161.999995056153
108,228,199874,1,0,0:0:0:0:
108,228,199953,6,0,L|142:104,1,116.999994644165
164,16,200269,1,0,0:0:0:0:
44,72,200427,1,0,0:0:0:0:
176,160,200585,2,0,L|304:136,1,116.999994644165
372,72,200901,1,0,0:0:0:0:
352,208,201059,1,0,0:0:0:0:
344,228,201137,1,0,0:0:0:0:
336,252,201216,6,0,L|208:276,1,116.999994644165
96,232,201532,2,0,P|72:168|132:20,2,233.999989288331
196,320,202322,1,0,0:0:0:0:
256,192,202480,5,0,0:0:0:0:
264,172,202559,1,0,0:0:0:0:
272,156,202637,2,0,L|396:144,1,116.999994644165
460,44,202953,1,0,0:0:0:0:
296,108,203111,1,0,0:0:0:0:
288,128,203190,1,0,0:0:0:0:
280,144,203269,2,0,L|156:156,1,116.999994644165
56,256,203585,1,0,0:0:0:0:
64,276,203664,1,0,0:0:0:0:
72,292,203743,6,0,L|196:304,1,116.999994644165
344,304,204059,2,0,B|408:272|408:272|448:168|380:112,1,233.999989288331
216,72,204532,2,0,L|100:100,1,116.999994644165
200,208,204848,1,0,0:0:0:0:
200,208,204927,1,0,0:0:0:0:
200,208,205006,6,0,L|316:236,1,116.999994644165
440,68,205322,2,0,L|324:40,1,116.999994644165
296,144,205637,1,0,0:0:0:0:
128,132,205795,2,0,P|96:188|104:240,2,116.999994644165
232,64,206269,5,0,0:0:0:0:
312,160,206427,1,0,0:0:0:0:
200,208,206585,1,0,0:0:0:0:
280,304,206743,1,0,0:0:0:0:
89,247,206901,2,0,L|201:207,1,116.999994644165
280,304,207137,1,0,0:0:0:0:
280,304,207216,2,0,L|168:344,1,116.999994644165
60,340,207532,5,0,0:0:0:0:
20,176,207690,1,0,0:0:0:0:
168,288,207848,1,0,0:0:0:0:
232,131,208006,1,0,0:0:0:0:
280,304,208164,1,0,0:0:0:0:
429,224,208322,1,0,0:0:0:0:
384,48,208480,1,0,0:0:0:0:
240,224,208637,1,0,0:0:0:0:
104,132,208795,6,0,L|156:108,2,45
408,132,209111,2,0,L|356:108,2,45
256,52,209427,1,0,0:0:0:0:
256,80,209506,1,0,0:0:0:0:
256,108,209585,1,0,0:0:0:0:
172,244,209743,2,0,L|212:264,3,40.4999987640381
228,312,209901,2,0,L|272:300,3,40.4999987640381
308,284,210059,6,0,P|308:212|268:164,1,135.000005149842
68,224,210374,2,0,P|68:296|108:344,1,135.000005149842
188,156,210690,1,0,0:0:0:0:
228,312,210848,1,0,0:0:0:0:
360,216,211006,1,0,0:0:0:0:
308,40,211164,2,0,L|240:64,1,67.5000025749208
112,112,211322,6,0,P|104:192|144:232,1,135.000005149842
256,272,211637,2,0,B|336:280|336:280|272:212|292:84,2,270.000010299683
137,228,212427,1,0,0:0:0:0:
112,112,212585,6,0,L|192:80,1,67.5000025749208
304,40,212743,2,0,P|372:84|380:144,2,135.000005149842
112,112,213216,2,0,L|88:192,1,67.5000025749208
96,304,213374,2,0,P|172:312|212:264,1,135.000005149842
196,36,213690,1,0,0:0:0:0:
196,36,213769,1,0,0:0:0:0:
196,36,213848,6,0,L|224:172,1,135.000005149842
208,348,214164,2,0,L|344:308,1,135.000005149842
460,144,214480,2,0,B|460:96|460:96|408:160|408:160|312:148|276:208,1,270.000010299683
208,348,214953,1,0,0:0:0:0:
176,340,215032,1,0,0:0:0:0:
144,332,215111,6,0,P|120:280|132:204,1,135.000005149842
344,172,215427,2,0,P|368:224|356:300,1,135.000005149842
216,232,215743,1,0,0:0:0:0:
68,152,215901,1,0,0:0:0:0:
68,152,215980,1,0,0:0:0:0:
68,152,216059,2,0,L|40:288,1,135.000005149842
144,332,216374,5,0,0:0:0:0:
244,184,216532,1,0,0:0:0:0:
148,228,216690,1,0,0:0:0:0:
84,61,216848,1,0,0:0:0:0:
244,96,217006,2,0,P|332:128|332:232,1,202.500007724762
304,304,217322,2,0,P|360:360|472:328,1,202.500007724762
508,264,217637,5,0,0:0:0:0:
156,144,217795,1,0,0:0:0:0:
420,192,217953,1,0,0:0:0:0:
352,32,218111,1,0,0:0:0:0:
196,320,218269,1,0,0:0:0:0:
56,172,218427,1,0,0:0:0:0:
164,24,218585,1,0,0:0:0:0:
240,232,218743,1,0,0:0:0:0:
108,324,218901,6,0,P|72:280|80:176,1,161.999995056153
124,316,219216,6,0,P|136:252|196:208,1,135
148,320,219532,6,0,P|192:292|244:304,1,108
352,360,219848,6,0,L|384:124,1,202.500007724762
240,232,220164,6,0,P|164:232|104:212,1,135.000005149842
379,159,220480,2,0,P|455:159|515:179,1,135.000005149842
352,360,220795,1,0,0:0:0:0:
240,232,220953,1,0,0:0:0:0:
380,160,221111,1,0,0:0:0:0:
228,348,221269,1,0,0:0:0:0:
192,336,221348,1,0,0:0:0:0:
160,304,221427,6,0,P|136:232|152:172,1,135.000005149842
344,252,221743,2,0,P|412:252|464:208,1,135.000005149842
276,136,222059,2,0,L|240:0,1,135.000005149842
240,232,222374,2,0,L|276:368,1,135.000005149842
344,252,222690,5,0,0:0:0:0:
144,208,222848,1,0,0:0:0:0:
144,208,222927,1,0,0:0:0:0:
144,208,223006,2,0,L|4:232,1,135.000005149842
196,64,223322,1,0,0:0:0:0:
196,64,223401,1,0,0:0:0:0:
196,64,223480,2,0,L|336:40,1,135.000005149842
312,160,223795,1,0,0:0:0:0:
468,80,223953,6,0,P|492:144|468:212,1,135.000005149842
38,205,224269,2,0,P|20:141|44:80,1,135.000005149842
248,84,224585,2,0,P|311:65|373:89,1,135.000005149842
292,292,224901,2,0,P|216:316|96:280,1,202.500007724762
38,205,225216,6,0,L|94:69,1,135.000005149842
343,167,225532,2,0,L|287:303,1,135.000005149842
112,348,225848,1,0,0:0:0:0:
248,84,226006,2,0,P|312:56|384:68,2,135.000005149842
368,308,226480,5,0,0:0:0:0:
160,144,226637,1,0,0:0:0:0:
112,348,226795,1,0,0:0:0:0:
344,168,226953,1,0,0:0:0:0:
212,336,227111,2,0,P|172:280|104:260,1,135.000005149842
68,160,227348,1,0,0:0:0:0:
68,160,227427,2,0,P|84:92|136:56,1,135.000005149842
256,20,227743,6,0,L|256:88,1,67.5000025749208
400,308,227901,2,0,L|346:266,1,67.5000025749208
104,304,228059,2,0,L|160:260,1,67.5000025749208
400,130,228216,2,0,L|340:170,1,67.5000025749208
68,160,228374,6,0,L|72:228,1,67.5000025749208
208,356,228532,2,0,L|200:268,1,67.5000025749208
296,136,228690,2,0,L|300:204,1,67.5000025749208
432,340,228848,2,0,L|424:252,1,67.5000025749208
392,44,229006,5,0,0:0:0:0:
304,240,229164,1,0,0:0:0:0:
172,56,229322,1,0,0:0:0:0:
52,268,229480,1,0,0:0:0:0:
208,356,229637,2,0,L|248:364,14,33.7500012874604
304,240,230269,1,0,0:0:0:0:
256,192,230348,12,0,235953,0:0:0:0:
