osu file format v5

[General]
AudioFilename: OP-Forever.mp3
AudioLeadIn: 0
PreviewTime: -1
Countdown: 1
SampleSet: Normal
StackLeniency: 0.7
Mode: 0
LetterboxInBreaks: 1

[Metadata]
Title:Forever...
Artist:savage genius
Creator:Guu
Version:Easy
Source:Erementar Gerad
Tags:

[Difficulty]
HPDrainRate:1
CircleSize:4
OverallDifficulty:0
SliderMultiplier:1.3
SliderTickRate:2

[Events]
//Background and Video events
0,0,"Erementar-Gerad_poptp_1047_431004.jpg"
//Break Periods
2,46030,49265
2,63544,65590
//Storyboard Layer 0 (Background)
//Storyboard Layer 1 (Failing)
//Storyboard Layer 2 (Passing)
//Storyboard Layer 3 (Foreground)
//Storyboard Sound Samples
//Background Colour Transformations
3,100,15,213,255

[TimingPoints]
730,402.684563758389,4,1,0,100,1,0

[Colours]
Combo1 : 232,2,215
Combo2 : 174,255,6
Combo3 : 56,0,249
Combo4 : 232,30,30
Combo5 : 255,119,9

[HitObjects]
72,104,20864,1,0
176,104,21266,1,0
280,104,21669,1,0
384,104,22072,1,0
384,208,22474,1,0
384,312,22877,1,0
280,312,23280,1,0
176,312,23683,1,0
176,208,24085,2,0,B|432:112,1,260,0|8
216,64,25696,5,0
48,88,27307,5,0
48,192,27709,1,0
48,296,28112,1,0
152,296,28515,1,0
152,192,28917,1,0
152,88,29320,1,0
256,88,29723,6,0,B|416:88,3,130,0|8|0|8
488,88,31334,2,0,B|488:248,1,130,0|8
488,320,32139,1,0
384,320,32542,1,8
280,320,32944,1,8
104,200,33750,6,0,B|168:328,1,130,0|0
248,256,34555,1,0
336,200,34958,1,0
424,144,35360,1,0
336,200,35763,1,0
424,256,36166,5,0
320,256,36568,1,0
216,256,36971,2,0,B|184:384|88:384|56:256,1,260,0|0
136,192,38179,1,8
216,120,38588,5,0
216,120,38992,1,8
216,120,39387,1,8
40,64,40193,5,0
112,144,40595,1,0
184,64,40998,1,0
256,144,41403,1,0
312,64,41808,1,0
376,144,42213,1,0
480,144,42609,6,0,B|480:304,3,130,0|0|0|0
256,192,44219,12,0,45830
32,184,51065,6,0,B|32:88|64:24|128:24|224:120,1,260,0|0
192,192,52273,6,0,B|320:256|384:224|384:96,1,260,0|0
408,24,53481,2,0,B|472:152,1,130,0|0
480,240,54287,5,0
376,240,54689,1,0
272,240,55092,1,0
168,240,55495,2,0,B|8:240,2,130,0|0|0
168,136,56703,1,0
168,32,57105,2,8,B|328:32,3,130,0|0|0|0
296,136,58716,5,4
296,288,59320,1,0
296,288,59521,1,4
296,136,60125,1,0
296,136,60327,1,4
296,32,60729,1,4
192,32,61134,1,4
16,128,61938,6,0,B|272:192|48:352,1,325,0|0
40,296,63146,1,8
40,296,63347,1,8
112,184,66770,6,0,B|176:152|240:184,3,130,0|0|0|0
304,104,68372,5,0
376,184,68777,1,8
304,264,69181,1,8
224,336,69586,5,8
152,264,69991,2,8,B|-8:264,3,130,0|0|0|0
72,176,71602,5,0
136,96,72007,1,8
200,176,72412,1,8
272,96,72817,1,8
336,176,73221,2,8,B|112:176,1,195,0|0
88,176,74031,1,8
48,288,75222,5,0
152,288,75627,1,0
256,288,76032,1,0
360,288,76436,2,8,B|520:160,1,195,0|8
352,160,77642,2,8,B|192:288,1,195,0|8
256,64,79656,6,0,B|320:32|384:64,3,130,0|0|0|0
328,152,81266,6,8,B|360:280,1,130,0|8
256,272,82072,1,8
152,272,82474,5,8
152,168,82877,2,0,B|-8:168,3,130,0|0|0|0
24,64,84488,6,8,B|184:64,3,130,0|8|0|8
256,64,86099,2,8,B|288:160|352:192|384:160|416:64,1,260,0|0
480,152,87307,5,0
440,248,87709,1,0
336,248,88112,1,8
232,248,88515,1,8
128,248,88917,1,12
256,192,89320,12,4,92542
